#TITLE:I'm on Fire;
#SUBTITLE:;
#ARTIST:AD/DA;
#TITLETRANSLIT:;
#SUBTITLETRANSLIT:;
#ARTISTTRANSLIT:;
#GENRE:;
#CREDIT:;
#MUSIC:I'm on Fire.ogg;
#BANNER:I'm on Fire.png;
#BACKGROUND:;
#CDTITLE:;
#SAMPLESTART:38.950;
#SAMPLELENGTH:12.000;
#SELECTABLE:YES;
#OFFSET:1.039;
#BPMS:0.000=150.000;
#STOPS:;
#LASTBEATHINT:0.124945;
#BGCHANGES:;
#FGCHANGES:;

//--------------- dance-single - ----------------
#NOTES:
     dance-single:
     :
     Beginner:
     3:
     0.637377,0.744257,0,0,0.426404,429,429,0,0,0,0,0.637377,0.744257,0,0,0.426404,429,429,0,0,0,0:
0000
0000
0000
0000
,
0000
0000
0000
0000
,
0000
0000
0000
0000
,
0000
0000
0000
0000
,
0000
0000
0000
0000
,
0000
0000
0000
0000
,
1001
0000
0000
0000
,
0000
0000
0000
0000
,
1001
0000
0000
0000
,
0000
0000
0000
0000
,
1001
0000
0000
0000
,
0010
0010
0010
0000
,
0100
0000
0001
0000
,
1000
1000
1000
0000
,
0100
0000
1000
0000
,
0001
0001
0001
0000
,
0010
0000
0001
0000
,
0100
0100
0100
0000
,
0010
0000
1000
0000
,
0100
0100
0100
0000
,
0010
0010
0010
0000
,
0100
0100
0100
0000
,
0010
0010
0010
0000
,
0001
0000
0000
0000
,
1001
0000
0110
0000
,
1001
0000
0000
0000
,
0110
0000
1001
0000
,
0110
0000
0000
0000
,
1001
0000
0110
0000
,
1001
0000
0000
0000
,
1000
0000
0010
0000
,
0100
0100
0100
0000
,
1001
0000
0000
0000
,
1001
0000
0000
0000
,
0100
0100
0100
0000
,
0010
0010
0010
0000
,
1001
0000
0000
0000
,
1001
0000
0000
0000
,
0001
0001
0001
0000
,
1000
1000
1000
0000
,
0010
0000
0010
0000
,
0100
0100
0100
0000
,
0010
0000
0100
0000
,
0001
0000
1001
0000
,
0010
0000
0010
0000
,
0100
0100
0100
0000
,
0010
0000
0010
0000
,
1001
0000
0000
0000
,
0100
0000
1001
0000
,
0010
0000
1001
0000
,
0001
0000
0110
0000
,
1000
0000
0110
0000
,
0001
0001
0100
0000
,
1000
1000
0100
0000
,
0100
0100
0010
0010
,
0000
0000
0000
0000
,
1001
0000
0000
0000
,
0010
1001
0000
0000
;

//--------------- dance-single - ----------------
#NOTES:
     dance-single:
     :
     Easy:
     7:
     0.33726,0.357243,0.364003,0,0,227,192,35,0,0,0,0.33726,0.357243,0.364003,0,0,227,192,35,0,0,0:
0000
0000
0000
0000
,
0000
0000
0000
0000
,
0000
0000
0000
0000
,
0000
0000
0000
0000
,
0000
0000
0000
0000
,
0000
0000
0000
0000
,
1000
0000
0000
1100
0000
0000
1010
0000
,
0000
1001
0000
0000
0100
0000
0010
0000
,
0001
0000
0000
0011
0000
0000
0101
0000
,
0000
1001
0000
0000
0100
0000
0010
0000
,
1000
0000
0000
1001
0000
0000
0110
0000
,
0010
0100
0010
0100
,
0001
0010
0001
0101
,
1000
0010
1000
1100
,
0010
0100
0010
0110
,
0001
0000
1000
0000
0001
0001
0001
0000
,
0100
0010
1000
1010
,
0001
0010
0100
1100
,
0010
0001
1000
1001
,
0010
0000
0100
0000
0010
0010
0010
0000
,
1000
0000
0000
0110
0000
0000
0011
0000
,
0001
0100
0000
0001
0100
0000
0110
0000
,
1000
0000
1000
0000
0100
0000
0100
0010
,
0000
0000
0000
1001
,
0001
0010
0001
0100
,
0001
0010
0110
1001
,
1000
0010
1000
0100
,
1000
0000
0010
0000
0100
0100
0100
0000
,
0010
1000
0001
1000
,
0100
1000
0010
0110
,
0001
0001
0001
0010
,
0100
0000
1000
0100
1000
0000
0000
0000
,
1000
0010
0101
0000
,
0001
0010
0110
0000
,
1000
0010
0001
0010
,
1000
1000
1000
0000
0001
0001
0001
0000
,
0010
0010
1001
0000
,
0010
1000
1100
0000
,
0010
0001
1000
0100
,
0010
0010
0100
0100
,
0010
0001
0010
0001
,
0100
0000
0001
0000
0010
0010
0010
0000
,
0100
1000
0010
0001
,
0010
1000
1001
0000
,
1000
0100
1000
0010
,
1000
0000
0100
0000
0010
0010
0010
0000
,
0001
0100
1000
0100
,
0001
0001
0001
0001
,
1000
0100
0110
0000
,
0001
0100
0110
0000
,
1000
0010
1001
0000
,
0001
0010
1001
0000
,
1000
0100
0110
0001
,
1000
0010
0110
0001
,
0100
0000
0010
0000
1000
0000
1000
0001
,
0000
0000
0000
0010
,
1001
0000
0000
0000
,
0110
1001
0000
0000
;

//--------------- dance-single - ----------------
#NOTES:
     dance-single:
     :
     Medium:
     9:
     0.435318,0.446554,0.332803,0,0.0156,293,261,32,0,0,0,0.435318,0.446554,0.332803,0,0.0156,293,261,32,0,0,0:
0000
0000
0000
0000
,
0000
0000
0000
0000
,
0000
0000
0000
0000
,
0000
0000
0000
0000
,
0000
0000
0000
0000
,
0000
0000
0000
0000
,
1100
0000
0001
0010
0000
0001
0100
0000
,
0001
0010
0000
0100
1000
1000
1000
0000
,
0011
0000
1000
0100
0000
1000
0010
0000
,
1000
0100
0000
0010
0001
0001
0001
0000
,
0110
0000
1000
0100
0000
0010
0001
0000
,
0100
0010
0100
0010
0100
0010
0100
0000
,
0010
0000
1000
0000
0001
0010
0001
0000
,
1000
0000
0100
0000
0010
0001
0010
0000
,
0100
0000
1000
0000
0001
0100
0001
0000
,
0010
0100
1100
0011
,
1000
0000
0010
0000
0100
0001
0010
0000
,
0001
0000
0100
0000
0010
1000
0100
0000
,
0010
0000
0110
0000
1000
1000
1000
0000
,
0010
0000
0110
0000
0001
0001
0001
0000
,
1100
0000
0000
0011
0000
0000
1100
0000
,
1000
0010
0000
0010
0100
0000
0110
0000
,
0001
0010
0100
1000
0000
1000
0001
0100
,
0000
0000
0000
1001
,
0010
0010
0100
0000
0100
0100
0001
0000
,
0001
0001
1000
0000
0100
0000
0110
0000
,
0001
0001
0010
0000
0010
0010
0100
0000
,
0100
0100
1000
0000
1010
0000
0101
0000
,
1000
1000
0100
0000
0010
0010
0001
0000
,
0001
0001
0100
0000
0010
0000
0100
0010
,
1000
0101
1000
0101
,
0001
0010
0100
1000
0100
0000
1000
0010
,
0100
0000
0000
0100
0000
0000
0100
0000
0110
0000
0000
0000
0000
0000
0000
0000
,
0001
0100
0000
0001
0010
0100
0010
0000
,
0100
0000
0000
0100
0000
0000
0010
0000
0100
0000
0000
0000
1001
0000
0000
0000
,
1000
0010
0100
0000
0001
0010
0100
0000
,
0010
0000
0000
0001
0000
0000
1000
0000
1001
0000
0000
0000
0000
0000
0000
0000
,
0010
0001
0000
0010
0001
0000
0001
0100
,
0010
1000
1000
0100
1000
0000
0010
0000
,
0110
0001
1000
0001
,
1001
0000
1000
0100
0000
1000
0100
0000
,
0010
0001
0000
1000
0100
1000
0010
0000
,
1001
0000
0001
0100
0000
0001
0100
0000
,
0001
0010
0000
0001
0100
0001
0010
0000
,
0110
0000
1000
1000
0000
0010
0100
0000
,
0001
0001
0000
0010
0001
1000
0001
0000
,
0110
0000
0001
0001
0000
0100
0010
0000
,
1000
0100
1000
0100
1000
0100
1000
0000
,
0001
0001
0001
0000
0101
0000
0010
0000
,
1000
1000
1000
0000
1100
0000
0010
0000
,
0100
0100
0100
0000
0110
0000
0001
0000
,
0100
0100
0100
0000
0110
0000
1000
0000
,
1000
0100
0001
0000
0100
0000
1000
0000
,
0001
0100
1000
0000
0100
0000
0001
0000
,
0010
0100
0000
0010
0100
1000
0100
0010
,
0000
0000
0000
0100
,
1001
0000
0000
0000
,
0110
1001
0000
0000
;

//--------------- dance-single - ----------------
#NOTES:
     dance-single:
     :
     Hard:
     14:
     0.334289,0.405604,0.104001,0,0.244402,225,215,10,0,0,0,0.334289,0.405604,0.104001,0,0.244402,225,215,10,0,0,0:
0000
0000
0000
0000
,
0000
0000
0000
0000
,
0000
0000
0000
0000
,
0000
0000
0000
0000
,
0000
0000
0000
0000
,
0000
0000
0000
0000
,
1000
0000
0100
1000
0100
0000
0010
0000
0000
0000
0001
0100
0001
0000
0000
0000
,
1000
0001
0010
0000
0000
0000
0100
0000
0010
0000
0100
0000
1000
0000
0001
0000
,
0100
0000
0001
0010
0001
0000
0100
0000
0000
0000
0010
1000
0010
0000
0000
0000
,
0100
0001
1000
0000
0000
0000
0010
0000
0100
0000
0001
0000
1000
0000
0001
0000
,
0010
0000
0100
0010
0100
0000
1000
0000
0000
0000
0010
0100
0010
0000
1000
0000
,
0100
0010
0001
1000
0001
1000
0001
1000
0001
1000
0001
1000
0001
1000
0000
0000
,
0100
0000
0010
0000
0110
0000
0001
0100
0000
0010
1000
0000
0001
0000
1000
0000
,
0010
0000
0100
0000
0110
0000
1000
0100
0000
0010
0001
0000
0100
0000
0000
0000
,
0010
0000
1000
0000
1001
0000
0100
0010
0000
0001
0010
0000
0100
0000
1000
0000
,
0010
0100
0010
0100
0001
0000
0001
0010
0100
0000
0100
0000
0100
0000
0000
0000
,
1000
0000
0010
0000
0011
0000
0001
0100
0000
0010
1000
0000
0001
0000
0100
0000
,
0001
0000
0010
0000
1010
0000
1000
0100
0000
0010
0001
0000
0100
0000
0010
0000
,
1000
0000
0100
0000
0101
0000
0001
0010
0000
0100
1000
0000
0010
0000
0100
0000
,
0001
0010
0001
0000
0001
0100
0001
0000
1000
0010
1000
0000
1000
0100
1000
0000
,
0110
0001
0000
1010
0001
0000
0110
0001
,
1000
0010
0100
0000
0100
0000
1000
0010
0100
0000
0100
0000
1000
0000
0010
0000
,
0001
0000
1000
0100
1000
0000
0100
0000
0001
0100
0001
0000
0010
0000
0100
0000
,
0000
0000
0000
1001
,
0100
0000
0001
0000
0010
0010
1000
0000
0100
0000
1000
0000
0010
0010
0001
0000
,
0100
0000
0001
0000
0010
0010
1000
0000
0100
0000
0010
0000
0100
0000
0010
0000
,
0001
0000
0100
0000
0010
0010
0001
0000
1000
0000
0100
0000
0010
0010
1000
0000
,
0001
0000
0100
0000
0010
0010
0001
0000
0100
0000
0010
0000
0100
0000
0010
0000
,
1000
0000
0100
0000
0001
0001
0010
0000
0001
0000
0100
0000
1000
1000
0010
0000
,
1000
0000
0100
0000
0001
0001
0010
0000
0100
0000
1000
0000
0001
0000
1000
0000
,
0001
0000
0010
0000
0100
1000
0100
0000
0010
0000
0001
0000
1000
0000
0010
0000
,
0100
0000
0000
0000
0001
0000
0010
0000
0110
0000
0000
1100
0000
0000
0011
0000
,
1000
0000
0000
0010
0000
0000
0010
0001
0100
0000
0000
0000
0110
0000
0000
0000
,
1000
0100
0001
0100
1000
0000
1000
0010
,
0110
0000
0000
1001
0000
0000
0010
0000
0100
0000
0110
0000
0000
0000
0001
0000
,
0010
0100
1000
0000
0100
0000
0010
0000
1000
0000
0000
0010
0000
0000
0001
0000
,
1000
0000
0000
1000
0000
0000
1000
0001
0100
0000
0000
0000
0110
0000
0000
0000
,
1000
0010
0001
0010
1000
0000
0100
0010
,
0100
0000
1000
0010
0100
0000
0010
1000
0100
0000
0000
0000
0010
0000
0100
0000
,
0010
0000
0001
0100
0010
0000
0100
0001
0010
0000
0100
0000
0010
0000
0000
0000
,
0001
0100
0010
0001
1000
0010
0001
0100
,
0010
0000
0001
0000
1000
0000
0010
0000
0100
0000
0100
0010
0100
0000
0010
0000
,
1000
0100
0010
1000
0001
0010
1000
0100
,
0010
0000
1000
0000
0001
0000
0100
0000
0001
0010
0001
0010
0100
0010
0100
0000
,
1000
0010
0010
0001
0100
0100
0010
0001
,
0100
0000
0100
0000
1000
0000
0010
0000
0010
0000
0001
1000
0001
0000
0010
0000
,
0001
0100
0100
1000
0100
0100
0001
0010
,
0100
1000
0100
1000
0010
0000
0100
0001
0000
0010
0001
0000
0100
0010
0100
0010
,
0100
0010
0100
0010
1010
0100
0001
1000
,
0100
0010
0100
0010
0011
0100
1000
0010
,
0100
0010
0100
0001
1001
1000
0100
0010
,
0001
1000
0001
1000
0110
0010
0001
1000
,
0010
0100
0010
0100
0010
0000
0001
0000
0010
0000
1000
0000
0100
0000
0010
0000
,
0100
0010
0100
0010
0100
0000
0001
0000
0100
0000
1000
0000
0010
0000
0100
0000
,
0001
0010
0001
0010
0100
1000
0100
1000
0001
1000
0001
1000
0010
0000
0100
0000
,
0000
0000
0000
0000
0000
0000
0000
0000
0000
0000
0010
0100
0001
0010
0000
0000
,
1001
0000
0000
0000
,
0110
1001
0000
0000
;
