#TITLE:I Love It feat. Adele Givens;
#SUBTITLE:;
#ARTIST:Kanye West & Lil Pump;
#TITLETRANSLIT:;
#SUBTITLETRANSLIT:;
#ARTISTTRANSLIT:;
#GENRE:;
#CREDIT:;
#MUSIC:I Love It feat. Adele Givens.ogg;
#BANNER:bn.png;
#BACKGROUND:bg.png;
#CDTITLE:;
#SAMPLESTART:20.467;
#SAMPLELENGTH:10.673;
#SELECTABLE:YES;
#OFFSET:-1.101;
#BPMS:0.000=104.000;
#STOPS:;
#BGCHANGES:-1.500=I Love It feat. Adele Givens.avi=1.000=0=0=0=StretchNoLoop====,
99999.000=-nosongbg-=1.000=0=0=0=StretchNoLoop====
;
#FGCHANGES:;

//--------------- dance-single - eataninja ----------------
#NOTES:
     dance-single:
     eataninja:
     Challenge:
     12:
     0,0,0,0,0:
0000
0000
0000
0000
,
0000
0000
0000
0000
,
0000
0000
0000
0000
,
0000
0000
0000
0000
,
0000
0000
0000
1000
0001
0100
0010
0010
,
2001
0000
3100
0001
0100
1000
0000
0000
,
0002
0000
0013
0001
1000
0100
0010
0010
,
1002
0000
0103
1000
0100
0001
0000
0000
,
2000
0000
3100
1000
0001
0100
0010
0010
,
1020
0000
0000
0000
0130
0000
0000
0100
0001
0000
0001
0000
1000
0000
0100
0000
,
0001
0100
1000
0010
0100
0100
0001
0010
,
0021
0000
0000
0000
0130
0000
0000
0100
1000
0000
1000
0000
1001
0000
0001
0000
,
0100
1000
0100
0001
0010
0100
1000
1000
,
1200
0000
0310
0001
0001
0100
0001
1000
,
0100
0001
0100
0100
1000
0001
0100
0020
,
1000
0130
0110
1000
0001
0001
0010
1000
,
0010
0001
0001
1000
0010
0100
0001
2000
,
0001
3100
0010
0001
0100
1000
0100
0001
,
1000
1000
1010
0010
0001
0010
1000
0100
,
0010
0010
0001
0001
1000
0010
0100
0100
,
1000
0100
0101
0001
1000
0100
0001
0100
,
0010
0010
0011
0000
1100
0000
1000
0010
,
0001
1000
0100
0010
0010
1000
0001
0001
,
0100
0000
0101
0000
1010
0000
1000
0100
,
0002
0000
0003
0100
0010
0010
0001
1000
,
0020
0000
0000
0000
0130
0000
0000
0100
0001
0000
1000
0000
0100
0000
0110
0000
,
0002
0000
0000
0000
1003
0000
0000
1000
0010
0000
0100
0000
0001
0000
0001
0000
,
0020
0000
0000
0000
0130
0000
0000
0100
1000
0000
0001
0000
0100
0000
0010
0000
,
2000
0000
3001
0010
1000
0010
0001
0001
,
0200
0000
0000
0000
0010
0000
0000
0301
0000
0000
1000
0000
0000
1000
0000
0000
,
0200
0000
0000
0000
0010
0000
0000
1300
0000
0000
0001
0000
0000
0001
0000
0000
,
0200
0000
0000
0000
0010
0000
0000
0301
0000
0000
1000
0000
0000
1000
0000
0000
,
0200
0000
0310
0001
1000
1000
0010
0100
,
0001
1000
0100
0000
0010
0000
0001
1000
0000
1000
0010
0000
0100
0000
M1MM
0000
,
1000
0001
0100
0000
0010
0000
1000
0001
0000
0001
0010
0000
0100
0000
M1MM
0000
,
0001
1000
0010
0000
0100
0000
0001
1000
0000
1000
0100
0000
0010
0000
MM1M
0000
,
1000
0001
0010
0000
0100
0000
1000
0001
0000
0001
0100
0000
0010
0000
MM1M
0000
,
0001
0100
0010
0000
0100
0000
0001
1000
0000
1000
0010
0000
0100
0000
0001
1000
,
0000
0100
0001
0000
0001
0000
0100
1000
0001
0010
1000
0000
1000
0000
0010
0100
,
1000
0001
0100
0000
0100
0000
0001
1000
0001
0010
0100
0000
1000
0000
0000
0000
,
1000
0010
1000
0010
0001
0010
0001
0020
0000
0100
0130
0000
1001
0000
0000
0000
,
1000
0100
0010
0000
0010
0000
0001
1000
0000
0010
0100
0000
0001
0000
1000
0001
,
0000
0000
0001
0100
1000
0100
0001
1000
0000
0100
0010
0000
0001
0000
0001
1000
,
0010
0100
0010
0000
0010
0000
0100
0010
0000
1000
0001
0000
0010
0000
0000
0010
,
0100
0001
0100
0000
1000
0000
0010
0001
0000
1000
0100
0000
0001
0000
0000
0000
,
0000
0000
0000
0001
0010
0010
0100
1000
,
1002
0000
0103
1000
0100
0001
0000
0000
,
2000
0000
3100
0010
0001
0100
0010
0010
,
2001
0000
3100
0001
0100
1000
0000
0000
,
M00M
0M0M
00MM
000M
000M
000M
0000
MMMM
,
M000
MMMM
M000
MMMM
0000
MMMM
M000
MMMM
,
M000
MMMM
0000
MMMM
000M
00M0
0M00
M000
,
MMMM
0000
M00M
M00M
M00M
M00M
0MM0
0000
,
0MMM
M000
M000
0MM0
000M
000M
MMM0
0000
;
