#TITLE:I BELIEVE IN MIRACLES;
#SUBTITLE:;
#ARTIST:PUSH!;
#TITLETRANSLIT:;
#SUBTITLETRANSLIT:;
#ARTISTTRANSLIT:;
#CREDIT:;
#BANNER:I Believe In Miracles.png;
#BACKGROUND:I Believe In Miracles-bg.png;
#LYRICSPATH:;
#CDTITLE:cdtitle.png;
#MUSIC:I Believe In Miracles.ogg;
#OFFSET:-0.014;
#SAMPLESTART:42.968;
#SAMPLELENGTH:12.000;
#SELECTABLE:YES;
#BPMS:0.000=132.001;
#STOPS:;
#BGCHANGES:;

//---------------dance-single - ----------------
#NOTES:
     dance-single:
     :
     Challenge:
     11:
     0.469,0.502,0.294,0.000,0.109:
0000
0000
0000
0000
,
0000
0000
0000
0000
,
0000
0000
0000
0000
,
0000
0000
0000
0000
,
0000
0000
0000
0000
,
0000
0000
0000
0000
,
0000
0000
0000
0000
,
0000
0000
0000
0000
,
1000
0000
0100
0000
0001
0100
1000
0100
,
0010
0000
0000
0010
0001
0100
1000
0100
,
0010
0000
0010
0000
1000
0000
0000
1000
0001
0000
0001
0000
1000
0000
0001
0000
,
0010
0100
1000
1000
0010
1000
0001
1000
,
0001
0000
0010
0000
1000
0010
0001
0010
,
0100
0000
0000
0100
1000
0010
0001
0010
,
0100
0000
0100
0000
0001
0000
0000
0001
1000
0000
0001
0000
1000
0000
0000
0000
,
0100
0010
0010
0001
1000
0001
1000
0001
,
1001
0000
0000
0000
1001
0000
0000
1000
0010
0000
0100
0000
0001
0000
0010
0000
,
0000
0011
0000
1000
0000
1001
0000
0000
,
1000
1000
0010
0010
0100
0010
1000
0001
,
1000
0000
0001
0000
0001
0000
0000
0001
0010
0000
0100
0000
1000
0000
0010
0000
,
1010
0000
1010
0000
0010
1000
0100
0010
,
0000
0011
0000
1000
0000
1001
0000
0000
,
1010
0010
0100
1000
0100
0001
0010
0100
,
1100
1000
0100
0000
0011
0000
0000
0000
,
1010
0000
1000
0000
0010
0000
0000
0100
0000
0000
0100
0000
0000
0000
0001
0000
,
1000
0000
0100
0000
0010
0000
0000
0100
1000
0000
0001
0000
0100
0000
0001
0000
,
0000
0100
0010
1000
0000
0100
0000
0010
,
0100
0000
1000
0000
0010
0000
0000
0010
0100
0000
0001
0000
0010
0000
0001
0000
,
1001
0000
1000
0000
0010
0000
0000
0100
0000
0000
0100
0000
0000
0000
0001
0000
,
0100
0000
0010
0000
0100
0000
0000
1000
0100
0000
0010
0000
1000
0000
0100
0000
,
0000
0010
0001
0100
0000
1000
0000
0100
,
0001
0010
0100
0000
0110
0010
1001
0000
,
0001
1000
0001
0000
0010
0000
0100
0000
1000
0000
1000
0000
0000
0000
0000
0000
,
1000
0010
0001
0010
1000
1000
0000
1000
,
0001
1000
0001
0000
0010
0000
0100
0000
1000
0000
1000
0000
0000
0000
0000
0000
,
0010
1000
0100
1000
0001
0001
0100
0001
,
0010
0100
0010
0000
0001
0000
0100
0000
0010
0000
0010
0000
0000
0000
0000
0000
,
0010
1000
0100
0001
0100
0100
1000
0001
,
0100
0010
0100
0000
0001
0000
0010
0000
1000
0000
0010
0000
0001
0000
0000
0000
,
1010
1000
0100
0000
0011
0001
1001
0001
,
0010
0000
1000
0000
0010
0000
0000
1001
0000
0000
1001
0000
0000
0000
0001
0000
,
1000
0000
0010
0000
0100
0000
0000
0100
0001
0000
0001
0000
0010
0000
0110
0000
,
0000
1000
0010
0110
0000
0010
0000
0010
,
0100
0001
1000
0000
0100
0000
0001
0000
0100
0000
1000
0000
0010
0000
1000
0000
,
1010
0000
1000
0000
0100
0000
0000
0110
0000
0000
0110
0000
0000
0000
0100
0000
,
0010
0000
0001
0000
1000
0000
0000
0010
0100
0000
0100
0000
0001
0000
1001
0000
,
0000
0100
1000
1001
0000
0001
0000
0001
,
0100
0000
0010
0000
0100
0000
0000
0001
1000
0000
1000
0000
0100
0000
0010
0000
,
0001
0100
0010
0000
0010
0000
0001
0000
0100
0000
1000
0000
0000
0000
0000
0000
;

//---------------dance-single - ----------------
#NOTES:
     dance-single:
     :
     Hard:
     9:
     0.334,0.369,0.131,0.000,0.000:
0000
0000
0000
0000
,
0000
0000
0000
0000
,
0000
0000
0000
0000
,
0000
0000
0000
0000
,
0000
0000
0000
0000
,
0000
0000
0000
0000
,
0000
0000
0000
0000
,
0000
0000
0000
0000
,
1000
0000
0010
0000
0001
0010
1000
0000
,
1001
0000
0001
0010
,
1000
0010
0010
0000
0000
0000
0000
0000
,
0001
0100
1000
0100
,
1001
0000
0001
0000
0010
0000
1000
0010
,
0001
0000
1000
0010
,
0001
0010
1000
0000
0000
0000
0000
0000
,
0000
0100
0100
0100
0100
0000
0000
0000
,
0110
0000
0110
0000
0001
1000
0001
0000
,
0100
1000
0100
0001
,
1000
1000
0100
0100
0001
0001
0100
0000
,
1000
0010
0100
0000
,
1001
0000
1001
0000
0001
1000
0001
0000
,
0010
1000
0010
0001
,
1000
1000
0010
0010
0001
0001
0010
0000
,
0100
0000
0010
0000
0110
0010
1000
0010
,
0000
1000
0100
1000
0000
0100
0000
0001
,
0000
0010
0000
1000
0000
0010
0001
0010
,
0000
0001
0100
0001
0000
0100
0000
1000
,
0000
0010
0100
0000
0000
0100
0001
0010
,
0000
0001
0010
1000
0000
0100
0000
0001
,
0000
0010
0000
1000
0000
0010
0001
0100
,
0000
0001
0100
1000
0000
0010
0000
0001
,
0000
1000
0010
0000
1010
0000
1010
0000
,
1000
0100
0001
0100
1000
0100
0001
0000
,
0001
0100
1000
0010
0001
0000
0000
0000
,
0001
0010
1000
0010
0001
0010
1000
0000
,
0100
0010
0110
0000
,
0010
0001
0100
0001
0010
0001
0100
0000
,
0100
1000
0010
0001
0100
0000
0000
0000
,
0010
1000
0100
1000
0010
1000
0100
0000
,
1001
0000
0000
0000
0010
0001
0100
0010
,
0000
0001
0100
0010
0000
0001
0000
0100
,
0000
0000
1000
0000
1000
1000
0100
0010
,
0000
1000
0100
0010
0000
1000
0000
0010
,
0001
0100
1000
0100
0010
1000
0100
0010
,
0000
1000
0100
0010
0000
1000
0000
1000
,
0000
0000
0010
0000
0001
0001
0010
0100
,
0000
0001
0010
0100
0000
0001
0000
0100
,
1000
0000
0010
0000
0100
0100
0001
1000
,
1001
1000
0100
0000
;

//---------------dance-double - ----------------
#NOTES:
     dance-double:
     :
     Hard:
     10:
     0.421,0.450,0.076,0.000,0.033:
00000000
00000000
00000000
00000000
,
00000000
00000000
00000000
00000000
,
00000000
00000000
00000000
00000000
,
00000000
00000000
00000000
00000000
,
00000000
00000000
00000000
00000000
,
00000000
00000000
00000000
00000000
,
00000000
00000000
00000000
00000000
,
00000000
00000000
00000000
00000000
,
00010000
00000000
00001000
00000000
00100000
00010000
01000000
00100000
,
10000000
00000000
00000000
01000000
00100000
00001000
00010000
00000010
,
00001000
00001000
00000001
00000000
00000001
00000001
00000100
00000000
,
00000010
00010000
00001000
00100000
00010000
00010000
10000000
00000000
,
00100000
00000000
00010000
00000000
00001000
00000010
00000100
00001000
,
00000001
00000000
00000000
00000001
00000100
00000010
00010000
00001000
,
00100000
00100000
00010000
00010000
00000000
00000000
00000000
00000000
,
00000000
10000000
10000000
00100000
01000000
00001000
00010000
00000010
,
00000110
00000000
00000110
00000000
00000100
00000001
00000010
00000000
,
00001000
00010000
01000000
00000000
10000000
01000000
00100000
00000000
,
00010000
00010000
10000000
10000000
00100000
01000000
00001000
00010000
,
00000000
00000100
00000010
00000001
00001000
00001000
00000010
00000100
,
00001001
00000000
00001001
00000000
00000001
00000010
00000100
00000000
,
00010000
00001000
01000000
00000000
00100000
10000000
01000000
00000000
,
00100000
00010000
10000000
00100000
01000000
00001000
00010000
00000010
,
00000100
00000000
00000001
00000000
00000010
00001000
00010000
00100000
,
00000000
00010000
00001000
00000010
00000000
00000001
00000100
00000010
,
00010000
00001000
00100000
00010000
10000000
00100000
00010000
00001000
,
00000000
00000010
00001000
00010000
00000000
00100000
00000000
10000000
,
00010000
00100000
01000000
00100000
00001000
00010000
00001000
00000010
,
00000000
00001000
00010000
00100000
00000000
00100000
00010000
00001000
,
00000010
00000100
00010000
00001000
01000000
00100000
01000000
00001000
,
00000000
00000010
00000100
00010000
00000000
00001000
00100000
00010000
,
01000000
00100000
10000000
01000000
00100000
00100000
00001000
00010000
,
00000010
00001000
00000001
00000100
00001000
00000100
00000000
00000000
,
00000001
00000010
00000100
00010000
00001000
00001000
00100000
00010000
,
10000000
00100000
00010000
00100000
01000000
00010000
10000000
00000000
,
01000000
00100000
00001000
00010000
00000010
00000010
00000100
00000000
,
00000001
00000010
00001000
00000010
00000001
00001000
00000001
00000000
,
00000001
00001000
00000010
00000100
00001000
00010000
01000000
10000000
,
00100000
00010000
00100000
10000000
00010000
10000000
00010000
00000000
,
01100000
00000000
00001000
00000000
00011000
00010000
00000010
00001000
,
00000001
00000000
00000100
00000000
00001000
00000000
00000000
00010000
00000000
00000000
01000000
00000000
00000000
00000000
00000000
00000000
,
10000000
00000000
00000000
00000000
10000000
00000000
00000000
10000000
00100000
00000000
00010000
00000000
00001000
00000000
00000100
00000000
,
00000000
00000000
00001000
00000000
00010000
00000000
00000000
01000000
00000000
00000000
01000000
00000000
00000000
00000000
00000000
00000000
,
10000000
00010000
01000000
00100000
00010000
00001000
00000010
00000100
,
00001000
00000000
00000010
00000000
00000100
00000000
00000000
00001000
00000000
00000000
00001000
00000000
00000000
00000000
00001000
00000000
,
00010000
00000000
00000000
00000000
00010000
00000000
00000000
00010000
00100000
00000000
01000000
00000000
00010000
00000000
10000000
00000000
,
00000000
00000000
01000000
00000000
00010000
00000000
00000000
00001000
00000000
00000000
00001000
00000000
00000000
00000000
00001000
00000000
,
00000010
00000000
00000010
00000000
00000001
00000001
00000100
00001000
,
00011000
00010000
01000000
10000000
00100000
00010000
00000000
00000000
;

//---------------dance-solo - ----------------
#NOTES:
     dance-solo:
     :
     Hard:
     11:
     0.449,0.529,0.185,0.000,0.060:
000000
000000
000000
000000
,
000000
000000
000000
000000
,
000000
000000
000000
000000
,
000000
000000
000000
000000
,
000000
000000
000000
000000
,
000000
000000
000000
000000
,
000000
000000
000000
000000
,
000000
000000
000000
000000
,
100000
000000
100000
000000
000100
001000
000010
010000
,
000010
000000
000000
000010
010000
001000
000100
001000
,
100000
100000
000010
001000
000001
000001
010000
000000
,
010000
000010
001000
000100
100000
100000
001000
000000
,
000100
000000
000100
000000
000010
010000
000001
000100
,
001000
000000
100000
000100
001000
010000
001000
000100
,
100000
000010
000100
000100
000000
000000
000000
000000
,
000000
000100
000100
000010
010000
000001
100000
000001
,
100001
000000
100001
000000
100000
000100
001000
000010
,
001000
010000
001000
000100
001000
000001
100000
000000
,
001000
001000
000100
000100
000010
010000
000100
001000
,
000000
000001
000000
100001
000000
000000
000000
000000
,
100000
000000
100000
000000
001000
000100
001000
000010
,
001000
000100
000010
010000
000100
001000
000001
000000
,
100000
010000
001000
000100
100000
001000
000010
001000
,
000100
000001
100001
000000
,
100100
000000
000100
000000
001100
000000
000000
001000
000010
000000
000100
000000
001000
000000
010000
000000
,
000100
001000
000001
100000
000001
000001
000000
000001
,
000011
000000
000001
000000
000101
000000
000000
000100
000010
000000
010000
000000
000100
000000
001000
000000
,
000001
000100
001000
100000
000100
000100
100000
000010
,
010010
000000
010000
000000
010001
000000
000000
000001
000100
000000
001000
000000
010000
000000
000100
000000
,
001000
000010
100000
001000
000100
000100
001000
010000
,
010100
000000
000100
000000
001100
000000
000000
001000
000001
000000
000001
000000
000100
000000
001000
000000
,
100000
000010
100000
000000
100010
000000
010001
000000
,
100001
100000
000100
001000
000010
010000
000001
000000
,
001000
100000
001000
000001
100000
001000
001000
000000
,
000100
000010
010000
000100
001000
000001
100000
000000
,
001000
000001
001000
100000
000100
001000
001000
000000
,
010000
001000
000100
001000
000010
001000
100000
000000
,
100000
001000
000001
000100
100000
000100
000010
000000
,
000010
001000
000100
001000
010000
001000
000100
000000
,
100100
000000
100000
000000
100001
000001
000100
001000
,
000000
000000
001000
000000
000100
000000
000001
100000
000000
000000
100000
000000
000000
000000
100000
000000
,
000100
000000
001000
000000
000100
000000
000000
000100
010000
000000
010000
000000
000010
000000
000100
000000
,
000000
000000
000100
000000
000001
000000
000010
000001
000000
000000
000001
000000
000000
000000
000001
000000
,
100000
000100
001000
000010
000100
001000
000001
001000
,
000000
000000
001000
000000
100000
000000
000001
100000
000000
000000
100000
000000
000000
000000
100000
000000
,
000100
000000
000000
000000
000100
000000
000000
000100
001000
000000
000010
000000
010000
000000
001000
000000
,
000000
000000
000100
000000
000001
000000
100000
000100
000000
000000
000100
000000
000000
000000
000100
000000
,
001000
000000
000000
000000
001000
000000
000000
001000
000010
000000
000010
000000
010000
000000
001000
000000
,
000100
100000
000100
000001
001000
100000
000000
000000
;

//---------------dance-single - ----------------
#NOTES:
     dance-single:
     :
     Easy:
     5:
     0.235,0.290,0.098,0.000,0.000: // measure 1
0000
0000
0000
0000
,  // measure 2
0000
0000
0000
0000
,  // measure 3
0000
0000
0000
0000
,  // measure 4
0000
0000
0000
0000
,  // measure 5
0000
0000
0000
0000
,  // measure 6
0000
0000
0000
0000
,  // measure 7
0000
0000
0000
0000
,  // measure 8
0000
0000
0000
0000
,  // measure 9
1000
0100
0010
0001
,  // measure 10
1000
0000
0010
0100
,  // measure 11
0001
0001
0000
0000
,  // measure 12
0000
1000
1000
0000
,  // measure 13
0001
0010
0100
1000
,  // measure 14
0001
0000
1000
0010
,  // measure 15
0100
0100
0000
0000
,  // measure 16
0000
0001
1000
0001
0000
0000
0000
0000
,  // measure 17
0011
0000
0011
0000
0001
1000
0000
0010
,  // measure 18
0000
0010
0000
0100
0000
0100
0000
0000
,  // measure 19
0001
0010
0100
0010
,  // measure 20
0001
1000
1001
0000
,  // measure 21
1010
0000
1010
0000
1000
0010
0000
0100
,  // measure 22
0000
0100
0000
0010
0000
0010
0000
0000
,  // measure 23
1000
0100
0001
0010
,  // measure 24
1001
0000
1001
0000
,  // measure 25
0001
0100
1000
0100
,  // measure 26
0001
0001
1000
0000
,  // measure 27
1000
0100
0001
0100
,  // measure 28
0010
0001
1000
0000
,  // measure 29
1000
0010
0001
0010
,  // measure 30
1000
1000
0001
0000
,  // measure 31
0001
0010
1000
0010
,  // measure 32
0001
0010
0100
1000
,  // measure 33
0001
0100
1000
0000
,  // measure 34
1000
0000
1000
0100
0001
0000
0000
0000
,  // measure 35
1000
0100
0010
0000
,  // measure 36
0000
0001
1000
0000
,  // measure 37
0001
0010
1000
0000
,  // measure 38
1000
0000
1000
0010
0001
0000
0000
0000
,  // measure 39
1000
0010
0001
0000
,  // measure 40
0110
0000
0110
0001
,  // measure 41
1000
0100
0001
0100
,  // measure 42
1000
1000
0001
0001
,  // measure 43
0100
1000
0100
0001
,  // measure 44
0010
0000
1000
0010
0001
0000
1000
0000
,  // measure 45
0010
0001
0010
1000
,  // measure 46
0100
0100
0010
0010
,  // measure 47
0001
0100
1000
0100
,  // measure 48
0001
0001
0010
0010
,  // measure 49
1000
0100
0001
0000
;

//---------------dance-single - ----------------
#NOTES:
     dance-single:
     :
     Medium:
     7:
     0.275,0.316,0.109,0.000,0.000:
0000
0000
0000
0000
,
0000
0000
0000
0000
,
0000
0000
0000
0000
,
0000
0000
0000
0000
,
0000
0000
0000
0000
,
0000
0000
0000
0000
,
0000
0000
0000
0000
,
0000
0000
0000
0000
,
1000
0000
0010
0000
0001
0010
1000
0000
,
1000
0000
0001
0010
,
1000
0010
0010
0000
0000
0000
0000
0000
,
0000
0001
1001
0000
,
0001
0000
0010
0000
1000
0000
1000
0100
,
0001
0000
0001
0100
,
1000
0001
1000
0000
0000
0000
0000
0000
,
0000
0010
0010
0100
0000
0000
0000
0000
,
1001
0000
1001
0000
1000
0100
0000
0001
,
0000
0100
0000
1000
0000
0100
0000
0000
,
0010
0001
0100
0000
0100
0010
0000
1000
,
0000
0001
0000
1000
0000
0000
0000
0000
,
1001
0000
1001
0000
0001
0010
0000
1000
,
0000
0010
0000
0001
0000
0100
0000
0000
,
0010
1000
0100
0000
0100
0010
0000
0001
,
0000
0000
0000
0000
0000
1000
0010
1000
,
0000
0010
0001
0010
0000
0001
0000
0100
,
0000
1000
0000
0010
0000
0010
1000
0010
,
0000
1000
0100
1000
0000
0010
0000
0100
,
0000
0100
0001
0000
0000
0001
0010
0001
,
0000
0010
1000
0010
0000
1000
0000
0100
,
0000
0001
0000
0010
0000
1000
0010
1000
,
0000
0010
0001
0010
0000
0001
0000
0100
,
0000
0010
1000
0000
0000
0000
0000
0000
,
1000
0100
0001
0100
1000
0000
0000
0000
,
0010
0100
0110
0000
,
0001
0010
1000
0010
0001
0000
0000
0000
,
0000
0001
0000
1000
0000
0000
0000
0000
,
1000
0010
0001
0010
1000
0000
0000
0000
,
0001
1000
1001
0000
,
0001
0010
1000
0010
0001
0000
0000
0000
,
1001
0000
0000
0000
1001
1000
0010
0100
,
0000
0100
1000
0100
0000
0000
0000
0000
,
0001
0000
0001
0000
0010
0100
0001
0100
,
0000
0100
1000
0100
0000
0000
0000
0000
,
0010
0000
0001
0000
1000
0010
0100
1000
,
0000
1000
0100
0001
0000
0000
0000
0000
,
1000
0000
0100
0000
1000
0010
0001
0010
,
0000
0010
1000
0010
0000
0000
0000
0000
,
0100
0100
0001
0010
,
0110
1000
0001
0000
;

//---------------dance-double - ----------------
#NOTES:
     dance-double:
     :
     Easy:
     6:
     0.294,0.422,0.446,0.000,0.000:
00000000
00000000
00000000
00000000
,
00000000
00000000
00000000
00000000
,
00000000
00000000
00000000
00000000
,
00000000
00000000
00000000
00000000
,
00000000
00000000
00000000
00000000
,
00000000
00000000
00000000
00000000
,
00000000
00000000
00000000
00000000
,
00000000
00000000
00000000
00000000
,
00001000
01000000
10000000
01000000
,
00010000
00000000
00010000
00100000
,
01000000
01000000
00000000
00000000
,
00000000
00100000
00011000
00000000
,
00010000
00000010
00000001
00000010
,
00001000
00000000
00001000
00000100
,
00000001
00000100
00000000
00000000
,
00000000
00010000
00010000
01000000
00000000
00000000
00000000
00000000
,
10010000
00000000
10010000
00000000
00001000
00010000
00000000
00001000
,
00000000
00000001
00000000
00001000
00000000
00010000
00000000
00000000
,
00010000
00100000
10000000
00001000
,
00010000
00001000
00011000
00000000
,
00001001
00000000
00001001
00000000
00010000
00001000
00000000
00010000
,
00000000
10000000
00000000
00010000
00000000
00001000
00000000
00000000
,
00000010
00000001
00000100
00001000
,
00011000
00000000
00011000
00100000
,
10010000
00100000
10100000
10000000
,
01000000
00010000
00001000
00000001
,
00000110
00010000
00011000
00010000
,
00100000
10000000
00010000
00100000
,
01100000
01000000
01010000
00010000
,
00001000
00000100
00000001
00000010
,
00000110
01000000
01100000
10000000
,
00010000
00100000
01000000
01000000
,
10000000
00000000
10000000
01000000
00010000
00000000
00000000
00000000
,
00001000
00000100
00001001
00000000
,
00000001
00000000
00000001
00000010
00001000
00000000
00000000
00000000
,
00000000
00010000
00011000
00000000
,
00010000
00000000
00010000
00100000
10000000
00000000
00000000
00000000
,
01000000
00010000
00011000
00000000
,
00001000
00000000
00001000
00000010
00000001
00000000
00000000
00000000
,
00001001
00000000
00001001
00000100
,
00000110
00010000
00011000
01000000
,
01100000
01100000
10010000
10010000
,
00110000
00000010
00001010
00000000
,
00000010
00000000
00000010
00010000
01000000
00000000
10000000
00000000
,
10100000
00010000
01010000
00001000
,
00011000
00011000
00010010
00000010
,
00001010
00000001
00001001
00000001
,
00000101
00000101
00001010
00001010
,
00011000
00000000
00010000
00001000
00010000
00000000
00000000
00000000
;

//---------------dance-double - ----------------
#NOTES:
     dance-double:
     :
     Medium:
     8:
     0.326,0.344,0.196,0.000,0.000:
00000000
00000000
00000000
00000000
,
00000000
00000000
00000000
00000000
,
00000000
00000000
00000000
00000000
,
00000000
00000000
00000000
00000000
,
00000000
00000000
00000000
00000000
,
00000000
00000000
00000000
00000000
,
00000000
00000000
00000000
00000000
,
00000000
00000000
00000000
00000000
,
00010000
00000100
00000001
00000100
,
00001000
00000000
00001000
00000010
,
00000001
00000001
00001000
00000000
00000000
00000000
00000000
00000000
,
00000000
00000000
00010000
00001000
00010000
00000000
00000000
00000000
,
00011000
10010000
10000000
00100000
,
00010000
00000000
00001000
00000100
,
00000001
00000001
00001000
00001000
00000000
00000000
00000000
00000000
,
00000100
00000100
00000100
00000100
00000000
00000000
00000000
00000000
,
00011000
00000000
00011000
00000000
00010000
00001000
00000000
00000001
,
00000000
00001000
00000000
10000000
00000000
00010000
00000000
00000000
,
10000000
10000000
00001000
00001000
00010000
00001000
00000000
00000010
,
00000000
00000001
00000000
00001000
00000000
00000000
00000000
00000000
,
00000110
00000000
00000110
00000000
00001000
00000001
00000000
00001000
,
00000000
00010000
00000000
10000000
00000000
00001000
00000000
00000000
,
00010000
00010000
00000001
00000001
00000100
00000010
00000000
00000000
,
00000110
00010000
00011000
00000000
,
00011000
00000000
00010000
01000000
10000000
00000000
01000000
10000000
,
00100000
00100000
00010000
00001000
,
00011000
00000000
00001000
00000100
00000001
00000000
00000010
00000000
,
00000001
00000100
00010000
00000000
00001000
00000000
00000100
00000000
,
00000110
00000000
00000010
00001000
00010000
00000000
00100000
00010000
,
00001000
00000000
00000010
00000000
00000001
00000000
00000100
00001000
,
00010000
00000000
01000000
10000000
00100000
00000000
00010000
00000000
,
00001000
00010000
00100000
00000000
10000000
10000000
00010000
00000000
,
00010000
00100000
10000000
00000000
10000000
00100000
00001000
00000000
,
00001000
00000100
00000001
00000100
00001000
00000000
00010000
00000000
,
00010000
00000100
00000010
00000000
00000001
00000010
00001000
00000000
,
00010000
00001000
00011000
00010000
,
00100000
10000000
01000000
00000000
00001000
00010000
00100000
00000000
,
01000000
10000000
00100000
10000000
01000000
00000000
00000000
00000000
,
10000000
00100000
00001000
00000000
00000001
00000010
00001000
00000000
,
00011000
00000000
00000000
00000000
00011000
00000000
00001000
00010000
,
00100000
00000000
10000000
01000000
00010000
00000000
00001000
00000000
,
00000100
00000000
00000001
00000000
00001001
00000000
00000001
00000010
,
00001000
00000000
00001000
00000010
00000001
00000000
00000100
00000000
,
00001000
00000000
00010000
00000000
00011000
00000000
00010000
01000000
,
10000000
00000000
00100000
00010000
00001000
00000000
00010000
00000000
,
00100000
00000000
00100000
00000000
10010000
00000000
10000000
01000000
,
00010000
00000000
00001000
00000010
00001000
00000000
00010000
00000000
,
00100000
00100000
10000000
01000000
,
00011000
00001000
00000100
00000001
00000010
00001000
00000000
00000000
;

//---------------dance-solo - ----------------
#NOTES:
     dance-solo:
     :
     Easy:
     5:
     0.266,0.316,0.326,0.000,0.000:
000000
000000
000000
000000
,
000000
000000
000000
000000
,
000000
000000
000000
000000
,
000000
000000
000000
000000
,
000000
000000
000000
000000
,
000000
000000
000000
000000
,
000000
000000
000000
000000
,
000000
000000
000000
000000
,
100000
100000
000100
001000
,
001100
000000
001000
001000
,
000010
010000
000000
000000
,
000000
010000
010010
000000
,
100001
000001
000100
001000
,
000100
000000
000010
001000
,
000100
000100
000000
000000
,
000000
100000
100000
001000
000000
000000
000000
000000
,
001100
000000
001100
000000
000100
000010
000000
100000
,
000000
100000
000000
000001
000000
001000
000000
000000
,
000100
000100
100000
001000
,
000100
001000
000010
000000
,
100001
000000
100001
000000
100000
000100
000000
001000
,
000000
001000
000000
000010
000000
100000
000000
000000
,
001000
000100
000001
010000
,
000100
000000
010100
000000
,
010100
010000
010010
000010
,
000100
001000
100000
000000
,
100001
000001
001001
001000
,
000100
010000
000000
010000
,
011000
000010
001010
001000
,
000001
000100
001000
010000
,
010001
010000
010010
000010
,
100000
000100
001000
000000
,
001000
000000
000001
100000
000001
000000
000000
000000
,
000100
001000
001100
000000
,
100000
000000
000001
100000
000001
000000
000000
000000
,
000000
001000
001100
000000
,
000100
000000
100000
000001
100000
000000
000000
000000
,
001000
000100
001100
000000
,
000001
000000
100000
000001
100000
000000
000000
000000
,
100001
000000
100001
100001
,
100001
100000
000100
000000
,
001000
001000
000100
000100
,
100100
100000
100001
000000
,
000001
000000
000100
001000
000100
000000
000001
000000
,
100001
100000
100001
000000
,
001000
001000
000100
000100
,
100001
100000
100100
000000
,
000100
000100
001000
001000
,
001100
000000
001000
000100
001000
000000
000000
000000
;

//---------------dance-solo - ----------------
#NOTES:
     dance-solo:
     :
     Medium:
     7:
     0.295,0.344,0.152,0.000,0.000:
000000
000000
000000
000000
,
000000
000000
000000
000000
,
000000
000000
000000
000000
,
000000
000000
000000
000000
,
000000
000000
000000
000000
,
000000
000000
000000
000000
,
000000
000000
000000
000000
,
000000
000000
000000
000000
,
100000
001000
000001
001000
,
010000
000000
010000
000100
,
001000
000010
001000
000000
000000
000000
000000
000000
,
000000
000000
100000
000001
001000
000000
000000
000000
,
000100
000100
100000
001000
,
000010
000000
000001
001000
,
000100
100000
000100
000000
000000
000000
000000
000000
,
000000
000100
000100
001000
000000
000000
000000
000000
,
100001
000000
100001
000000
100000
001000
000000
000010
,
000000
001000
000000
100000
000000
100000
000000
000000
,
000100
001000
000100
001000
000001
000001
000000
100000
,
000000
001000
000000
000100
000000
000000
000000
000000
,
100001
000000
100001
000000
000001
001000
000000
010000
,
000000
001000
000000
000001
000000
000001
000000
000000
,
100000
000001
100000
000001
100000
100000
000000
000000
,
101000
001000
001100
000000
,
000100
000001
000100
000000
000100
100000
000100
000000
,
000101
100000
100001
000000
,
100000
000100
001000
000000
000001
001000
000100
000000
,
010000
000010
010010
000000
,
001000
000001
001000
000000
001000
100000
001000
000000
,
000100
000010
010000
000100
,
001000
000100
100000
000000
001000
000100
000001
000000
,
100000
000100
100100
100100
,
100000
000100
100000
000100
001000
000000
000000
000000
,
001000
000000
000001
100000
001000
000000
000000
000000
,
000100
000001
000100
000001
001000
000000
000000
000000
,
010000
001000
000000
000000
,
000100
100000
000100
100000
001000
000000
000000
000000
,
000100
000000
000100
000001
100000
000000
000000
000000
,
000100
001000
000100
001000
000001
000000
000000
000000
,
100001
000000
100000
000000
100001
000000
000001
000100
,
100000
000000
100000
000100
000001
000000
000001
000000
,
100000
000000
100000
000000
000100
000000
001000
000010
,
010000
000000
001000
000010
000001
000000
000000
000000
,
100000
000000
100000
000000
000100
000000
100000
001000
,
000001
000000
000001
001000
100000
000000
100000
000000
,
000100
000000
001000
000000
000010
000000
000010
000100
,
001000
000000
000100
000001
010000
000000
010000
000000
,
000100
001000
100000
001000
,
100001
000000
000001
000100
100000
000100
000000
000000
;
