#TITLE:Hypnotica;
#SUBTITLE:;
#ARTIST:Naoki Maeda;
#TITLETRANSLIT:;
#SUBTITLETRANSLIT:;
#ARTISTTRANSLIT:;
#GENRE:;
#CREDIT:;
#MUSIC:Hypnotica.ogg;
#BANNER:Hypnotica.png;
#BACKGROUND:Hypnotica-bg.png;
#CDTITLE:;
#SAMPLESTART:60.888;
#SAMPLELENGTH:15.000;
#SELECTABLE:YES;
#OFFSET:-0.444;
#BPMS:0.000=135.000;
#STOPS:;
#BGCHANGES:-0.444=Hypnotica.avi=1.000=0=0=0=StretchNoLoop====,
99999.000=-nosongbg-=1.000=0=0=0=StretchNoLoop====
;
#FGCHANGES:;

//--------------- dance-single - Chrononical ----------------
#NOTES:
     dance-single:
     Chrononical:
     Beginner:
     3:
     0,0,0,0,0:
0000
0000
0000
0000
,
0000
0000
0000
0000
,
0000
0000
0000
0000
,
0000
0000
0000
0000
,
1001
0000
0001
0000
,
1000
1000
1000
0000
,
1001
0000
1000
0000
,
0001
0001
0001
0000
,
1001
0000
1000
0000
,
0010
0000
0010
0000
,
1001
0000
1000
0000
,
1000
1000
1000
0000
,
1001
0000
0001
0000
,
0001
0001
0001
0000
,
1001
0000
1000
0000
,
0001
0000
1000
0000
,
1001
0000
0001
0000
,
0010
0000
0100
0000
,
1000
0000
0100
0000
,
0001
0000
0010
0000
,
1000
0000
0100
0000
,
0001
0000
0010
0000
,
1001
0000
0001
0000
,
1000
1000
1000
0000
,
1001
0000
1000
0000
,
0001
0001
0001
0000
,
1001
0000
0001
0000
,
0100
0000
0001
0001
,
0001
0000
0010
0000
,
0100
0000
1001
0000
,
1000
0000
0100
0000
,
0001
0000
0100
0000
,
1000
0000
0010
0000
,
0001
0000
0010
0000
,
1000
1000
1000
0000
,
0001
0001
0001
0000
,
1000
1000
1000
0000
,
0010
0010
0010
0000
,
0100
0100
0100
0000
,
0001
0001
0001
0000
,
1000
1000
1000
0000
,
0001
0001
0001
0000
,
1001
0000
1000
0000
,
1001
0000
0001
0000
,
1001
0000
1000
0000
,
1001
0000
0001
0010
;

//--------------- dance-single - Chrononical ----------------
#NOTES:
     dance-single:
     Chrononical:
     Easy:
     6:
     0,0,0,0,0:
0000
0000
0000
0000
,
0000
0000
0000
0000
,
0000
0000
0000
0000
,
0000
0000
0000
0000
,
1001
0000
0001
0000
,
1000
0010
1000
0000
0001
0000
0000
0000
,
0101
0000
0001
0000
,
0001
1000
0001
0000
1000
0000
0000
0000
,
1100
0000
1000
0000
,
0010
0100
0010
0100
,
0110
0000
0100
0000
,
0001
0000
0010
0000
0001
0010
0001
0000
,
1001
0000
0001
0000
,
1000
0000
0010
0010
,
1010
0000
1000
0000
,
0001
0000
0000
0000
0100
0010
0100
0000
,
0001
0000
1000
0000
,
0001
1000
1000
0001
,
1000
0010
1000
0000
0000
0000
0001
0000
,
0000
0001
1000
1000
,
0001
0010
0001
0000
0000
0000
0100
0000
,
0000
0100
0010
0010
,
0010
0100
0010
0000
1000
0000
0001
0000
,
0010
0001
0010
0001
,
1000
0001
1000
0000
0100
0000
0010
0000
,
0001
0010
0100
1000
,
1001
0000
1000
0000
0010
0100
0010
0000
,
0100
0010
1000
0001
,
1000
0100
0010
0001
,
0010
0100
1000
1001
,
0001
0000
1000
0000
0001
0100
0001
0000
,
0001
1000
0001
1000
,
0010
0000
0100
0000
0010
0100
0010
0000
,
1000
0000
0001
0000
0010
0001
0010
0000
,
0001
0000
1000
0000
0001
1000
0001
0000
,
1000
0000
0010
0000
1000
0010
1000
0000
,
1000
0000
0001
0000
0001
0010
0001
0000
,
1000
0010
1000
0100
,
1000
0000
0001
0000
1000
0001
1000
0000
,
1000
0100
0001
0010
,
1000
0000
0010
0000
1000
0100
1000
0000
,
1000
0000
0010
0000
0100
0010
0100
0000
,
0001
0000
0000
0001
0000
0000
0001
0000
,
1000
0000
0000
1000
0000
0000
0000
0000
,
0001
0000
0000
1000
0000
0000
1000
0000
,
0001
0000
0000
0001
0000
0000
1000
0000
;

//--------------- dance-single - Chrononical ----------------
#NOTES:
     dance-single:
     Chrononical:
     Medium:
     11:
     0,0,0,0,0:
0000
0000
0000
0000
,
0000
0000
0000
0000
,
0000
0000
0000
0000
,
0000
0000
0000
0000
,
0001
0000
1000
0000
0001
0000
0000
0100
0000
0000
0010
0000
1000
0000
0001
0000
,
1000
0000
0100
0000
0001
0000
0000
0100
0000
0000
1000
0000
0001
0000
1000
0000
,
0001
0000
0010
0000
0001
0000
0000
0010
0000
0000
0100
0000
1000
0000
0010
0000
,
1000
0000
0010
0000
0001
0000
0000
0010
0000
0100
0000
0000
0100
0000
0100
0000
,
0010
0000
1000
0000
0010
0000
0000
0100
0000
0000
0001
0000
1000
0000
0001
0000
,
0010
0000
0001
0000
0100
0000
0000
0100
0000
0000
0010
0000
1000
0000
0000
0000
,
1001
0000
1000
0100
0010
0100
1000
0001
,
1000
0000
0010
0000
0100
0001
0100
0010
,
0110
0000
1000
0010
0100
0010
1000
0100
,
0001
0100
1000
0010
1010
0000
1001
0000
,
0011
0000
0001
0100
0010
1000
0001
0010
,
0001
0000
0001
0000
1000
0000
0000
0001
0000
0000
1000
0000
0001
0000
0000
0000
,
1001
0000
1000
0100
0010
0001
1000
0010
,
1000
0000
1000
0000
0000
0000
0001
0000
0001
0000
1000
0000
0001
1000
0000
0000
,
0001
0000
0100
0000
1000
0000
0100
0000
0000
0001
0000
0000
1000
0000
0000
0000
,
0001
0000
0010
0000
1000
0000
0010
0000
0001
0000
0010
0000
0000
0011
0000
0000
,
0001
0000
0010
0000
1000
0000
0001
0000
0000
0100
0000
0000
1000
0000
0000
0000
,
0001
0000
0100
0000
0010
0000
1000
0000
0001
0000
1000
0000
0000
1001
0000
0000
,
0001
0000
0100
0000
0001
0000
0000
0000
0000
0100
0000
0000
0010
0000
0000
0000
,
1000
0000
0100
0000
1000
0000
0000
0010
0000
1000
0000
0000
1000
0000
1000
0000
,
0001
0000
0100
0000
0001
0000
0000
0000
0000
1000
0000
0000
0100
0000
0000
0000
,
0010
0000
0100
0000
1000
0000
0000
0001
0000
0000
0100
0000
1000
0000
0000
0000
,
0100
0000
0010
0000
1000
0000
0000
0000
0000
0010
0000
0000
0010
0000
0000
1000
,
0000
0001
1000
0000
0001
0100
1000
0100
,
0001
0000
0010
0000
0100
0000
0000
0000
0000
0100
0000
0000
0100
0000
0000
1000
,
0000
0001
1000
0001
1001
0000
0110
0000
,
1001
0000
1000
0000
0001
0010
0100
0010
,
0001
0100
1000
0100
0001
0010
0001
0000
,
0101
0000
0100
0000
0010
1000
0010
0100
,
0001
0000
0001
0000
0000
0000
1000
0000
1000
0000
0001
0000
1000
0001
0000
0000
,
1000
0000
0100
0000
0001
0000
0100
0000
1000
0000
0000
1000
0000
0000
1000
0000
,
1000
0000
0010
0000
0001
0000
0010
0000
1000
0000
0000
0001
0000
0000
1000
0000
,
0001
0000
0100
0000
1000
0000
0100
0000
0001
0000
0000
0001
0000
0000
0001
0000
,
0001
0000
0010
0000
0100
1000
0000
0010
0000
1000
0000
0000
1001
0000
0000
0000
,
0001
0000
0010
0000
1000
0000
0010
0000
0001
0000
0000
1000
0000
0000
0001
0000
,
1000
0000
0010
0000
0001
0000
1000
0000
0100
0000
0000
0001
0000
0000
1000
0000
,
0001
0000
0010
0000
1000
0000
0001
0000
0100
0000
0000
1000
0000
0000
0001
0000
,
1000
0000
1000
0000
0001
0000
0000
0001
0000
0000
1000
0000
0001
1000
0001
0000
,
1000
0010
0001
1000
0100
0001
1000
0000
,
0001
0000
0010
0000
1000
0000
0001
0000
0100
0000
1000
0000
0000
0010
0000
0000
,
1000
0100
0001
0010
1000
0001
1000
0000
,
0001
0100
1000
0010
0001
0100
0001
0000
;

//--------------- dance-single - Chrononical ----------------
#NOTES:
     dance-single:
     Chrononical:
     Hard:
     15:
     0,0,0,0,0:
0000
0000
0000
0000
,
0000
0000
0000
0000
,
0000
0000
0000
0000
,
0000
0000
0000
0000
,
1000
0000
0001
0000
0010
0000
0000
0001
0000
0100
1000
0000
0100
0000
0001
0000
,
1000
0000
0010
0000
0001
0000
1000
0100
0000
0010
1000
0000
0001
0000
0001
0000
,
1000
0000
0001
0000
0100
0000
0000
0001
0000
0010
1000
0000
0010
0000
0001
0000
,
1000
0000
0100
0000
0001
0000
1000
0010
0000
0001
0010
0000
0100
0000
0100
0000
,
1000
0000
0010
0000
1000
0000
0000
0001
0000
0100
1000
0000
0100
0000
0001
0000
,
1000
0000
1000
0000
0100
0010
0000
0010
0000
0100
1000
0100
1000
0000
0000
0000
,
1001
0000
0001
0000
1000
0000
0100
0010
0100
0000
1000
0010
0000
1000
0010
0100
,
0000
0000
0001
0000
0010
0000
0001
0100
0000
0100
1000
0000
0100
0000
0001
0010
,
0001
0000
0001
0000
0100
0000
0001
0100
0001
0000
0010
1000
0000
0001
0100
1000
,
0000
0000
0001
0000
1000
0001
0000
0000
1001
0000
0000
0000
0110
0000
0000
0000
,
1001
0000
1000
0000
0001
0000
0010
0100
1000
0000
0001
0100
0000
0001
0100
0010
,
0000
0000
1000
0000
0001
0000
1000
0100
0000
0100
0001
0000
0100
0000
1000
0100
,
1000
0000
1000
0000
0001
0000
1000
0010
0001
0000
1000
0100
0000
0001
0010
0001
,
0010
0000
0011
0000
0000
0000
0010
0000
0110
0000
0100
0000
1000
0010
0000
0000
,
1001
1000
0001
0100
1000
0100
0001
0010
,
1000
0000
0010
0000
0001
0000
0100
0000
1000
0000
1100
0000
0000
0110
0000
0000
,
0011
0001
0010
1000
0001
0100
1000
0001
,
0010
0000
1000
0000
0001
0000
0100
0000
1000
0000
1100
0000
0000
0110
0000
0000
,
0011
0000
0001
0000
1000
0000
0001
0100
0000
0100
1000
0000
0100
0000
0001
0000
,
0010
0000
0010
0000
0001
0000
1000
0010
0000
1000
0010
0000
1000
0000
0001
0000
,
1001
0000
1000
0000
0001
0000
1000
0100
0000
0100
0001
0000
0100
0000
1000
0000
,
0001
0000
1000
0000
0010
0001
0000
0010
0000
1000
0100
1000
0100
0000
0000
0000
,
1001
0000
1000
0000
0001
0000
0100
1000
0100
0000
0001
0010
0000
0100
0010
0001
,
0000
0000
1000
0001
1000
0001
0000
0000
0100
0000
0100
0000
0100
0000
0001
0010
,
0001
0000
0001
0000
1000
0000
0010
0001
0010
0000
1000
0100
0000
1000
0010
0100
,
0010
0000
1000
0000
0010
1000
0000
0000
1010
0000
0000
0000
0011
0000
0000
0000
,
1001
0000
1000
0000
0001
0000
0010
1000
0010
0000
0001
0100
0000
0001
0100
0001
,
1000
0100
1000
0000
0010
0100
0010
0100
0001
0000
0001
0000
0001
0000
0001
0000
,
0100
0000
0100
0000
0001
0000
0100
1000
0100
0000
0001
1000
0001
1000
0001
1000
,
0001
0000
1001
0000
0000
0000
1000
0000
1001
0000
0001
0000
0100
0010
1000
0000
,
0001
0010
0001
0010
0001
0000
0011
0000
0001
0100
0000
0001
0000
1000
0100
0010
,
0100
1000
0001
1000
0001
0100
0000
0000
1000
0100
0000
0001
0000
1000
0010
0100
,
0001
1000
0001
1000
0001
0010
0000
0000
1000
0010
0000
0001
0000
1000
0010
1000
,
0010
0000
0010
0000
1000
0100
0000
1000
0000
1100
0000
0000
0101
0000
0001
0000
,
1000
0010
1000
0010
1000
0000
1010
0000
1000
0100
0000
1000
0000
0001
0100
0010
,
1000
0000
0100
0000
0001
0000
0100
0000
1000
0010
0000
0100
0000
0001
0010
0001
,
1000
0000
0010
0000
0001
0000
0010
0000
1000
0100
0000
0010
0000
0001
0100
0001
,
1000
0000
0100
0000
0001
0000
0010
0000
1000
0100
0000
1000
0100
1000
0100
0000
,
1000
0010
1000
0010
1000
0000
0001
0010
0001
0010
0001
0000
1001
0000
0000
0000
,
1000
0100
1000
0100
1000
0000
0001
0100
0001
0100
0001
0000
0000
1001
0000
0000
,
1000
0100
1000
0100
1000
0000
0100
0010
0100
0010
0100
0000
1100
0000
0000
0000
,
1000
0010
1000
0010
1000
0000
0010
0100
0010
0100
0010
0000
1010
0000
0000
0000
;
