#TITLE:Hyper Techno Waros;
#SUBTITLE:;
#ARTIST:Dirty Roses;
#TITLETRANSLIT:;
#SUBTITLETRANSLIT:;
#ARTISTTRANSLIT:;
#CREDIT:Vinylyarou;
#BANNER:Hyper Techno Waros-bn.PNG;
#BACKGROUND:Hyper Techno Waros-bg.PNG;
#LYRICSPATH:;
#CDTITLE:cd.png;
#MUSIC:Hyper Techno Waros.mp3;
#OFFSET:-9.654;
#SAMPLESTART:60.010;
#SAMPLELENGTH:14.500;
#SELECTABLE:YES;
#BPMS:0.000=150.080;
#STOPS:;
#BGCHANGES:;

//---------------dance-single - Steps by Vinylyarou----------------
#NOTES:
     dance-single:
     Steps by Vinylyarou:
     Hard:
     13:
     0.619,0.625,0.425,0.164,0.565: // measure 1
1001
0000
0000
1001
0000
0000
0011
0000
0000
0010
0000
0000
0001
0000
1000
0000
,  // measure 2
1010
0000
0000
1010
0000
0000
0110
0000
0000
0010
0000
0000
1000
0000
0010
0000
,  // measure 3
0110
0000
0000
0110
0000
0000
0101
0000
0000
0100
0000
0000
0001
0000
1000
0000
,  // measure 4
0101
0000
0000
0101
0000
0000
1001
0000
0000
0001
0000
0100
0010
0000
1000
0000
,  // measure 5
0001
0000
0000
1000
0000
0000
1001
0000
0000
0001
0000
0000
1000
0000
0001
0000
,  // measure 6
0010
0000
0000
0001
0000
0000
0011
0000
0000
0001
0000
0000
0010
0000
0001
0000
,  // measure 7
0010
0000
0000
0100
0000
0000
1010
0000
0000
0010
0000
0000
1000
0000
0010
0000
,  // measure 8
1000
0000
0000
0010
0000
0000
1001
0000
0000
0001
0000
1000
0001
0000
0100
0000
,  // measure 9
0010
1000
0000
0010
1000
0000
0001
0100
0000
0010
0000
0000
0100
0000
0001
0000
,  // measure 10
0010
0001
0000
0010
0001
0000
1000
0100
0000
0010
0000
0000
0001
0000
0010
0000
,  // measure 11
0001
1000
0000
0001
1000
0000
0100
1000
0000
0010
0000
0000
0100
0000
0001
0000
,  // measure 12
0100
0001
0000
0100
0001
0000
1000
0010
0000
1000
0000
0001
0010
0000
0001
0000
,  // measure 13
0100
0010
0000
0100
0010
0000
1000
0010
0000
1000
0000
0000
0010
0000
1000
0000
,  // measure 14
0001
0010
0000
0001
0010
0000
0001
1000
0000
0100
0000
0000
0010
0000
0001
0000
,  // measure 15
0010
0001
0000
0010
0001
0000
0100
0001
0000
0100
0000
0000
0010
0000
1000
0000
,  // measure 16
0001
1000
0000
0001
1000
0000
0010
0100
0000
0001
0000
1000
0010
0000
1000
0000
,  // measure 17
1010
0010
0010
0000
1000
0010
0001
0000
,  // measure 18
0001
0010
1000
0100
0010
0001
0010
0001
,  // measure 19
0100
0010
1000
0001
0010
0100
0010
0000
,  // measure 20
0010
0001
1000
0010
0100
0010
1000
0000
,  // measure 21
1001
0001
0100
1000
0100
0001
0100
0000
,  // measure 22
0001
0010
0001
0010
0100
0000
1000
0000
0010
0000
1000
0000
0001
0000
0000
0000
,  // measure 23
1000
0000
0100
0010
0100
0010
0100
1000
0100
0000
0010
0001
0010
0000
0000
0000
,  // measure 24
0001
0000
1000
0000
0010
0000
0100
0001
0100
0001
0000
1000
0001
0000
1001
0000
,  // measure 25
1000
0000
0010
0000
0100
0001
0000
0001
0100
0000
0100
0000
1010
0000
0000
0000
,  // measure 26
0001
0000
1000
0000
0100
0010
0000
0010
0001
0000
1000
0000
1100
0000
0000
0000
,  // measure 27
0100
0000
0010
0000
0001
1000
0000
1000
0010
0000
1001
0000
0110
0000
0000
0000
,  // measure 28
0001
0000
0100
0000
0010
1000
0000
1000
0010
0000
1000
0000
2000
0000
0001
0000
,  // measure 29
3001
0000
0110
0000
0001
0100
0000
0100
0001
0000
0100
0000
1001
0000
0000
0000
,  // measure 30
0010
0000
0100
0000
0001
0010
0000
0010
0001
0000
1000
0000
0101
0000
0000
0000
,  // measure 31
0100
0000
0010
0000
0010
0100
0000
0100
0001
0000
0010
0000
0011
0000
0000
0000
,  // measure 32
0100
0000
1000
0000
0010
0100
0000
0100
0020
0000
0000
0000
1030
0000
0000
0000
,  // measure 33
0220
0000
0000
0330
,  // measure 34
0001
0000
1000
0000
0010
0000
1000
0020
,  // measure 35
0000
2030
0000
3200
0000
0320
0000
0031
,  // measure 36
0000
1100
0000
0100
0010
0000
0100
0000
,  // measure 37
2000
3001
2002
0000
,  // measure 38
0000
0000
3003
0000
0001
0000
1000
0010
,  // measure 39
0000
1010
0000
0101
0000
1001
0000
0110
,  // measure 40
0000
1001
0000
0010
0001
0000
1000
0000
,  // measure 41
2001
0000
0000
3001
0000
0000
0001
0000
,  // measure 42
2100
0000
0000
3100
0000
0000
0100
0000
,  // measure 43
2001
0000
0000
3001
0000
0000
0001
0000
,  // measure 44
0021
0000
0000
0031
0000
0000
0001
0000
,  // measure 45
1000
0000
0000
1000
0000
0000
1000
0000
0000
0000
0000
0000
0011
0000
0000
0000
,  // measure 46
0001
0000
0000
0001
0000
0000
0001
0000
0000
0000
0000
0000
1010
0000
0000
0000
,  // measure 47
0010
0000
0000
0010
0000
0000
0010
0000
0000
0000
0000
0000
0110
0000
0000
0000
,  // measure 48
0001
0000
0000
1000
0000
0000
0001
0000
0000
0100
0000
0001
0100
0000
0010
0000
,  // measure 49
0100
0001
0000
0100
0001
0000
1000
0010
0000
0100
0000
0000
0010
0000
1000
0000
,  // measure 50
0100
1000
0000
0100
1000
0000
0001
0010
0000
0100
0000
0000
1000
0000
0100
0000
,  // measure 51
1000
0001
0000
1000
0001
0000
0010
0001
0000
0100
0000
0000
0010
0000
1000
0000
,  // measure 52
0010
1000
0000
0010
1000
0000
0001
0100
0000
0001
0000
1000
0100
0000
1000
0000
,  // measure 53
0010
0100
0000
0010
0100
0000
0001
0100
0000
0001
0000
0000
0100
0000
0001
0000
,  // measure 54
1000
0100
0000
1000
0100
0000
1000
0001
0000
0010
0000
0000
0100
0000
1000
0000
,  // measure 55
0100
1000
0000
0100
1000
0000
0010
1000
0000
0010
0000
0000
0100
0000
0001
0000
,  // measure 56
1000
0001
0000
1000
0001
0000
0100
0001
0000
0100
0000
0001
0100
0000
0110
0000
,  // measure 57
2002
3003
0000
0000
;

//---------------dance-single - ----------------
#NOTES:
     dance-single:
     :
     Medium:
     9:
     0.411,0.435,0.319,0.242,0.232: // measure 1
1000
0000
0000
1000
0000
0000
1000
0000
0000
1000
0000
0000
1000
0000
0000
0000
,  // measure 2
0001
0000
0000
0001
0000
0000
0001
0000
0000
0001
0000
0000
0001
0000
0000
0000
,  // measure 3
0100
0000
0000
0100
0000
0000
0100
0000
0000
0100
0000
0000
0100
0000
0000
0000
,  // measure 4
0010
0000
0000
0010
0000
0000
0010
0000
0000
0010
0000
0000
0010
0000
0000
0000
,  // measure 5
0010
0000
0000
1000
0000
0000
0010
0000
0000
1000
0000
0000
0010
0000
0000
0000
,  // measure 6
0100
0000
0000
0001
0000
0000
0100
0000
0000
0001
0000
0000
0100
0000
0000
0000
,  // measure 7
0001
0000
0000
0010
0000
0000
0001
0000
0000
0010
0000
0000
0001
0000
0000
0000
,  // measure 8
0010
0000
0000
0100
0000
0000
1000
0000
0000
0100
0000
0000
1000
0000
0000
0000
,  // measure 9
0010
0000
0000
1000
0000
0000
0001
0000
0000
0010
0000
0000
0011
0000
0000
0000
,  // measure 10
0100
0000
0000
1000
0000
0000
0010
0000
0000
0100
0000
0000
0101
0000
0000
0000
,  // measure 11
0001
0000
0000
1000
0000
0000
0010
0000
0000
0100
0000
0000
0110
0000
0000
0000
,  // measure 12
0010
0000
0000
1000
0000
0000
0100
0000
0000
0010
0000
0000
0011
0000
0000
0000
,  // measure 13
0001
0000
0000
1000
0000
0000
0001
0000
0000
1000
0000
0000
1001
0000
0000
0000
,  // measure 14
0010
0000
0000
0100
0000
0000
0010
0000
0000
0100
0000
0000
0110
0000
0000
0000
,  // measure 15
0010
0000
0000
1000
0000
0000
0010
0000
0000
1000
0000
0000
1100
0000
0000
0000
,  // measure 16
0010
0000
0000
0001
0000
0000
0010
0000
0000
0001
0000
0000
0010
0000
0001
0000
,  // measure 17
1000
0000
0001
0000
1000
0001
1000
0000
,  // measure 18
0020
0000
0130
0000
0010
0100
0010
0000
,  // measure 19
1000
0001
0020
0031
,  // measure 20
1000
0001
1000
0000
0010
0100
0010
0000
,  // measure 21
0020
0230
0302
2003
,  // measure 22
3001
1000
0001
1000
0020
0000
0130
0000
,  // measure 23
0001
0010
0001
0010
0001
0000
0020
0000
,  // measure 24
0130
1000
0010
1000
0010
0000
1010
0000
,  // measure 25
0001
0010
0100
1100
,  // measure 26
0001
0010
0100
1010
,  // measure 27
0010
0100
0001
0101
,  // measure 28
0001
0010
0100
1001
,  // measure 29
0001
1000
0002
0000
0103
0000
0110
0000
,  // measure 30
0001
1000
0002
0000
1003
0000
1010
0000
,  // measure 31
0010
0100
0020
0000
0130
0000
0101
0000
,  // measure 32
0001
0010
0100
0000
2000
0000
3001
0000
,  // measure 33
2002
0000
0000
0000
,  // measure 34
3003
0000
0000
0000
1000
0000
0010
1000
,  // measure 35
0000
0010
0000
0010
0000
0010
0000
0010
,  // measure 36
0000
0110
0000
0010
0100
0000
0010
0000
,  // measure 37
0100
0001
2002
0000
,  // measure 38
0000
0000
3003
0000
0001
0000
1000
0010
,  // measure 39
0000
0010
0000
0010
0000
0100
0000
0010
,  // measure 40
0000
0100
0000
0010
0100
0000
0010
0000
,  // measure 41
2002
0000
0000
3003
,  // measure 42
2020
0000
0000
3030
,  // measure 43
0202
0000
0000
0303
,  // measure 44
0220
0000
0000
0330
,  // measure 45
0010
0000
0000
1001
0000
0000
0000
0000
,  // measure 46
0100
0000
0000
1001
0000
0000
0000
0000
,  // measure 47
0100
0000
0000
0101
0000
0000
0000
0000
,  // measure 48
0001
0000
0000
0011
0000
0000
0001
0000
,  // measure 49
0100
0000
0000
0001
0000
0000
1000
0000
0000
0100
0000
0000
1100
0000
0000
0000
,  // measure 50
0010
0000
0000
0001
0000
0000
0100
0000
0000
0010
0000
0000
1010
0000
0000
0000
,  // measure 51
1000
0000
0000
0001
0000
0000
0100
0000
0000
0010
0000
0000
0110
0000
0000
0000
,  // measure 52
0100
0000
0000
0001
0000
0000
0010
0000
0000
0100
0000
0000
1100
0000
0000
0000
,  // measure 53
1000
0000
0000
0001
0000
0000
1000
0000
0000
0001
0000
0000
1001
0000
0000
0000
,  // measure 54
0100
0000
0000
0010
0000
0000
0100
0000
0000
0010
0000
0000
0110
0000
0000
0000
,  // measure 55
0100
0000
0000
0001
0000
0000
0100
0000
0000
0001
0000
0000
0011
0000
0000
0000
,  // measure 56
0100
0000
0000
1000
0000
0000
0100
0000
0000
1000
0000
0000
0100
0000
1000
0000
,  // measure 57
0002
0003
0000
0000
;

//---------------dance-single - ----------------
#NOTES:
     dance-single:
     :
     Easy:
     4:
     0.344,0.353,0.242,0.416,0.000:
2000
0010
0001
3010
,
0200
0001
0010
0301
,
0002
0010
0100
1003
,
0200
0010
1000
0310
,
0020
0130
0200
0310
,
2000
3001
0002
1003
,
2000
3002
0203
0320
,
0230
0000
0300
0010
,
0100
0010
0100
1001
,
0010
0001
0010
0011
,
0100
1000
0100
1100
,
0010
0100
0010
0110
,
0001
0010
0100
1100
,
1000
0010
0100
0101
,
0001
1000
0010
0110
,
0100
0001
0010
1100
,
1000
0000
0010
0000
,
0100
0100
0010
0010
,
0100
0001
0010
0100
,
1000
0010
0100
0001
,
1000
0001
1000
1001
,
0001
0001
1000
1001
,
0010
0010
0100
0010
,
1000
0001
0010
0000
,
0001
1000
1001
0000
,
0010
0100
0110
0000
,
0010
1000
1010
0000
,
0100
0001
0101
0001
,
1000
1000
1001
0000
,
0001
0001
0011
0000
,
0100
0100
1100
0000
,
0010
0010
0100
0010
,
2002
0000
0000
0000
,
3003
0000
1000
0001
,
0020
0130
2000
3010
,
0200
0301
0010
0110
,
0100
1000
2002
0000
,
0000
3003
0001
1000
,
0010
1000
0100
0100
,
0010
0010
0100
0010
,
2002
0000
0000
3003
,
0220
0000
0000
0330
,
0202
0000
0000
0303
,
2020
0000
0000
3030
,
0010
0000
0000
0000
,
0100
0000
0000
0000
,
0001
0000
0000
0000
,
1000
0000
0000
0001
,
0002
0100
1000
0103
,
0020
1000
0100
1030
,
2000
0100
0010
3001
,
0020
0100
0001
0130
,
0200
0310
0020
0130
,
0002
1003
2000
3001
,
0002
2003
3020
0230
,
0320
0000
0030
0100
,
2002
3003
0000
0000
;
