#VERSION:0.83;
#TITLE:Hyper Fiber World Travel;
#SUBTITLE:;
#ARTIST:Crimsona;
#TITLETRANSLIT:;
#SUBTITLETRANSLIT:;
#ARTISTTRANSLIT:;
#GENRE:WORLDCORE;
#ORIGIN:;
#CREDIT:;
#BANNER:hyperfiberworldtravel-bn.png;
#BACKGROUND:hyperfiberworldtravel-bg.png;
#PREVIEWVID:;
#JACKET:hyperfiberworldtravel-jacket.png;
#CDIMAGE:;
#DISCIMAGE:;
#LYRICSPATH:;
#CDTITLE:cdtitle.png;
#MUSIC:hyperfiberworldtravel.ogg;
#OFFSET:-0.133500;
#SAMPLESTART:99.922997;
#SAMPLELENGTH:12.000000;
#SELECTABLE:YES;
#BPMS:0.000=190.000;
#STOPS:;
#DELAYS:;
#WARPS:;
#TIMESIGNATURES:0.000=4=4;
#TICKCOUNTS:0.000=4;
#COMBOS:0.000=1;
#SPEEDS:0.000=1.000=0.000=0;
#SCROLLS:0.000=1.000;
#FAKES:;
#LABELS:0.000=Song Start;
#BGCHANGES:0.000=hyperfiberworldtravel.avi=1.000=0=0=0=StretchNoLoop====,
99999=-nosongbg-=1.000=0=0=0 // don't automatically add -songbackground-
;
#KEYSOUNDS:;
#ATTACKS:
;

//---------------dance-single - ----------------
#NOTEDATA:;
#CHARTNAME:;
#STEPSTYPE:dance-single;
#DESCRIPTION:;
#CHARTSTYLE:Pad;
#DIFFICULTY:Hard;
#METER:17;
#RADARVALUES:0.878482,1.240310,0.372689,0.283244,0.849732,825.000000,775.000000,50.000000,38.000000,8.000000,0.000000,0.000000,0.000000,0.000000,0.878482,1.240310,0.372689,0.283244,0.849732,825.000000,775.000000,50.000000,38.000000,8.000000,0.000000,0.000000,0.000000,0.000000;
#CREDIT:TonyAkita;
#NOTES:
// measure 0
0000
0000
0000
0000
,  // measure 1
0000
0000
0000
0000
,  // measure 2
0000
0000
0000
0000
,  // measure 3
0000
0000
0000
0000
,  // measure 4
0000
0000
0000
0000
,  // measure 5
0000
0000
0000
0000
,  // measure 6
0000
0000
0000
0000
,  // measure 7
1001
0000
0202
0000
,  // measure 8
0300
1003
1010
0000
,  // measure 9
1001
0000
2200
0000
,  // measure 10
0300
0000
0001
0000
3001
0000
0000
0000
0011
0000
0000
0000
0000
0000
0001
0010
,  // measure 11
1100
0000
0000
0000
1001
0000
0000
0001
,  // measure 12
0101
0000
0000
0000
0000
0000
0001
0000
1001
0000
1000
0000
0000
0000
1000
0100
,  // measure 13
0011
0000
0000
0000
1001
0000
1000
0010
1000
0000
0001
1000
0001
0000
0010
0100
,  // measure 14
2000
0000
0000
3000
,  // measure 15
1000
0010
1000
0001
1000
0100
1000
0001
,  // measure 16
1000
0010
0100
0001
0010
0100
1000
0001
,  // measure 17
0010
0001
1000
0001
0100
0001
1000
0001
,  // measure 18
0010
0000
0100
1000
0001
0000
0100
0000
0010
0000
1000
0001
0010
0000
0100
1000
,  // measure 19
0001
0000
0100
0000
0010
0000
1000
0000
0001
0000
0000
0000
0010
0001
0010
0001
,  // measure 20
0010
0000
0000
0000
0100
1000
0100
1000
0100
0000
0000
0000
0010
0000
0001
0000
,  // measure 21
1000
0000
0010
0000
0100
0000
0001
0000
1000
0000
0000
0000
0001
0100
0001
0100
,  // measure 22
0001
0000
0000
0000
1000
0001
1000
0001
2000
0000
0000
0000
0000
0000
3000
0000
,  // measure 23
1000
0100
0010
0001
0010
0100
0010
1000
,  // measure 24
0010
0100
0010
0001
1000
0010
0100
0001
,  // measure 25
0100
0010
0100
1000
0100
0010
0100
0001
,  // measure 26
1000
0000
0100
0000
0010
0000
0001
0000
0100
0000
0010
1000
0001
0000
0010
0100
,  // measure 27
1000
0000
0001
0010
0001
0000
0001
1000
0001
0000
0001
0100
0001
0000
0001
1000
,  // measure 28
0001
0000
1000
0010
1000
0000
1000
0001
1000
0000
1000
0100
1000
0000
1000
0001
,  // measure 29
1000
0000
0001
0100
0001
1000
0001
0000
0000
0000
1000
0100
1000
0001
1000
0000
,  // measure 30
0000
0000
0001
1000
0001
1000
0001
1000
0002
0000
0000
0000
0000
0000
0003
0000
,  // measure 31
2001
0100
0001
0010
,  // measure 32
3001
0000
1000
0000
0010
0100
0001
0000
0010
0000
0000
0000
1100
0000
0000
0000
,  // measure 33
0001
0100
0001
0100
0010
0000
0000
0000
1000
0100
1000
0100
0010
0000
0000
0000
,  // measure 34
0001
0100
0001
0010
0001
0100
0010
0000
1000
0100
1000
0010
1000
0100
0010
0000
,  // measure 35
0002
0000
0000
0000
0010
0000
0000
0000
1000
0000
0000
0000
0013
0000
0001
1000
,  // measure 36
0020
0000
0000
0000
0001
0000
0000
0000
1000
0000
0000
0000
0031
0000
0010
1000
,  // measure 37
0001
0100
0001
0000
0010
0000
0000
0000
0100
1000
0100
0000
1000
0000
0010
0000
,  // measure 38
0100
0001
1000
0001
0010
0100
1000
0000
,  // measure 39
0101
0001
0010
0100
1100
1000
0010
0100
,  // measure 40
0101
0000
0001
0000
1000
0000
0100
0000
0110
0000
0001
1000
0001
0000
1000
0001
,  // measure 41
1000
0010
0100
0001
0011
0010
0100
1000
,  // measure 42
1010
0000
0010
0000
0100
0000
0001
0000
2002
0000
0000
0000
3003
0000
1000
0001
,  // measure 43
0010
0100
1000
0010
0110
0100
0001
0010
,  // measure 44
0110
0000
0100
0000
1000
0000
0001
0000
1001
0000
1000
0001
1000
0000
0001
1000
,  // measure 45
0001
0010
0020
0000
0130
0100
0200
0000
,  // measure 46
1300
0001
1000
0100
0010
0002
0000
0003
,  // measure 47
0001
0100
0010
1000
0010
0001
0010
0100
,  // measure 48
0001
0000
1000
0100
1000
0000
0001
0010
0001
0000
1000
0001
0100
0000
0010
0000
,  // measure 49
1000
0000
0010
0100
0001
0000
1000
0000
0001
0000
0010
0100
1000
0000
0001
0000
,  // measure 50
1000
0000
0100
0010
0001
0000
1000
0000
0001
0000
0100
0010
1000
0000
0001
0010
,  // measure 51
0100
0000
1000
0100
1000
0000
0001
0000
0100
0000
0010
1000
0001
0000
0010
0000
,  // measure 52
0100
1000
0100
0000
0001
0000
0100
0000
1000
0000
0100
0000
0010
0000
0001
0000
,  // measure 53
0010
0000
0100
1000
0001
0000
0100
0000
1000
0000
0100
0001
1000
0000
0010
0000
,  // measure 54
0001
0000
0010
1000
0001
0000
0010
0000
1000
0000
0010
0001
1000
0000
0010
0100
,  // measure 55
0002
0000
0000
0000
1003
0000
0000
0000
1000
0000
0100
0010
0100
0000
0010
0000
,  // measure 56
0001
0010
1000
0010
0001
0010
0100
1000
,  // measure 57
0001
0000
1000
0010
0001
0000
0010
0000
1000
0000
0001
0010
1000
0000
0010
0000
,  // measure 58
0001
0000
1000
0100
0001
0000
0100
0000
1000
0000
0001
0100
1000
0000
0100
0000
,  // measure 59
0001
0000
1000
0000
0001
0000
0010
0100
1000
0000
0001
0000
1000
0000
0010
0100
,  // measure 60
0001
0000
0100
0000
0001
0000
1000
0100
0010
0000
0001
0010
0100
1000
0100
0010
,  // measure 61
0001
0010
0001
1000
0001
0100
0001
0000
1000
0010
1000
0001
1000
0100
1000
0000
,  // measure 62
0001
0010
0100
1000
0010
0100
0001
1000
0002
0000
0000
0000
0000
0000
0003
0000
,  // measure 63
0001
0000
0001
1000
0000
1000
0001
0000
0001
0010
0000
0010
,  // measure 64
0100
0001
0100
1000
0100
0010
0001
0000
0000
1001
0000
0000
,  // measure 65
1000
0000
1000
0001
0000
0001
1000
0000
1000
0010
0000
0010
,  // measure 66
0100
1000
0100
0001
0100
0010
1000
0000
0001
1000
0000
0001
,  // measure 67
1000
0000
1000
0100
0000
0100
0010
0000
0010
0001
0000
0001
,  // measure 68
1000
0010
0001
0010
0100
0001
1000
0000
0000
1001
0000
0000
,  // measure 69
1000
0100
0001
0100
0010
0001
1000
0000
0000
1001
0000
0000
,  // measure 70
1010
0000
0001
0100
0001
0100
0001
0000
1000
0100
1000
0100
,  // measure 71
1000
0000
0100
0001
0000
0100
1000
0100
0010
0001
1000
0010
,  // measure 72
0001
0000
0010
1000
0000
0010
0100
0000
0000
0001
1000
0001
,  // measure 73
1000
0000
0100
0001
0000
0100
1000
0000
0100
0001
0000
0100
,  // measure 74
0010
0000
0000
0001
0100
0010
1000
0000
0001
1000
0000
0001
,  // measure 75
1000
0000
0010
0001
0000
0010
1000
0010
0100
0001
0010
0100
,  // measure 76
1000
0100
0010
0001
0100
0010
1000
0010
0100
0001
0000
0000
,  // measure 77
1000
010M
M100
0001
M100
010M
1000
M010
001M
0001
M010
001M
,  // measure 78
1000
0000
0010
0100
0000
0001
2000
0000
0000
3000
0000
0000
,  // measure 79
1010
0000
0000
2200
0000
0000
3300
0000
,  // measure 80
0011
0000
0000
0000
0000
0000
0000
0000
0000
0202
0000
0000
0000
0000
0000
0303
0000
0000
0001
0000
0000
0000
0100
0000
,  // measure 81
0020
0000
0001
0001
0000
0100
0100
0000
1000
1030
0000
0010
,  // measure 82
0100
0000
0001
1000
0000
0100
0000
0000
0010
0000
0001
1000
,  // measure 83
2002
0000
0000
0000
3003
0000
0000
0000
1000
0000
0100
0010
0000
0100
1000
0000
,  // measure 84
0100
0000
0010
0000
0001
0100
0000
0010
0100
0000
0001
0100
0000
0010
0100
0000
,  // measure 85
0001
0000
1000
0000
0100
1000
0000
0010
1000
0000
0100
1000
0000
0010
1000
0000
,  // measure 86
0001
0000
1000
0000
0001
0100
0000
0001
0010
0000
0001
0100
0000
0001
1000
0000
,  // measure 87
1001
0000
1000
0100
0010
0001
0020
0000
0000
0000
0000
0000
0030
0000
0000
0000
,  // measure 88
0000
0000
0000
0000
0000
0000
0001
0000
1000
0001
1000
0010
0000
0000
0100
0000
,  // measure 89
0001
0000
1000
0001
0000
1000
0100
0010
0001
0000
1000
0001
0010
0001
0000
0000
,  // measure 90
1000
0010
0100
0000
0001
1000
0100
1000
0001
1000
0010
1000
0001
0010
0100
0000
,  // measure 91
1000
0010
0100
0010
0001
0010
0100
0010
1000
0010
0100
0010
0001
0010
0100
0010
,  // measure 92
1000
0010
0100
0010
0001
0010
0100
0000
0010
0000
0100
0001
0000
1000
0100
0010
,  // measure 93
0000
0000
0001
0010
0001
1000
0001
0100
0001
1000
0001
0010
0100
0000
0000
0000
,  // measure 94
1100
0000
0000
1001
0000
0000
0101
0000
,  // measure 95
2020
3030
1001
0000
,  // measure 96
0022
0000
0030
1003
1001
0000
0000
0001
,  // measure 97
0202
0303
1001
0000
,  // measure 98
2200
0000
0300
3001
1001
0000
1000
0100
,  // measure 99
0010
0011
1000
1010
,  // measure 100
0001
0101
1000
1100
,  // measure 101
0001
0100
1000
0100
0001
0100
1000
0100
,  // measure 102
0010
0100
0010
0100
0010
0100
0010
0200
0020
0000
0000
0000
0330
0000
0000
0000
,  // measure 103
2002
0000
0000
0000
,  // measure 104
3003
0000
0000
0000
;

//---------------dance-single - ----------------
#NOTEDATA:;
#CHARTNAME:;
#STEPSTYPE:dance-single;
#DESCRIPTION:;
#CHARTSTYLE:;
#DIFFICULTY:Medium;
#METER:13;
#RADARVALUES:0.602692,0.767740,0.350328,0.238521,0.257156,566.000000,519.000000,47.000000,32.000000,0.000000,0.000000,0.000000,0.000000,0.000000,0.602692,0.767740,0.350328,0.238521,0.257156,566.000000,519.000000,47.000000,32.000000,0.000000,0.000000,0.000000,0.000000,0.000000;
#CREDIT:TonyAkita;
#NOTES:
0000
0000
0000
0000
,
0000
0000
0000
0000
,
0000
0000
0000
0000
,
0000
0000
0000
0000
,
0000
0000
0000
0000
,
0000
0000
0000
0000
,
0000
0000
0000
0000
,
1001
0000
0202
0000
,
0300
1003
1010
0000
,
1001
0000
2200
0000
,
0300
0001
3001
0000
0011
0000
0000
0001
,
1000
0000
0000
0000
1100
0000
0000
1000
,
0001
0000
0000
0100
0101
0000
0000
0010
,
1000
0000
0001
0000
0010
0100
1000
0001
,
2000
0000
0000
3000
,
1000
0010
1000
0001
,
1000
0100
1000
0001
,
0100
0001
1000
0001
,
0010
0001
1000
0001
0100
0001
1000
0000
,
0001
0010
0100
1000
0010
0000
0100
0001
,
0100
0000
0010
1000
0010
0000
0100
0001
,
1000
0100
0010
0001
0010
0000
0100
1000
,
0001
0000
0100
0010
1000
0000
1001
0000
,
0001
0010
1000
0010
,
0100
0010
0001
0010
,
0100
1000
0100
0001
,
0100
0000
0010
0000
0100
1000
0001
1000
,
0010
1000
0001
1000
0100
1000
0001
0100
,
0001
1000
0001
0010
0001
1000
0001
0100
,
0000
0010
1000
0001
0000
0010
0100
1000
,
0000
0001
0100
0010
2000
0000
3000
0000
,
1002
0100
1000
0010
,
1003
0010
0100
0001
0010
0000
0000
0000
,
0100
1000
0010
0000
0100
0001
0010
0000
,
0100
1000
0010
1000
0001
0100
0001
0010
,
0002
1000
0100
1003
,
2000
0001
0100
3001
,
0001
0100
0001
0000
1000
0010
1000
0000
,
0001
0010
0100
1000
0010
0100
0001
0000
,
0101
1000
0011
1000
,
0101
1000
0011
1000
,
1100
0001
1010
0001
,
1100
0001
2002
3003
,
1001
0100
1001
0010
,
1001
0100
1001
0010
,
1001
2000
3010
0200
,
0301
0010
0100
1000
0010
0200
0000
0300
,
0001
0100
0010
1000
0010
0001
0010
1000
,
0001
0000
0000
1000
0001
0000
0000
1000
0100
0000
0000
0000
0010
0000
0001
0000
,
0000
1000
0010
0100
0000
0001
0010
0100
,
0000
1000
0100
0010
0000
0001
0100
0010
,
1000
0001
0010
0100
1000
0001
1000
0010
,
0100
0001
0100
1000
0100
0001
0010
0100
,
0000
1000
0001
0100
0000
0010
1000
0001
,
0000
0001
1000
0100
0000
0010
0001
1000
,
0020
0000
0030
0000
1000
0010
0100
0001
,
1000
0001
0010
0001
1000
0001
0000
0100
,
0010
1000
0100
0001
0000
0001
0100
1000
,
0000
1000
0010
0001
0000
0001
0010
1000
,
1000
0010
1000
0000
0001
0100
0001
0000
,
1000
0000
0001
0000
1000
0000
0000
0010
0100
0000
0000
0001
1000
0000
0010
0000
,
1000
0001
1000
0100
1000
0001
0100
0001
,
1000
0001
0010
0100
2000
0000
3000
0000
,
1000
0000
1000
0000
0000
0010
0001
0000
0001
0000
0000
0010
,
1000
0000
1000
0001
0000
0001
1000
0000
0000
1001
0000
0000
,
0001
0000
0001
0000
0000
0100
1000
0000
1000
0000
0000
0100
,
0001
0000
0001
1000
0000
1000
0001
0000
0000
1001
0000
0000
,
1000
0000
0100
0000
0000
0010
0001
0000
0010
0000
0000
0100
,
1000
0010
1000
0010
1000
0010
1000
0000
0000
1001
0000
0000
,
0001
0100
0001
0100
0001
0100
0001
0000
0000
1001
0000
1000
,
0100
0000
0001
0100
0000
1000
0001
0000
0000
1001
0000
0000
,
0001
0000
0001
0010
0000
0010
0100
0000
0100
1000
0000
1000
,
0010
0000
0010
1000
0000
1000
0001
0000
0000
0001
1000
0001
,
1000
0000
0010
1000
0000
0001
1000
0000
0100
1000
0000
0001
,
1000
0000
0000
0010
0000
0100
0001
0000
0000
1001
0000
0000
,
1000
0000
1000
0001
0000
0001
1000
0000
1000
0100
0000
0100
,
0001
0000
0001
0010
0000
0010
1000
0000
1000
0001
0000
0000
,
1000
0000
0001
0100
0000
1000
0100
0000
0001
0100
0000
0010
,
1000
0000
0000
0001
0010
0100
2000
0000
0000
3000
0000
0000
,
1010
0000
0000
1100
0000
0000
0000
0000
,
0011
0000
0000
0000
0000
0000
0000
0000
0000
0101
0000
0000
0000
0000
0000
0000
0000
0000
0001
0000
0000
0000
0100
0000
,
0020
0000
0000
0001
0000
0000
0100
0000
0000
1030
0000
0010
,
0100
0000
0001
1000
0000
0100
0000
0010
0000
0000
0000
0000
,
2002
0000
0000
0000
3003
0000
0000
0000
1000
0000
0000
0100
0000
0000
0010
0000
,
0001
0000
1000
0000
0000
0010
0000
0000
1000
0000
0000
0001
0000
0000
1000
0000
,
0100
0000
0010
0000
0000
0001
0000
0000
0100
0000
0000
0001
0000
0000
0010
0000
,
0100
0000
1000
0000
0000
0010
0000
0000
1000
0000
0000
0100
0000
0000
1000
0000
,
0001
0000
0000
2002
0000
0000
0000
0000
,
3003
0000
0000
1000
0010
0100
0001
1000
,
0100
1000
0001
1000
0010
0100
0001
0000
,
0010
0001
1000
0001
0100
0010
1000
0001
,
1000
0100
0010
0100
0001
0100
0010
0100
,
1000
0100
0010
0001
1000
0001
0100
0000
,
0000
0010
1000
0001
1000
0100
0010
0000
,
0011
0000
0000
1001
0000
0000
1010
0000
,
0202
0300
1003
0000
,
2200
0000
0300
0001
3001
0000
0000
0000
,
0022
0030
1003
0000
,
2020
0000
0030
0001
3001
0000
1000
0000
,
0001
0101
1000
1100
,
0001
0011
1000
1010
,
0001
0100
1000
0100
0001
0100
1000
0200
,
0020
0000
0000
0330
,
1001
0000
0000
0000
;
