#VERSION:0.83;
#TITLE:Hyper Fiber World Spectrum;
#SUBTITLE:;
#ARTIST:Crimsona;
#TITLETRANSLIT:;
#SUBTITLETRANSLIT:;
#ARTISTTRANSLIT:;
#GENRE:;
#ORIGIN:;
#CREDIT:;
#BANNER:Hyper Fiber World Spectrum.png;
#BACKGROUND:Hyper Fiber World Spectrum-bg.png;
#PREVIEWVID:;
#JACKET:Hyper Fiber World Spectrum-jacket.png;
#CDIMAGE:;
#DISCIMAGE:;
#LYRICSPATH:;
#CDTITLE:cdtitle.png;
#MUSIC:Hyper Fiber World Spectrum.ogg;
#OFFSET:-0.003000;
#SAMPLESTART:13.415000;
#SAMPLELENGTH:12.000000;
#SELECTABLE:YES;
#DISPLAYBPM:170.000000;
#BPMS:0.000=170.000,
364.000=250.000,
365.500=170.000,
373.000=340.000,
374.000=170.000;
#STOPS:36.000=0.353,
361.000=0.353,
364.000=0.055,
364.500=0.055,
365.000=0.055,
373.000=0.022,
373.125=0.022,
373.250=0.022,
373.375=0.022,
373.500=0.022,
373.625=0.022,
373.750=0.022,
373.875=0.022;
#DELAYS:;
#WARPS:;
#TIMESIGNATURES:0.000=4=4;
#TICKCOUNTS:0.000=4;
#COMBOS:0.000=1;
#SPEEDS:0.000=1.000=0.000=0;
#SCROLLS:0.000=1.000;
#FAKES:;
#LABELS:0.000=Song Start;
#BGCHANGES:;
#KEYSOUNDS:;
#ATTACKS:
;

//---------------dance-single - MEGAtive----------------
#NOTEDATA:;
#CHARTNAME:;
#STEPSTYPE:dance-single;
#DESCRIPTION:MEGAtive;
#CHARTSTYLE:;
#DIFFICULTY:Beginner;
#METER:5;
#RADARVALUES:0.214688,0.307394,0.102465,0.157112,0.003415,220.000000,205.000000,15.000000,23.000000,0.000000,0.000000,0.000000,0.000000,0.000000,0.214688,0.307394,0.102465,0.157112,0.003415,220.000000,205.000000,15.000000,23.000000,0.000000,0.000000,0.000000,0.000000,0.000000;
#CREDIT:;
#DISPLAYBPM:170.000000;
#NOTES:
// measure 0
0000
0000
0000
0000
,  // measure 1
0000
0000
0000
0000
,  // measure 2
0000
0000
0000
0000
,  // measure 3
0000
0000
0000
0000
,  // measure 4
0000
0000
0000
0000
,  // measure 5
0011
0000
0000
0000
,  // measure 6
1010
0000
0000
0000
,  // measure 7
1001
0000
0000
0000
,  // measure 8
1000
0000
0100
0000
,  // measure 9
0010
0000
0000
0001
,  // measure 10
0010
0001
0000
1000
,  // measure 11
0010
1000
0010
0100
,  // measure 12
0000
0000
0000
0100
,  // measure 13
0001
1000
0000
0001
,  // measure 14
0100
0001
0000
1000
,  // measure 15
0100
1000
0100
0010
,  // measure 16
0000
0000
0000
0002
,  // measure 17
0000
0000
0000
1003
,  // measure 18
0000
1000
0000
0000
0010
0000
0100
0000
,  // measure 19
0000
0100
0000
0000
0001
0000
2000
0000
,  // measure 20
0000
0000
0000
3200
,  // measure 21
0000
0000
0000
1300
,  // measure 22
0000
1000
0000
0000
0100
0000
0010
0000
,  // measure 23
0000
0010
0000
0000
0001
0000
2000
0000
,  // measure 24
0000
0000
0000
3020
,  // measure 25
0000
0000
0000
1030
,  // measure 26
0001
0100
0000
0010
,  // measure 27
1000
0001
0000
1000
,  // measure 28
0100
0010
0000
0001
,  // measure 29
0010
0100
0000
1000
,  // measure 30
0001
0100
0000
0010
,  // measure 31
1000
0001
0000
1001
,  // measure 32
0000
1001
0000
1001
,  // measure 33
0000
2000
0000
3100
,  // measure 34
0010
0000
0100
0000
1000
0000
0000
0001
,  // measure 35
0000
0100
0000
0010
,  // measure 36
1000
0000
0000
0000
0000
0001
0000
0000
0000
0000
0000
0000
0200
0000
0000
0000
,  // measure 37
0000
0000
0000
0310
,  // measure 38
0100
0000
0010
0000
1000
0000
0000
0001
,  // measure 39
0000
0010
0000
0100
,  // measure 40
1000
0001
0000
0200
,  // measure 41
0000
0000
0000
0301
,  // measure 42
0000
0001
0000
1000
,  // measure 43
0000
1000
0000
0200
,  // measure 44
0000
0000
0000
0320
,  // measure 45
0000
0000
0000
0031
,  // measure 46
0000
0001
0000
1000
,  // measure 47
0010
0100
0010
0200
,  // measure 48
0000
0000
0000
0302
,  // measure 49
0000
0000
0000
1003
,  // measure 50
0100
0010
0000
0100
,  // measure 51
0010
0001
0000
0001
,  // measure 52
0100
0010
0000
0100
,  // measure 53
0010
1000
0000
0001
,  // measure 54
0010
0100
0000
1000
,  // measure 55
0010
0100
0000
0010
,  // measure 56
0100
0001
0000
1000
,  // measure 57
0200
0000
0000
1300
,  // measure 58
0010
1000
0000
0001
,  // measure 59
0010
0001
0000
1000
,  // measure 60
0010
1000
0000
0001
,  // measure 61
0100
0001
0000
1000
,  // measure 62
0100
1000
0000
0001
,  // measure 63
0100
0001
0000
1000
,  // measure 64
0010
0100
0000
0001
,  // measure 65
0010
0100
0000
1000
,  // measure 66
0000
0000
0000
0001
,  // measure 67
0000
0000
0000
0100
,  // measure 68
0000
0000
0000
0010
,  // measure 69
0000
0000
0000
1000
,  // measure 70
0000
0000
0000
0001
,  // measure 71
0000
0000
0000
1001
,  // measure 72
0000
0000
0000
0110
,  // measure 73
0000
0000
0000
1000
,  // measure 74
0000
0100
0000
0010
,  // measure 75
0000
0100
0000
1000
,  // measure 76
0000
0001
0000
0100
,  // measure 77
0000
0010
0000
1000
,  // measure 78
0000
0010
0000
0100
,  // measure 79
0000
0001
0000
0010
,  // measure 80
0000
0100
0000
1000
,  // measure 81
0000
0001
0000
1000
,  // measure 82
0010
1000
0000
0001
,  // measure 83
0010
0001
0000
1000
,  // measure 84
0100
0010
0000
0001
,  // measure 85
0100
0010
0000
1000
,  // measure 86
0010
0100
0001
1000
,  // measure 87
0000
0100
0000
0010
,  // measure 88
0000
0001
0000
0000
1000
0000
0010
0000
,  // measure 89
0100
0001
1000
0002
,  // measure 90
0000
0000
0003
0000
0000
2002
0000
0000
,  // measure 91
0000
0000
0000
3003
0000
0000
1000
0000
,  // measure 92
1000
0000
0000
0000
0022
0000
0000
0033
,  // measure 93
0000
2000
3000
0000
,  // measure 94
1010
0000
0000
0000
0202
0000
0000
0303
,  // measure 95
0000
0000
0000
0000
0000
0011
0000
0000
,  // measure 96
1001
0000
0000
2020
,  // measure 97
0000
0000
0000
0000
,  // measure 98
0000
0000
0000
0000
,  // measure 99
0000
0000
0000
0000
,  // measure 100
3030
0000
0000
0000
;

//---------------dance-single - MEGAtive----------------
#NOTEDATA:;
#CHARTNAME:;
#STEPSTYPE:dance-single;
#DESCRIPTION:MEGAtive;
#CHARTSTYLE:;
#DIFFICULTY:Easy;
#METER:9;
#RADARVALUES:0.396197,0.478168,0.177605,0.239084,0.109296,406.000000,380.000000,26.000000,35.000000,0.000000,0.000000,0.000000,0.000000,0.000000,0.396197,0.478168,0.177605,0.239084,0.109296,406.000000,380.000000,26.000000,35.000000,0.000000,0.000000,0.000000,0.000000,0.000000;
#CREDIT:;
#DISPLAYBPM:170.000000;
#NOTES:
0000
0000
0000
0000
,
0000
0000
0000
0000
,
0000
0000
0000
0000
,
0000
0000
0000
0000
,
0000
0000
0000
0000
,
0101
0000
0000
0001
0000
0000
0000
0000
,
1100
0000
0000
1000
0000
0000
0000
0000
,
1001
0000
0000
0001
0000
0000
0001
0000
,
0100
0010
1000
0001
,
1000
0000
0000
1000
,
0100
0010
0100
0000
1000
0001
1000
0000
,
0010
0000
0100
0000
0001
1000
0002
0000
,
0000
0000
1003
0001
,
0010
0000
0100
0000
1000
0000
0001
0100
,
0010
0100
0010
0000
1000
0000
0001
0000
,
0010
0100
1000
0020
,
0000
0000
0030
0200
,
0000
0302
0000
0000
1003
0000
0001
0000
,
0000
0011
0000
0000
1100
0000
1000
0000
,
0000
1010
0000
0000
0101
0000
0002
0000
,
0000
1003
0000
0200
,
0000
0310
0001
1000
,
0000
1010
0000
0000
0101
0000
0001
0000
,
0000
0011
0000
0000
1100
0000
2000
0000
,
0000
3001
0000
0200
,
0000
0310
1000
0001
,
1000
0100
1000
0000
0010
0000
0100
0000
,
0001
0100
0001
0000
1000
0000
0100
0000
,
0010
0001
0010
0000
0001
0000
1000
0000
,
0010
0100
0010
0000
1000
0001
1000
0000
,
0100
0010
0001
0100
,
0010
0000
1000
0000
0001
0000
0010
0100
,
0010
0000
0001
1000
0001
0000
0100
0010
,
0100
0000
0001
1000
0100
1000
0100
0000
,
0010
0000
0100
0000
0010
0000
0000
0001
0000
0000
0001
0000
0000
0000
1001
0000
,
0000
1000
0000
0000
0010
0000
0000
0100
0000
0000
0000
0000
0001
0000
0100
0000
,
0010
0000
0100
0000
0000
0010
0000
0000
0010
0000
0000
0000
1000
0000
0000
0001
,
0000
0000
0010
0000
0000
0100
0000
0000
0000
0000
0000
0000
1000
0000
0000
0000
,
0100
0000
0010
0000
0100
0000
0000
1000
0000
0000
1000
0000
0000
0000
1001
0000
,
0000
0001
0000
0000
0100
0000
0000
0010
0000
0000
0000
0000
1000
0000
0010
0000
,
0100
0000
0010
0000
0100
0000
0000
0000
0001
0000
0000
0000
0010
0000
0000
0010
,
0000
0100
0000
0110
0000
0000
2000
0000
,
0000
3020
0000
0230
,
0302
0000
0013
0100
0010
0100
2000
0000
,
0000
0000
3001
0000
0000
0000
0000
0200
,
0000
0310
0000
2000
,
0000
3200
0000
0320
,
0032
0000
0103
0010
0100
0010
2000
0000
,
0000
0000
3001
0000
0010
0000
0100
1000
,
0100
0000
0010
0000
0001
1000
0001
0000
,
0100
1000
0100
0001
,
0010
1000
0010
0001
,
1000
0010
0001
0010
,
1000
0100
0001
0100
,
0010
0001
1000
0010
,
0100
0010
1000
0001
,
0010
1000
0010
0001
,
1000
0000
0010
0000
0100
0000
0010
0100
,
0010
0000
1000
0001
1000
0000
0100
0010
,
0100
0000
1000
0001
1000
0000
0020
0000
,
0031
0020
1030
0200
,
0301
0000
0200
0000
1300
0000
0010
0100
,
0010
0000
1000
0001
1000
0000
0001
0010
,
0001
0000
2000
0000
3010
0100
0010
0000
,
1000
0001
1000
0000
0100
0010
0100
0000
,
0010
0001
0010
0000
0001
0000
1001
0000
,
1000
0000
0000
0000
0000
0010
0000
0000
0100
0010
0000
0100
,
0000
0000
0100
0000
0000
0001
1000
0000
0000
0001
0000
0000
,
0010
0000
0010
0000
0000
0100
1000
0000
1000
0000
0000
0001
,
0100
0000
0000
0200
0000
0000
0310
0000
1000
0000
0000
0000
,
0001
0000
0010
0100
0000
0100
0000
0000
1000
0001
0000
0100
,
0000
0000
0100
0000
0000
0010
0000
0000
1000
0001
0000
0000
,
0010
0000
0010
0000
0000
0001
1000
0000
0000
0010
0000
0010
,
0000
0000
0100
0000
0000
0010
1000
0000
0000
0001
0000
0000
,
0010
1000
0010
0001
,
0010
1000
0010
0001
,
0100
1000
0100
0001
,
0100
0020
0000
1030
,
0100
0001
0100
1000
,
0100
0001
0100
1000
,
0010
0001
0010
1000
,
0010
0200
0000
0301
,
0010
0100
0010
0000
0001
1000
0001
0000
,
0100
0010
0100
0000
0001
0000
1000
0100
,
0010
0000
0100
0010
0001
0000
0100
0000
,
1000
0100
0001
1000
,
1100
0000
0001
0000
0101
0000
0100
0001
,
0010
0000
0100
1000
0010
0000
0100
0000
,
0001
1000
0000
1000
0100
0000
0010
0001
,
1000
0000
0010
0100
0001
0000
2000
0000
,
0000
0000
3000
0000
0000
1001
0000
0001
,
0000
0000
0000
0011
0000
0010
0100
0000
,
1100
0000
0000
0000
1010
0000
0000
2002
,
0000
3003
0000
0000
0000
0001
0010
0000
,
0110
0000
0000
0000
0011
0000
0000
1002
,
0000
0000
0000
0000
0000
2003
0000
0000
,
3020
0000
0030
0220
,
0000
0000
0000
0000
,
0000
0000
0000
0000
,
0000
0000
0000
0000
,
0330
0000
0000
0000
;

//---------------dance-single - MEGAtive----------------
#NOTEDATA:;
#CHARTNAME:;
#STEPSTYPE:dance-single;
#DESCRIPTION:MEGAtive;
#CHARTSTYLE:;
#DIFFICULTY:Medium;
#METER:13;
#RADARVALUES:0.636257,0.717252,0.218591,0.382535,0.433767,652.000000,620.000000,32.000000,56.000000,0.000000,0.000000,0.000000,0.000000,0.000000,0.636257,0.717252,0.218591,0.382535,0.433767,652.000000,620.000000,32.000000,56.000000,0.000000,0.000000,0.000000,0.000000,0.000000;
#CREDIT:;
#DISPLAYBPM:170.000000;
#NOTES:
0000
0000
0000
0000
,
0000
0000
0000
0000
,
0000
0000
0000
0000
,
0000
0000
0000
0000
,
0000
0000
0000
0000
,
0011
0000
0001
0100
0000
0000
0110
0000
,
1010
0000
1000
0100
0000
0000
0110
0000
,
0100
0000
0000
1000
0001
0000
1000
0000
0000
0000
0001
0000
0100
0000
0010
0000
,
1000
0000
0000
0001
1000
0000
0100
0000
0010
0000
0000
0000
0100
0000
1000
0000
,
0001
0000
0000
0000
0001
0000
0000
1000
0100
0000
0010
0000
0100
0000
0000
1000
,
0001
0000
0100
0000
0010
0000
0000
0100
0001
0000
1000
0000
0100
0000
0000
0010
,
0100
0000
0000
1000
0001
0000
0000
0100
0010
0000
1000
0001
1000
0000
0000
0000
,
1001
0000
0000
0000
0000
0000
0000
0000
1000
0000
0100
0000
0010
0000
0000
0100
,
1000
0000
0000
0010
0100
0000
0000
0001
1000
0000
0000
0100
0010
0000
0001
0000
,
1000
0000
0001
0000
0100
0000
0000
0010
0100
0000
0000
0001
0010
0000
0000
0100
,
0010
0000
0000
0001
1000
0000
0010
0100
0010
0000
1000
0000
1001
0000
0000
0000
,
0001
0000
0000
0000
0100
0010
1000
0100
,
1000
0001
0100
0001
1000
0100
0010
0001
,
1000
0010
0001
0010
1000
0100
1000
0001
,
0010
0000
1000
0000
0010
0100
0010
0000
0001
1000
0001
0000
0200
0000
0000
0000
,
0000
0000
0000
0000
0320
0000
0000
2030
0000
0000
3200
0000
0320
0000
0000
0000
,
0000
0000
0130
0000
2000
0000
0000
0000
3001
1000
0001
1000
0001
0000
0100
0000
,
0001
0010
1000
0010
0001
0100
0001
1000
,
0010
0000
0001
0000
0010
0100
0010
0000
1000
0001
1000
0000
0200
0000
0000
0000
,
0000
0320
0032
0203
,
0000
0000
0310
0000
1000
0000
0000
0000
1000
0001
1000
0001
1000
0000
0010
0000
,
0100
0010
0002
0000
1003
0100
0010
0100
,
0001
0000
1000
0000
0100
0000
0010
0000
0100
0000
1000
0000
0001
0000
0100
0010
,
0100
0001
1000
0100
0001
0100
2000
0000
,
3010
0100
0002
0000
0013
0100
1000
0000
,
0001
0100
0010
0100
2000
0000
3001
0010
,
0100
0000
0010
0000
1000
0000
0001
1000
0001
0000
0010
0000
1000
0000
0010
0000
,
0001
0100
0010
0001
0010
0100
0001
1000
,
0100
0000
0001
0000
0100
0010
0100
0000
1000
0001
1000
0001
1000
0000
0010
0000
,
0100
0000
1000
0000
0100
0000
0000
0010
0000
0000
1010
0000
0000
0000
1001
0000
,
0000
0001
0000
0000
0011
0000
0000
0011
0000
0000
0000
0001
1000
0000
0100
0000
,
0010
0000
0200
0000
0000
1000
0000
0000
1300
0000
0000
0000
0001
0000
0000
0101
,
0000
0000
0101
0000
0000
1001
0000
0000
1000
0000
0001
1000
0001
0000
0010
0000
,
0100
0000
0001
0000
0100
0000
0000
0010
0000
0000
0011
0000
0000
0000
1001
0000
,
0000
1000
0000
0000
1010
0000
0000
1010
0000
0000
0000
1000
0001
0000
0100
0000
,
0010
0000
0100
0000
1000
0000
0100
0000
0010
0000
1000
0000
0001
0000
0000
0011
,
0000
0011
0000
1001
2000
0000
3002
0000
,
0103
0020
1030
0200
,
0320
0000
0031
0100
1000
0100
0020
0000
,
0000
0000
2030
0000
0000
0000
0000
3100
,
0010
0000
0000
0000
0012
0000
0000
0000
1003
0001
1000
0001
2000
0000
0000
0000
,
3010
0002
0013
2000
,
3200
0000
0310
0001
0100
1000
0200
0000
,
0000
0000
0310
0000
2000
0000
3100
0001
,
0200
0000
0000
0000
0000
0000
0000
0000
0000
0000
0000
0000
1300
0000
0000
0000
0000
0000
0000
0000
0000
0000
0000
0000
0010
0000
0000
0100
0000
0000
0010
0000
0000
0100
0000
0000
0010
0000
0000
0000
0000
0000
0000
0000
1000
0000
0000
0000
,
0100
0000
0010
0100
0000
1000
0001
0000
0100
0010
0000
1000
,
0001
0000
0010
0100
0000
0010
0001
0000
1000
0010
0000
0100
,
0001
0000
0010
0100
0000
1000
0001
0000
0100
0010
0000
1000
,
0001
0000
0010
0100
0000
0010
0001
0000
1000
0020
0000
0000
,
0001
0100
1030
0200
,
0010
0000
0000
0001
0000
0000
0010
0000
0000
1300
0001
1000
,
0000
0010
0100
0000
0001
0010
0000
0100
1000
0000
0010
0100
,
0000
0000
0000
0000
0001
0000
0000
0000
1000
0000
0000
0000
0001
0000
0000
0000
1000
0000
0000
0000
0100
0000
0000
0000
0010
0000
0000
0000
0000
0000
0000
0000
0001
0000
0000
0000
2000
0000
0000
0000
0000
0000
0000
0000
0000
3010
0000
0000
,
0000
0000
0001
0000
0020
0000
0000
0130
0000
0000
0001
0000
2000
0000
0000
3100
,
0010
0100
1000
0001
0100
1000
0100
0010
,
0100
1000
0100
0010
0100
0001
0010
0100
,
0001
0000
0100
0000
0010
0000
0100
0000
1000
0000
0001
0000
2000
0000
0000
3100
,
0000
0000
0001
0000
0200
0000
0000
0310
0000
0000
0001
0000
2000
0000
0000
3010
,
0100
0010
2000
0000
3010
0100
0002
0000
,
0013
0000
1000
0000
0010
0000
0001
0000
0100
0000
0010
0000
2000
0000
0000
3010
,
0100
0010
2000
0000
3100
0000
1001
0000
,
0001
0000
0100
0010
0000
0100
0000
0000
0001
1000
0000
0100
,
0000
0000
0110
0000
0000
0010
0100
0000
0000
1000
0000
0000
,
0001
0000
0001
0000
0000
0100
0010
0000
1000
0001
0000
0010
,
0100
0000
1000
0002
0000
0000
0103
0000
0100
0010
0000
0000
,
1000
0000
0001
0010
0000
0010
0000
0000
0100
1000
0000
0010
,
0100
0000
0100
0000
0000
0001
1000
0000
0100
0010
0000
0000
,
0011
0000
0011
0000
0000
0001
1000
0000
0010
0100
0000
0001
,
1000
0000
0000
0000
0020
0000
0000
0000
0000
0000
0130
0000
0002
0000
0000
0000
0000
0000
1003
0000
0000
0100
0000
0000
,
0010
0100
1000
0010
0100
0001
0100
0010
,
1000
0001
0010
0100
0010
0001
1000
0010
,
0100
0010
1000
0100
0010
0001
0010
0100
,
1000
0001
0200
0010
0000
0001
0301
0010
,
0100
0010
0001
0100
0010
1000
0010
0100
,
0001
1000
0100
0010
0100
1000
0001
0100
,
0010
0100
0001
0010
0100
1000
0100
0010
,
0001
1000
0020
0000
2030
0000
3001
0010
,
0001
1000
0010
0001
0010
0100
0001
0010
,
0001
0000
1000
0000
0100
0000
0001
0000
0100
0000
1000
0000
0001
0000
0000
0100
,
0010
0000
0000
1000
0100
0000
0000
0010
0001
0000
0000
0100
0010
0000
1000
0001
,
1000
0000
0100
0010
0100
0000
1000
0001
1000
0000
0010
0100
0010
0000
0000
0100
,
0001
0000
0000
1000
0100
0000
0010
0000
0001
0000
0100
0000
1000
0000
0100
0000
,
0010
1000
0001
1000
0100
0010
0001
0000
,
0101
0000
0100
0000
0000
0000
0010
0100
0010
0000
1000
0000
0001
0000
0010
0000
,
1000
0010
0001
0100
1000
0100
0020
0000
,
0000
0000
0030
0000
0000
1010
0000
1000
,
0001
0010
0001
0011
0000
1000
1000
0000
,
1100
0000
0100
1000
0001
0000
0000
0101
,
0000
0000
0000
1000
0020
0000
0000
0000
0030
0100
0010
0000
1000
0000
0001
0000
,
0010
0000
0100
1000
0020
0000
0030
2010
,
0000
0000
0000
0000
0000
0000
0000
0000
3010
0100
0020
0000
0000
0000
1030
0001
,
2000
0000
3001
0220
,
0000
0000
0000
0000
,
0000
0000
0000
0000
,
0000
0000
0000
0000
,
0330
0000
0000
0000
;

//---------------dance-single - MEGAtive----------------
#NOTEDATA:;
#CHARTNAME:;
#STEPSTYPE:dance-single;
#DESCRIPTION:MEGAtive;
#CHARTSTYLE:;
#DIFFICULTY:Hard;
#METER:16;
#RADARVALUES:0.770924,0.922181,0.259577,0.409858,0.703590,790.000000,752.000000,38.000000,60.000000,0.000000,0.000000,0.000000,0.000000,0.000000,0.770924,0.922181,0.259577,0.409858,0.703590,790.000000,752.000000,38.000000,60.000000,0.000000,0.000000,0.000000,0.000000,0.000000;
#CREDIT:;
#DISPLAYBPM:170.000000;
#NOTES:
0000
0000
0000
0000
,
0000
0000
0000
0000
,
0000
0000
0000
0000
,
0000
0000
0000
0000
,
0000
0000
0000
0000
,
0011
0000
0000
0000
0001
0000
0001
0000
0000
0000
0100
0010
0100
0000
0000
0000
,
1010
0000
0000
0000
1000
0000
1000
0000
0000
0000
0100
0010
0100
0000
0000
0000
,
1100
0000
0000
1000
0001
0000
0100
0000
0000
0000
0010
0100
0010
0000
0000
0000
,
0100
0000
0000
0001
1000
0000
0100
0000
0020
0000
0000
0000
0130
0000
0100
1000
,
0001
0000
0000
0000
0011
0000
0000
0000
0001
0010
0001
0010
0200
0000
0000
1300
,
0001
0000
0100
0000
2000
0000
0000
3100
0010
0000
1000
0000
0002
0000
0000
0000
,
0013
0100
0010
0000
0001
1000
0001
0000
0100
0010
1000
0001
1000
0000
0000
0000
,
2002
0000
0000
0000
0000
0000
3003
0000
0001
0000
0010
0100
0010
0000
0001
0000
,
1000
0000
0010
0000
0001
0000
0010
0000
1000
0001
1000
0001
0010
0000
0100
1000
,
0100
0000
0010
0000
0200
0000
0000
1300
0001
0100
0001
0100
0010
0000
1000
0000
,
0100
0000
0001
0000
0100
0000
1000
0001
1000
0000
0010
0100
0010
0000
0000
0000
,
2002
0000
0000
0000
0000
0000
3003
0000
1000
0100
0010
0001
0100
0000
0010
0000
,
0100
0000
0001
0000
1000
0000
0001
0000
0010
0000
0100
0010
0001
0000
1000
0010
,
0100
0000
0010
0100
0001
0000
1000
0000
0001
0010
0100
0000
1000
0000
0001
0010
,
0100
0000
1000
0000
0010
0100
0010
0100
0001
1000
0100
0010
0002
0000
0000
0000
,
1000
0000
0000
0000
2003
0000
0000
3020
0000
0000
0130
0000
0200
0000
0000
0000
,
0000
0000
1300
0000
0200
0000
0000
0000
0310
0100
0010
0100
0001
0000
1000
0000
,
0100
0000
0001
0000
0100
0000
1000
0000
0010
0000
0100
0010
1000
0000
0100
0000
,
0010
0000
0100
0010
0100
1000
0100
1000
0001
0100
0010
0100
0002
0000
0000
0000
,
0100
2003
0000
3200
,
0010
0000
0000
0000
1300
0000
0000
0000
0100
1000
0100
1000
0001
0000
0010
0000
,
1000
0010
0001
0100
0010
0001
0010
0100
,
0001
0000
1000
0000
0100
0000
0001
0000
0100
0000
1000
0000
0001
0000
0100
0010
,
0100
0001
0010
0100
0010
0001
0200
0000
,
1300
0000
0100
0000
0010
0000
1000
0001
1000
0000
0100
0000
0020
0000
0000
0000
,
0130
1000
0100
0001
0100
1000
0010
0001
,
0010
0000
1000
0000
0001
0000
0010
0100
0010
0000
0001
0000
0001
0000
0100
0000
,
1000
0100
0001
0010
1000
0010
0001
0100
,
0010
0000
0001
0000
0010
0100
0010
0000
1000
0100
0010
0001
1000
0000
0010
0000
,
0100
0000
1000
0000
0100
0000
0010
0100
0010
0000
0100
0000
0000
0000
1001
0000
,
0000
0001
0000
0000
0011
0000
0000
1100
0000
0000
1000
0100
1000
0000
0001
0000
,
0200
0000
1000
0000
0000
0010
0000
0000
0301
0000
0000
0000
0101
0000
0000
0001
,
0000
0000
1002
0000
0000
0010
0000
0000
0013
0100
0010
0001
1000
0000
0100
0000
,
0010
0000
1000
0000
0010
0000
0100
0010
0100
0000
0010
0000
0000
0000
1001
0000
,
0000
0001
0000
0000
0101
0000
0000
1010
0000
0000
1000
0010
1000
0000
0001
0000
,
0010
0000
1000
0000
0010
0100
0010
0000
0100
0000
1000
0000
1001
0000
0000
0001
,
0000
0000
0101
0000
0000
0000
1100
0000
0100
1000
0001
1000
0020
0000
0000
0000
,
0100
2030
0100
3002
,
0203
0000
0000
0000
0310
1000
0001
0000
0010
0000
0010
0000
0200
0000
0000
0000
,
0010
0000
2300
0000
0000
0000
0000
3001
,
0100
0000
1000
0000
0200
0000
0000
0000
0310
1000
0001
1000
0200
0000
0010
0000
,
0310
0000
0000
0000
0200
0000
1000
0000
1300
0000
0000
0000
0010
0000
0100
0001
,
1000
0000
0100
0010
0100
0000
1000
0001
0100
0000
1000
0000
0200
0000
0000
0000
,
0010
0000
0302
0000
1000
0000
0013
0100
,
0010
0000
0000
0000
0000
0000
0000
0000
0000
0000
0000
0000
0011
0000
0000
0000
0000
0000
0000
0000
0000
0000
0000
0000
1000
0000
0000
0010
0000
0000
0100
0000
0000
0001
0000
0000
1000
0000
0000
0000
0000
0000
0000
0000
1000
0000
0000
0000
,
0100
0010
0100
1000
0000
0001
0100
0010
0100
0001
0000
1000
,
0100
0000
0001
0100
0000
1000
0010
0000
0001
0010
0000
1000
,
0010
0100
0010
2000
0000
3001
0010
0100
0010
0001
0000
1000
,
0010
0000
0001
0010
0000
1000
0100
0000
0010
0002
0000
0103
,
2000
0000
3100
0002
0000
1003
0200
0000
0301
0200
0000
1300
,
0020
0000
0031
0010
0100
0010
2000
0000
3001
1000
0010
0001
,
0000
0010
1000
0000
0100
0001
0000
0100
1000
0000
0010
0001
,
0000
0000
0000
0000
0010
0000
0000
0000
0100
0000
0000
0000
0010
0000
0000
0000
1000
0000
0000
0000
0001
0000
0000
0000
1000
0000
0000
0000
0100
0000
0000
0000
0010
0000
0000
0000
0001
0000
0000
0000
0000
0000
0000
0000
0000
0100
0000
0000
,
0010
0000
0001
0000
0010
0100
0000
0001
0100
0000
0001
0000
1000
0000
0100
0000
,
0001
0100
1000
0010
1000
0001
0100
0010
,
0100
0001
0010
0100
0010
0001
0100
0010
,
0100
0000
0001
0000
0010
0000
1000
0000
0010
0000
0001
0000
1000
0000
0000
0100
,
0010
0000
1000
0000
0010
0100
0000
1000
0100
0000
1000
0000
0001
0000
0100
0000
,
1000
0100
0001
0010
0001
1000
0200
0000
,
0310
1000
0010
0100
1000
0001
0200
0000
,
0310
0000
0000
1000
0000
0000
0001
0000
0000
0000
0000
0000
0022
0000
0000
0033
0000
0000
0001
0000
0000
0000
0001
0000
,
0010
0000
0010
0001
0000
1001
0000
0000
1000
0010
0000
0110
,
0000
0000
1001
0000
0000
1000
0100
0000
0000
0110
0000
0000
,
0011
0000
0001
0000
0000
1000
0010
0000
0010
0100
0000
0100
,
0001
0000
0001
1000
0100
0010
0001
1000
0001
0100
0000
0000
,
0101
0000
0100
0010
0000
0110
0000
0000
0010
1000
0000
1000
,
0100
0000
1100
0000
0000
1000
0010
0000
0100
0001
0000
0000
,
1001
0000
1001
0000
0000
0001
0010
0000
0100
1000
0000
0010
,
0100
0000
0000
0000
0110
0000
0000
0000
0000
0000
0100
0000
0001
0000
0010
0000
0100
0000
1000
0000
0000
0001
0000
0000
,
0100
0000
0010
0000
0100
0000
0001
0000
0010
0000
0100
0000
0010
0001
0010
0000
,
0100
0000
1000
0000
0001
0000
1000
0010
0100
0000
0010
0000
1000
0001
1000
0000
,
0100
0000
0010
0000
0100
0000
1000
0000
0010
0000
0100
0000
0010
0000
0100
0001
,
1000
0000
0100
0000
0010
0001
0010
0000
0100
1000
0001
0000
0001
0000
1000
0000
,
0010
0000
0100
0000
0010
0000
1000
0000
0100
0000
0010
0000
0100
1000
0100
0000
,
0010
0000
0001
0000
1000
0000
0001
0100
0010
0000
0100
0000
0001
1000
0001
0000
,
0010
0000
0100
0000
0010
0000
0001
0000
0100
0000
0010
0000
0100
0000
0010
1000
,
0001
0000
0010
0000
0200
0000
0000
0000
0310
0001
1000
0001
1000
0000
0001
0000
,
0100
0000
1000
0000
0100
0000
0001
0000
1000
0000
0001
0010
0001
0000
1000
0010
,
1000
0000
0010
0100
0010
0000
0100
0001
1000
0000
0001
0000
0010
0000
0100
1000
,
0100
0000
0010
0001
0100
0000
0010
1000
0001
0000
0010
0100
1000
0000
0010
0100
,
0001
0000
0010
0100
1000
0000
0010
0100
0001
0000
0010
0100
0020
0000
0000
0130
,
2000
0000
0000
3010
0002
0000
0013
0000
0100
0000
0001
0000
1000
0000
0100
0000
,
0001
0000
0100
0000
1000
0000
0010
0000
0100
0000
0001
0000
1000
0000
0100
0010
,
0100
0000
1100
0000
0000
0000
1000
0010
0100
0000
0010
0000
0100
0010
0100
0010
,
1000
0001
1000
0001
1000
0100
0010
0001
0100
0010
1000
0001
2000
0000
0000
0000
,
0000
0000
0000
0000
3000
0000
0000
0000
0002
0000
1003
0100
1000
0000
0001
0100
,
0002
0100
0103
0101
0000
0001
1001
0000
,
1000
0000
0100
0000
0010
0000
0001
0000
0011
0000
0001
0100
0010
0000
0220
0000
,
0000
0330
0000
0000
2002
0000
0000
0000
3003
1000
0100
0000
0010
0000
0100
0000
,
1000
0000
0010
0000
0100
0010
0100
0010
1000
0000
0001
0010
0100
0000
2100
0000
,
0000
0000
0000
0000
0000
0000
0000
0000
3100
0010
0002
0000
0000
0000
0103
0010
,
2000
0000
0000
0000
0000
0000
3010
0100
0010
0000
0000
0000
1001
0000
0000
1000
,
0100
0020
0002
0000
0000
0000
0000
0000
0000
0000
0000
0000
0000
0000
0000
0000
,
0000
0000
0000
0000
,
0000
0000
0000
0000
,
0033
0000
0000
0000
;

//---------------dance-single - MEGAtive----------------
#NOTEDATA:;
#CHARTNAME:;
#STEPSTYPE:dance-single;
#DESCRIPTION:MEGAtive;
#CHARTSTYLE:;
#DIFFICULTY:Challenge;
#METER:18;
#RADARVALUES:0.910471,1.058801,0.396197,0.348380,1.021231,933.000000,875.000000,58.000000,51.000000,14.000000,0.000000,0.000000,0.000000,0.000000,0.910471,1.058801,0.396197,0.348380,1.021231,933.000000,875.000000,58.000000,51.000000,14.000000,0.000000,0.000000,0.000000,0.000000;
#CREDIT:;
#DISPLAYBPM:170.000000;
#NOTES:
0000
0000
0000
0000
,
0000
0000
0000
0000
,
0000
0000
0000
0000
,
0000
0000
0000
0000
,
0000
0000
0000
0000
,
1100
0000
0000
0000
1000
0000
1010
0000
0000
0000
0010
0100
0001
0000
0000
0000
,
0101
0000
0000
0000
0001
0000
0011
0000
0000
0000
0010
0100
1000
0000
0000
0000
,
1001
0000
0000
0001
0100
0000
0010
0000
0000
0000
1000
0100
0010
0000
0000
0000
,
0110
0000
0000
0100
1000
0000
0001
0000
0200
0000
0000
0000
0310
0100
0010
1000
,
0001
0000
0000
0000
0000
0000
0000
0000
0000
0000
0000
0000
0011
0000
0000
0000
0000
0000
0000
0000
0000
0000
0001
0000
0000
1000
0000
0000
0100
0000
0000
0010
0000
0000
0001
0000
0200
0000
0000
0000
0000
0000
0000
0000
0000
1300
0000
0000
,
0100
0000
0001
0000
0020
0000
0000
1030
0010
0000
0001
0000
0200
0000
0300
1000
,
0100
0000
0000
0010
0000
0000
0100
0000
0000
0001
0000
0000
1000
0000
0000
0000
0100
0000
0000
0000
0010
0000
0000
0000
0001
0000
0000
1000
0000
0000
0010
0000
0100
0000
0010
0000
0100
0000
0000
0000
0000
0000
0000
0000
0000
0000
0000
0000
,
1001
0000
0000
0000
0000
0000
1000
0000
0000
0000
0000
0000
0100
0000
0010
0000
0100
0000
0000
0000
0000
1000
0000
0000
0001
0000
0000
0000
0000
0000
0100
0000
0010
0000
1000
0000
0010
0000
0000
0000
0000
0000
0100
0000
0000
0000
0000
0000
,
1000
0000
0100
0000
0001
0000
0010
0100
0010
0001
0010
0001
0100
0000
1000
0100
,
0010
0000
1000
0000
0200
0000
0000
0301
0100
0010
0001
1000
0001
0000
0100
0000
,
0010
0000
0001
0000
0010
0000
0100
0001
1000
0000
0100
0010
0100
0000
0000
0000
,
1000
0001
1000
0001
0100
0010
1000
0001
1000
0100
0010
0001
0100
0010
0100
0010
,
1000
0000
0100
0010
0100
0010
0001
0000
0100
0010
1000
0000
0001
0000
1000
0010
,
0100
0000
1000
0100
0010
0000
0100
0000
0001
0010
0100
0000
1000
0000
0001
0010
,
0100
0000
0001
0000
0100
0010
0100
1000
0001
1000
0010
0100
0002
0000
0000
0000
,
0100
0000
0000
0000
2003
0000
0000
3200
0000
0000
0310
0001
2000
0000
0000
0000
,
0000
0000
3010
0000
0210
0000
0000
0000
0301
0100
0010
1000
0001
0000
1000
0000
,
0010
0100
0001
0000
0010
0000
1000
0000
0010
0000
0100
1000
0001
0000
1000
0000
,
0010
0000
0001
0010
0100
0010
1000
0001
0010
0100
0010
0001
2000
0000
0000
0000
,
0100
3002
0000
0203
,
0010
0000
0000
0000
0301
0000
0000
0000
0100
0001
1000
0001
1000
0000
0100
0010
,
0100
0000
1000
0001
1000
0000
0010
0100
0001
0000
1000
0100
0010
0000
0100
1000
,
0100
0000
1000
0001
0100
0000
0010
0100
0001
0000
1000
0100
0020
0000
0031
0100
,
0020
0100
0130
1000
0100
0001
0020
0000
,
1030
0000
0010
0000
0001
0000
0100
0010
0100
0000
0001
0000
0002
0000
0000
0000
,
1003
0100
1000
0000
0001
0100
0010
0000
1000
0100
0010
0000
0001
0000
0100
0000
,
1000
0000
0000
0100
0000
0000
0010
0000
0000
1000
0001
1000
0001
0000
0000
0010
0000
0000
0110
0000
0000
0100
0000
0000
,
1000
0000
0001
0100
0010
0000
0001
0000
0010
0100
0001
1000
0001
0000
0010
0000
,
0001
0000
1000
0000
0100
0010
0100
0000
1000
0001
0010
0001
1000
0000
1000
0000
,
0001
0000
0100
0000
1000
0000
0100
0010
1000
0000
1010
0000
0000
0000
1001
0000
,
0000
0001
0010
0100
0010
0000
0000
0110
0000
0000
0100
1000
0001
0000
0100
0000
,
0110
0000
0010
0000
0000
1001
0000
0000
1100
0000
0000
0000
0110
0000
0000
1100
,
0000
0000
1001
0000
0000
0101
0000
0000
0100
0010
0100
0010
1000
0000
1000
0000
,
0001
0000
0010
0000
1000
0000
0010
0100
1000
0000
1100
0000
0000
0000
1001
0000
,
0000
0001
0100
0010
0100
0000
0000
0110
0000
0000
0010
1000
0001
0000
0010
0000
,
0110
0000
0100
0000
1000
0001
0100
0000
0010
1000
0100
0000
0110
0000
0000
0011
,
0000
0000
1001
0000
0000
0000
1010
0000
0010
0100
0010
0100
0002
0000
0100
0000
,
0100
1000
2003
0100
0100
0001
3001
0100
,
0010
0000
0002
0000
1003
0100
0010
0100
0001
0000
1000
0000
0200
0000
0010
0000
,
0010
1000
2300
0000
0000
0010
3010
0100
,
1000
0000
0001
0000
0010
0000
0100
0000
0001
1000
0001
1000
0002
0000
0010
0000
,
0010
0000
1000
0000
2003
0000
0010
0000
0010
0000
0001
0000
3001
0000
0010
0100
,
0010
0000
0001
1000
0001
0100
0010
1000
0001
0000
0001
0000
0020
0000
0100
0000
,
0100
0001
0032
1000
1000
0100
0103
0010
,
0001
0000
0000
0000
0000
0000
1000
0000
0000
0000
0000
0000
0100
0000
0000
0000
0000
0000
0010
0000
0000
0000
0000
0000
1000
0000
0000
0001
0000
0000
1000
0000
0000
0001
0000
0000
1000
0000
0000
0000
0000
0000
0000
0000
1000
0000
0000
0000
,
0100
0010
0100
1000
0001
0100
0010
0100
0010
1000
0001
0010
,
0001
1000
0100
1000
0000
0001
01M0
0000
0100
1000
0000
0001
,
0100
0010
0100
0001
1000
0100
0010
0100
0010
0001
1000
0010
,
1000
0001
0100
0001
0000
1000
01M0
0000
0100
0001
1000
0001
,
0010
0100
0010
0001
1000
0001
0100
0010
0100
0001
1000
0100
,
0010
0001
1000
0010
0100
1000
0001
0010
0100
0001
0M10
0010
,
1000
01M0
0100
0001
0M10
0010
1000
01M0
0100
0001
01M0
0100
,
1000
0000
0000
0000
0001
0000
0000
0000
0010
0000
0000
0000
0100
0000
0000
0000
0001
0000
0000
0000
1000
0000
0000
0000
0010
0000
0000
0000
0100
0000
0000
0000
1000
0000
0000
0000
0001
0000
0000
0000
0000
0000
0100
0000
0000
0010
0000
0000
,
1000
0000
0000
0000
0000
0000
1010
0000
0000
0000
0000
0000
0010
0000
0000
0100
0000
0000
0000
0000
0000
0001
0000
0000
0010
0000
0000
0000
0000
0000
0100
0000
0000
0000
0000
0000
1100
0000
0000
0000
0000
0000
0000
0000
0000
0000
0100
0000
,
1000
0000
0000
0010
0000
0000
0100
0001
1000
0000
0000
0001
0010
0000
0000
0200
0000
0000
1300
0000
0000
0200
0000
0000
,
0301
0200
1300
0020
0031
0020
1030
0200
,
0301
0000
0200
0000
1300
0100
1000
0000
0001
0100
0010
0000
0110
0000
0100
0001
,
0010
0000
0000
0000
0000
0000
0011
0000
0000
0000
0000
0000
0010
0000
0000
0100
0000
0000
0000
0000
0000
1000
0000
0000
0010
0000
0000
0000
0000
0000
0100
0000
0000
0000
0000
0000
0110
0000
0000
0000
0000
0000
0010
0000
0100
0000
0001
0000
,
0100
0000
0001
0000
2000
0000
0000
0000
3100
0000
0010
0000
0002
0000
0000
0103
,
1000
0000
0100
0000
0010
0000
1000
0000
0001
0000
0010
0000
0200
0000
0000
0301
,
0100
0000
0000
1000
0000
0000
1100
0000
0000
0000
0000
0000
0101
0000
0000
0000
0000
0000
1001
0000
0000
0000
1000
0000
,
0M10
0000
0000
0000
0010
0000
0001
0000
0000
0000
0011
0000
0000
0000
0000
0000
0001
1000
0010
0000
0000
0000
0110
0000
,
0000
0000
1001
0000
0000
1000
0100
0000
0010
0100
0000
0000
,
2100
0000
3001
0000
0000
0100
M010
0000
0010
0001
0000
1000
,
01M0
0000
0000
0000
0100
0000
0001
1000
0001
1000
0000
0000
0010
0000
0100
0000
0001
0000
1000
0000
0000
0000
0000
0000
,
1000
0000
0000
0000
0100
0000
0010
0000
0000
0000
0100
1000
0000
0000
0000
0000
0010
0100
0010
0000
0000
0000
1000
0000
,
0001
0000
0000
0000
0011
0000
0000
0000
0000
0000
0001
0010
0100
0000
0000
0000
1000
0000
1100
0000
0000
0000
0000
0000
,
1001
0000
0101
0000
0000
0100
0110
0000
0010
1000
0000
1000
,
0001
0000
0000
0000
0000
0000
0000
0000
0012
0000
0000
0000
0000
0000
0000
0000
0000
0000
0000
0000
1000
0000
0000
0000
1000
0000
0000
0000
0000
0000
0000
0000
0000
0000
0000
0000
1003
0000
0000
0100
0000
0000
0010
0000
0000
0000
0000
0000
,
0100
0000
1000
0000
0001
0000
01M0
0000
0100
0000
1000
0000
0001
0010
0100
0000
,
0010
0000
0001
0000
1000
0000
0010
0100
0010
0000
1000
0000
0001
0100
0010
0000
,
0100
0000
0001
0000
1000
0000
01M0
0000
0100
0000
0001
0000
1000
0000
0010
0100
,
0001
0000
0010
0000
0010
0100
1000
0000
0010
0100
0001
0000
1000
0010
0100
0000
,
0010
0000
1000
0000
0001
0000
0M10
0000
0010
0000
1000
0000
0001
0100
0010
0000
,
0100
0000
0001
0000
1000
0000
0100
0010
0100
0000
1000
0000
0001
0010
0100
0000
,
0010
0000
0001
0000
1000
0000
0M10
0000
0010
0000
0001
0000
1000
0000
0100
0010
,
0001
0000
0100
0000
0020
0000
0000
0000
1030
0001
0010
0100
1000
0000
0001
0010
,
0100
0000
0001
0100
0010
0000
0001
0000
1000
0000
0001
0100
0010
0000
0001
0010
,
0100
0000
0001
1000
0100
0000
0010
0100
1000
0010
0100
0010
0100
0000
0001
1000
,
0100
0010
1000
0001
0100
0010
0001
1000
0001
0100
0010
1000
0001
0000
0010
0100
,
1000
0000
0010
0100
0001
0000
0010
0100
1000
0000
0001
1000
0010
0000
0000
0100
,
0110
0000
0000
0010
1010
0000
1000
0001
1000
0000
0100
0010
0100
1000
0001
1000
,
0010
0100
0001
0010
0100
1000
0001
1000
0010
0100
0001
1000
0100
0010
0100
0010
,
0100
0000
1100
0000
0000
1000
0001
0100
0010
0000
0100
0000
0010
1000
0001
0010
,
1000
0010
0001
1000
0001
0100
1000
0100
0001
0010
0100
1000
0002
0000
0000
0000
,
0000
0000
0000
0000
0003
0000
0000
0000
0002
0000
1003
0100
0010
0000
0100
1000
,
0002
1000
1003
1001
0000
0101
1001
0000
,
1100
0000
0000
0100
0000
0000
1000
0000
0000
0001
0000
0000
0101
0000
0000
0100
0001
1000
0001
0000
0000
0022
0000
0000
,
0000
0000
0033
0001
2000
0000
3020
0000
0130
0001
0010
0000
0110
0000
0100
0000
,
1000
0000
0000
0000
0000
0000
0010
0000
0000
0000
0000
0000
0100
0000
0000
0001
0000
0000
0010
0000
0000
0100
0000
0000
1000
0000
0000
0000
0000
0000
1000
0000
0010
0000
1000
0000
0001
0000
0000
0000
0000
0000
0201
0000
0000
0000
0000
0000
,
0000
0000
0000
0000
0000
0000
0000
0000
0301
0100
0020
0000
0000
0000
1030
0100
,
0020
0000
0000
0000
0000
0000
0130
1000
0001
0000
0000
0000
1001
0000
0000
1000
,
0010
0200
0002
0000
0000
0000
0000
0000
0000
0000
0000
0000
0000
0000
0000
0000
,
0000
0000
0000
0000
,
0000
0000
0000
0000
,
0303
0000
0000
0000
;
