#TITLE:Howling;
#SUBTITLE:;
#ARTIST:PON;
#TITLETRANSLIT:;
#SUBTITLETRANSLIT:;
#ARTISTTRANSLIT:;
#GENRE:;
#CREDIT:;
#MUSIC:Howling.ogg;
#BANNER:Howling.png;
#BACKGROUND:Howling-bg.png;
#CDTITLE:;
#SAMPLESTART:17.282;
#SAMPLELENGTH:15.000;
#SELECTABLE:YES;
#OFFSET:1.298;
#BPMS:0.000=155.000;
#STOPS:;
#BGCHANGES:;
#FGCHANGES:;

//--------------- dance-single - chrononical ----------------
#NOTES:
     dance-single:
     chrononical:
     Beginner:
     3:
     0,0,0,0,0:
0000
0000
0000
0000
,
0000
0000
0000
0000
,
0000
0000
0000
0000
,
0000
0000
0000
0000
,
0000
0000
0000
0000
,
1001
0000
1000
0000
,
0001
0001
0001
0000
,
1000
0000
0010
0000
,
1000
0000
0001
0000
,
0100
0000
0001
0000
,
1000
0000
0001
0000
,
1000
0000
0001
0000
,
1001
0000
1000
0000
,
0010
0000
1000
0000
,
0001
0000
0010
0000
,
0001
0001
0001
0000
,
1001
0000
1000
0000
,
0010
0010
0010
0000
,
1000
0000
0001
0000
,
1000
0000
1000
0000
,
0001
1000
0001
0000
,
1000
0010
1000
0000
,
0001
0010
0001
0000
,
1000
1000
1000
0000
,
1000
0000
0100
0000
,
0001
0000
0010
0000
,
1000
0000
0100
0000
,
0001
0000
0010
0000
,
1000
0000
0010
0000
,
0010
0000
1000
0000
,
1000
0000
0001
0000
,
0001
0000
1000
0000
,
1000
0000
0001
0000
,
0001
0000
0100
0000
,
0100
0000
0010
0000
,
0010
0000
1000
0000
,
1001
0000
0001
0000
,
0001
0000
0100
0000
,
0100
0000
0010
0000
,
1000
0000
0001
0000
,
0100
0000
0010
0000
,
1000
0000
0010
0000
,
0100
0000
0001
0000
,
0010
0000
0100
0000
,
1000
0000
0001
0000
,
1000
0000
0001
0000
,
1001
0000
1000
0000
,
0010
0000
0100
0000
,
0010
0000
1000
0000
,
0010
0000
0100
0000
,
0001
0000
1000
0000
,
0001
0001
0001
0000
,
1000
0000
0010
0000
,
0100
0000
0001
0000
,
0001
0000
1000
0000
,
0001
0001
0001
0000
,
1000
0000
0010
0000
,
0100
0100
0100
0000
,
0001
0000
1000
0000
,
0010
0010
0010
0000
,
1000
0000
0001
0000
,
1000
1000
1000
0000
,
1001
0000
1000
0000
,
0010
0010
0010
0000
,
0100
0000
0001
0000
,
0100
0000
0001
0000
,
0100
0000
0010
0000
,
1000
1000
1000
0000
,
0100
0000
0010
0000
,
0001
0000
1000
0000
,
2002
0000
0000
0000
,
3003
0000
0000
0000
;

//--------------- dance-single - chrononical ----------------
#NOTES:
     dance-single:
     chrononical:
     Easy:
     7:
     0,0,0,0,0:
0000
0000
0000
0000
,
0000
0000
0000
0000
,
0000
0000
0000
0000
,
0000
0000
0000
0000
,
0000
0000
0000
0000
,
1001
1000
0010
1000
,
1001
0001
1001
1000
,
0010
1000
0100
0001
,
0100
1000
0010
0100
,
0001
1000
0100
0010
,
0001
1000
0001
1000
,
0010
0000
0100
0000
0001
1000
0001
1000
,
0001
1000
0010
0100
,
0001
0001
0001
1000
,
0010
0100
0010
1000
,
0001
1000
0001
1000
0001
0000
0100
0000
,
0010
1000
0100
0010
,
0100
1000
0010
0100
,
0001
1000
0001
1000
,
0010
1000
0010
1000
0010
0000
1000
0000
,
0001
0000
0100
0000
0001
0100
0001
0000
,
1000
0000
0100
0000
1000
0100
1000
0000
,
0001
0000
0100
0000
0001
0100
0001
0000
,
0001
0000
1000
0000
0001
0000
1000
0010
,
1000
0000
0100
0000
1000
0100
1000
0000
,
0001
0000
0100
0000
0001
0010
0001
0000
,
1000
0000
0010
0000
1000
0100
1000
0000
,
0001
0100
1000
0100
,
0001
0010
0001
0000
1000
0000
1000
0000
,
1000
0010
1000
0000
0010
0000
0010
0000
,
0010
0100
0010
0000
0100
0000
0100
0000
,
0001
0100
0001
0000
0010
0000
0100
0000
,
1000
0100
1000
0000
0010
0000
0010
0000
,
1000
0010
1000
0000
0100
0000
0100
0000
,
0010
0001
0010
0000
0100
0000
0100
0000
,
1000
0010
1000
0000
0010
0000
1000
0000
,
1001
0000
1001
0000
,
1000
0010
0100
0001
,
1001
0000
1001
0000
,
0001
0010
0100
1000
,
1001
0000
1001
0000
,
1000
0010
1000
0001
,
1001
1000
0010
0100
,
0001
0010
0100
1000
,
0001
0100
0010
1000
,
0001
1000
0001
1000
0001
0000
0100
0000
,
0101
0000
0110
0000
,
1010
0000
1100
0000
,
1001
0000
0011
0000
,
0001
1000
0001
1000
0001
0000
0000
0000
,
0001
0100
1000
0100
,
0001
0010
1000
0010
,
0001
0000
1001
0000
,
1000
0010
0010
1010
,
1000
0100
0001
0010
,
1000
0100
0001
0100
,
1000
0100
0001
0010
,
1000
0100
1000
0100
1000
0000
0010
0000
,
1000
0010
0100
0010
,
1000
0001
0010
0001
,
1000
0001
1000
0001
,
1000
0010
1000
0010
1000
0000
0001
0000
,
1001
1001
1001
1001
,
1001
1001
1001
1001
,
1000
0010
1000
0010
0000
0000
0100
0000
,
0101
0101
0101
0001
,
0011
0011
0011
0011
,
0011
0011
0011
0011
,
0001
1000
0010
0100
,
0001
0010
0001
0000
1000
0001
1000
0000
,
2002
0000
0000
0000
,
3003
0000
0000
0000
;

//--------------- dance-single - chrononical ----------------
#NOTES:
     dance-single:
     chrononical:
     Medium:
     11:
     0,0,0,0,0:
0000
0000
0000
0000
,
0000
0000
0000
0000
,
0000
0000
0000
0000
,
0000
0000
0000
0000
,
0000
0000
0000
0000
,
2001
0000
3010
0100
0001
0000
1000
0100
,
0010
0000
1000
0100
0010
0000
1000
0001
,
1000
0000
0001
0010
0001
0000
1000
0010
,
1000
0100
0001
0010
,
1000
0100
0001
0010
,
1000
0010
1000
0000
0001
0010
0001
0000
,
1000
0010
1000
0010
1000
0001
1000
0001
,
2000
0000
3010
0100
0020
0000
1030
0100
,
0001
0000
0001
0100
2000
0000
3010
0100
,
0002
0000
0103
0010
2000
0000
3001
0000
,
0100
0010
1000
0100
0010
0000
0100
1000
,
0020
0000
1030
0100
2000
0000
3100
0001
,
0200
0000
1300
0010
1000
0000
0010
0100
,
0002
0000
0013
0100
2000
0000
3001
0000
,
1000
0010
0001
1000
0200
0000
0310
0100
,
0001
0000
0000
0000
1000
0000
0000
0000
0010
1000
0000
0010
1000
0000
0100
0000
,
0010
0000
0000
0000
0100
0000
0000
0000
1000
0100
0000
1000
0100
0000
0010
0000
,
0001
0000
0000
0000
0100
0000
0000
0000
0010
0100
0000
0010
0100
0000
0010
0000
,
1000
0000
0000
0000
1001
0000
0000
0000
1001
0000
0000
1000
0010
0000
0100
0000
,
0001
0000
0000
0000
0010
0000
0000
0000
0100
1000
0000
0100
1000
0000
0001
0000
,
0100
0000
0000
0000
0010
0000
0000
0000
1000
0010
0000
1000
0010
0000
0100
0000
,
0001
0000
0000
0000
0100
0000
0000
0000
0010
0100
0000
0010
0100
0000
0010
0000
,
1000
0000
1001
0000
0001
1000
0010
0100
,
0001
0000
0100
0000
1000
0000
0000
0000
0100
0000
0010
1000
0000
0000
0001
0000
,
1000
0000
0100
0000
0001
0000
0000
0000
0100
0000
0010
0100
0000
0000
1000
0000
,
0001
0000
0100
0000
1000
0000
0000
0000
0100
0000
0010
1000
0000
0000
0010
0000
,
1000
0100
0001
0000
0100
1000
0010
0100
,
0001
0000
0100
0000
0010
0000
0000
0000
1000
0000
0010
1000
0000
1000
0010
0000
,
1000
0000
0100
0000
0010
0000
0000
0000
0001
0000
0010
0001
0000
0001
0010
0000
,
0100
0000
1000
0000
0010
0000
0000
0000
0100
0000
0010
0100
0000
0100
0010
0000
,
1000
0100
0001
0010
1000
0100
0001
0100
,
1000
0010
0100
0010
1000
0100
1000
0010
,
0100
0001
0010
0001
0100
0010
1000
0001
,
0100
0010
1000
0100
0010
0001
1000
0100
,
0010
0100
1000
0010
0100
0010
0100
0010
,
1000
0000
0001
0000
0100
0010
0000
0000
1000
0000
0100
0000
0010
0001
0000
0000
,
1000
0000
0100
0000
0001
0000
0100
0000
1000
0000
0010
0000
0100
0010
0000
0000
,
1000
0100
0010
0001
1000
0010
0100
0001
,
1000
0100
0010
0001
2000
0000
3010
0100
,
0010
1000
0010
0100
0010
1000
0010
0100
,
0001
0000
0010
0000
1000
0000
0010
0000
0001
0000
0000
0100
0010
0000
1000
0000
,
1002
0000
0003
1000
2000
0000
3000
0010
,
0010
0000
0110
0000
0010
1000
0001
0010
,
0100
0000
0001
0010
0100
0000
0010
1000
,
0001
0000
0100
0000
1000
0000
0100
0000
0001
0000
0000
0010
0100
0000
0010
0000
,
0002
0000
1003
0010
2000
0000
3010
0100
,
0020
0000
1030
0100
2000
0000
3100
0010
,
0002
0000
0103
0010
2000
0000
3001
0100
,
0010
0000
1000
0000
0100
0000
0010
0000
0001
0000
0000
0010
0000
0000
1000
0000
,
0010
0100
1000
0010
1000
0001
1000
0100
,
1000
0010
0100
1000
0100
0010
1000
0001
,
0010
0100
0010
1000
0010
0100
0010
0001
,
0100
0001
0100
1000
0200
0000
0310
0100
,
0010
1000
0010
0100
0010
1000
0010
0100
,
0001
0010
1000
0010
0001
0100
0010
0100
,
0010
0001
0010
1000
0100
1000
0010
1000
,
0020
0030
2000
3000
,
1001
0000
0000
0000
1000
0000
0000
0000
0001
0010
0000
0010
0100
0000
1000
0000
,
0010
0000
0000
0000
1000
0000
0000
0000
0001
0100
0000
0100
0010
0000
1000
0000
,
0001
0100
1000
0100
0010
1000
0100
0010
,
0001
1001
1010
1001
,
1001
0000
0000
0000
1000
0000
0000
0000
0010
0100
0000
0100
0001
0000
0010
0000
,
0100
0000
0000
0000
1000
0000
0000
0000
0010
0100
0000
0010
1000
0000
0001
0000
,
1000
0000
0010
1000
0000
0010
0100
0000
0010
0000
1000
0000
0001
0000
0010
0000
,
0001
0010
1000
0001
0100
1000
0001
0010
,
0022
0000
0000
0000
,
0033
0000
0000
0000
;

//--------------- dance-single - chrononical ----------------
#NOTES:
     dance-single:
     chrononical:
     Hard:
     15:
     0,0,0,0,0:
0000
0000
0000
0000
,
0000
0000
0000
0000
,
0000
0000
0000
0000
,
0000
0000
0000
0000
,
0000
0000
0000
0000
,
2000
0001
3002
0010
,
0103
0110
1001
1000
,
1100
0100
0110
0010
,
0011
0000
0000
0001
0000
0000
0010
0000
1000
0000
0000
0001
0000
0000
0100
0000
,
1000
0000
0000
0010
0000
0000
0001
0000
1000
0000
0000
0100
0000
0000
0001
0000
,
1000
0010
1000
0010
0000
0100
0010
0000
1000
0100
1000
0100
0000
0010
0001
0000
,
0100
0010
0100
0010
0000
1000
0010
0000
1000
0000
0100
0000
0001
0000
0100
0000
,
2000
0000
0000
0000
3100
0000
0010
0100
1000
0000
0000
0000
1100
0000
1000
0100
,
2000
0000
0000
0000
3001
0000
1000
0000
0001
0000
0000
0000
0101
0000
0100
0010
,
0200
0000
0310
1000
0010
0000
1010
0000
,
1000
0000
0100
0000
0001
0000
0100
0000
1000
0000
0100
0010
0100
0010
0100
0000
,
2000
0000
0000
0000
3001
0000
0100
0010
1000
0000
0000
0000
1010
0000
1000
0010
,
2000
0000
0000
0000
3001
0000
0010
0000
0001
0000
0000
0000
0011
0000
0010
0100
,
0020
0000
0031
0100
0010
0000
0110
0000
,
0100
0000
0010
0000
0001
0000
1000
0000
0100
0000
0010
0100
0010
0100
0010
0000
,
1000
0000
0000
0000
1100
0000
0000
0000
0100
0010
0000
0010
0100
0000
1000
0000
,
0010
0000
0000
0000
0110
0000
0000
0000
0100
0001
0000
0001
0100
0000
0010
0000
,
1000
0000
0000
0000
1001
0000
0000
0000
0001
0010
0000
0100
1000
0000
0001
0100
,
0001
0000
0100
0000
1000
0000
0100
0000
0001
0000
0010
0100
0010
0100
0010
0000
,
0001
0000
0100
0000
0010
0000
1000
0000
0001
0010
0000
0010
0001
0000
0100
0010
,
1000
0000
0100
0000
0010
0000
0001
0000
0100
0010
0000
0010
0100
0000
0010
1000
,
0001
0100
0000
0010
0000
1000
0100
0010
0001
1000
0000
0001
0100
0010
0100
0000
,
0001
0000
0000
1000
0010
0000
0001
0010
0100
0000
0010
0000
1000
0000
0100
0000
,
0010
0000
0100
0000
0001
0000
0000
0000
0100
0000
0000
1000
0000
0000
0001
0100
,
0010
0000
0100
0000
1000
0000
0000
0000
0100
0000
0000
0001
0000
0000
1000
0010
,
1000
0000
0100
0000
0001
0000
0000
0000
1000
0000
0000
0010
0000
0000
0001
0100
,
0010
0000
1000
0000
0001
0000
0000
0000
1000
0010
1000
0010
0000
0100
0001
0100
,
0001
1000
0001
0000
1000
0000
0100
0010
0001
0000
1000
0010
0000
1000
0010
0100
,
0010
1000
0001
0000
1000
0000
0001
0010
0001
0000
0010
0100
0000
0010
0100
1000
,
0001
0010
0001
0000
0100
0000
0010
1000
0001
0000
0100
0010
0000
0100
0010
1000
,
0001
0010
0100
0000
1000
0000
0100
0000
0001
0000
0100
0000
1000
0000
0010
0000
,
1000
0001
0000
0010
0100
1000
0000
0001
,
0100
0000
0001
0000
0010
0000
1000
0000
0100
0000
1000
0000
0010
0001
0010
0000
,
0001
0100
0000
0010
1000
0001
0000
1000
,
0100
0000
0000
0001
0000
0000
0100
0000
0000
1000
0000
0010
0100
0000
0010
0000
1000
0000
0001
0000
0000
0010
0000
0000
,
0011
0000
0001
0000
0100
0010
0100
0000
0010
0000
1000
0000
0001
0010
0001
0000
,
0100
0000
0010
0000
1000
0010
1000
0000
0010
0000
1000
0100
1000
0100
1000
0000
,
0010
0100
0001
0100
1000
0100
0010
1000
,
0001
0010
0100
1000
0001
0100
0010
1000
,
0001
0100
1000
0100
0001
0010
1000
0010
,
0001
0000
0100
0000
1000
0000
0100
0000
0010
0000
1000
0100
0010
0000
0001
0000
,
2001
0000
0000
0000
0000
0000
3010
0100
0020
0000
0000
0000
0000
0000
1030
0100
,
1000
0000
0000
0000
0010
0000
0000
0000
1000
0000
0000
0000
0010
0000
0000
0000
0000
0000
0100
0000
0000
0000
0000
0000
0001
0000
0000
0000
0000
0000
0010
0000
0000
0001
0000
0000
0010
0000
0000
0000
0000
0000
0001
0000
0000
0100
0000
0000
,
0020
0000
0000
0000
1030
0000
0100
0000
1000
0010
1000
0000
0100
0000
0100
0000
,
1000
0000
0100
0000
0001
0000
0100
0000
1000
0000
0010
0100
0010
0100
0010
0000
,
1000
0000
0010
0000
0100
0000
0001
0010
0100
0000
0010
0000
0001
0000
0100
0010
,
1000
0000
0000
0000
1010
0000
0000
0000
0110
0000
0000
0000
1001
0000
0001
0010
,
0001
0100
0010
0100
0101
0100
0010
1000
,
0001
0010
0000
0100
0000
1000
0010
1000
0010
0000
0000
1010
0000
0000
1000
0000
,
1001
0000
0001
0000
0100
0000
1000
0100
0001
0000
0010
0000
1000
0000
0001
0100
,
1000
0000
0010
0000
0100
0000
0010
0000
1000
0000
0010
0000
1000
0000
0001
0010
,
0001
0010
1000
0100
1000
0010
0001
1000
,
0001
0000
0010
0000
1000
0000
0010
0000
0001
0000
1000
0010
0100
0001
1000
0000
,
0001
0000
0100
0000
1000
0000
0100
0010
1000
0000
0100
0000
0001
0000
0100
0010
,
0001
0000
0010
0000
1000
0000
0001
0000
0100
0000
1000
0000
0100
0000
0010
0100
,
1000
0010
0100
0001
0100
0010
1000
0001
,
1000
0000
0100
0000
0001
0000
0100
0000
1000
0000
0000
0010
1000
0000
0010
0000
,
0110
0000
0000
0000
0110
0000
0000
0000
0100
0010
0000
0010
1000
0000
0001
0000
,
0011
0000
0000
0000
0011
0000
0000
0000
0001
0100
0000
0010
1000
0000
0010
0000
,
1010
0000
0000
0000
1010
0000
0000
0000
1000
0010
0000
0010
0001
0000
0010
0100
,
0001
0000
0010
0000
0100
0000
1000
0000
0001
0000
0100
0010
0100
0010
0100
0000
,
0110
0000
0000
0000
0110
0000
0000
0000
0010
1000
0000
0010
1000
0000
0100
0010
,
0001
0000
0000
0000
0011
0000
0000
0000
0001
0010
0000
0001
0010
0000
0001
0100
,
0010
1000
0000
0010
0000
1000
0010
0100
0010
0100
0000
0001
0100
0010
1000
0000
,
0001
1000
0001
1000
0001
1000
0001
1000
0001
1000
0001
1000
0001
1000
0001
1000
,
0002
0000
0000
0000
,
0003
0000
0000
0000
;
