#TITLE:Honeypie;
#SUBTITLE:;
#ARTIST:JAWNY;
#TITLETRANSLIT:;
#SUBTITLETRANSLIT:;
#ARTISTTRANSLIT:;
#CREDIT:;
#BANNER:Honeypie BN.png;
#BACKGROUND:Honeypie BG.png;
#LYRICSPATH:;
#CDTITLE:CDTITLE.png;
#MUSIC:Honeypie.ogg;
#OFFSET:0.420;
#SAMPLESTART:98.100;
#SAMPLELENGTH:15.000;
#SELECTABLE:YES;
#BPMS:0.000=115.000;
#STOPS:;
#BGCHANGES:0.813=Honeypie.avi=1.000=1=1=0,
99999=-nosongbg-=1.000=0=0=0 // don't automatically add -songbackground-
;

//---------------dance-single - ----------------
#NOTES:
     dance-single:
     :
     Hard:
     12:
     0.502,0.423,0.067,0.448,0.127:
0000
0000
0000
0000
,
0000
0000
0000
0000
,
0000
0000
0000
0000
,
0000
0000
0000
0000
1000
0000
0000
0001
0000
0000
0100
0010
0100
0000
0000
0000
,
0010
0000
0000
0000
0011
0000
0000
0100
0000
0000
1000
0010
1000
0000
0000
0010
,
0000
0000
1000
0010
1000
0000
0000
0010
0000
0000
0100
0001
0100
0000
0000
0000
,
0001
0000
0000
0000
1001
0000
0000
0001
0000
0000
1000
0010
1000
0000
0010
0000
,
0100
0000
0010
0000
2000
0000
0000
3000
0020
0000
0000
0000
1030
0000
0100
0000
,
0020
0000
0031
0010
0100
1000
0200
0000
,
0010
0010
0310
0100
1000
0100
1000
0100
,
2000
0000
3001
0100
0001
0100
0001
0100
,
0002
0000
0000
0000
2003
0000
0000
3000
0020
0000
0000
0000
0130
0000
0010
0000
,
0002
0000
0013
0100
1000
0100
0020
0000
,
0100
0100
0130
0010
0100
0010
0100
0010
,
0200
0000
0301
0100
0001
0100
0001
0100
,
0002
0000
2003
0000
3020
0000
0130
1000
,
0200
0000
0000
0000
0301
0000
0000
0000
0001
1000
0001
0000
0001
0000
1000
0000
,
0010
0100
1000
0100
1000
0100
0010
0001
,
0010
0000
0001
0000
0010
0000
0100
0000
1000
0000
0100
0001
0100
0000
0010
0000
,
0001
0010
0200
0000
0320
0000
0031
0010
,
0200
0000
0301
1000
0000
0100
0002
0000
,
1003
0100
0010
1000
0100
0010
0100
0010
,
0100
0000
0010
0000
0001
0010
0001
0000
0001
0000
0010
0000
0100
0000
1000
0000
,
0100
0000
2010
0000
3002
0000
0013
0100
,
2000
0000
3100
0010
0001
0010
0200
0000
,
0010
0010
0310
0010
0100
0010
0100
0010
,
0200
0000
0301
1000
0001
1000
0001
1000
,
0002
0000
0203
0000
2300
0000
3100
0010
,
0002
0000
0013
0100
1000
0100
0020
0000
,
0001
0001
0031
0001
1000
0001
1000
0001
,
2000
0000
3010
1000
0010
1000
0010
1000
,
0020
0000
0000
0000
1030
0000
0000
0001
0000
0000
1000
0010
1000
0000
0000
0000
,
0100
0000
0000
0000
1000
0000
0000
0010
0000
0000
0001
0010
0001
0000
0000
0010
,
0000
0000
0100
0000
0001
0000
0000
0100
0000
0000
0010
1000
0010
0000
0000
0000
,
1000
0000
0000
0000
1010
0000
0000
0010
0000
0000
0001
0010
0001
0000
1000
0000
,
0001
1000
0000
0000
1000
0000
0000
0010
0000
0000
1000
0010
1000
0000
0000
0000
,
1000
0000
0000
0000
1010
0000
0000
0010
0000
0000
0001
0010
0001
0000
0000
0000
,
0001
0000
0000
0000
0101
0000
0000
0100
0000
0000
0010
0100
0010
0000
0000
0000
,
0010
0000
0000
0000
1010
0000
0000
1000
0000
0000
0010
1000
0010
0000
0000
0000
,
0010
0000
0200
0000
0302
0000
0013
0100
,
2000
0000
0000
0000
3001
0000
0000
0000
0001
0000
1000
0001
1000
0000
0100
0000
,
0010
0001
0010
0100
1000
0010
0100
0001
,
0100
0000
0010
0000
0001
0000
0100
0000
0010
0000
1000
0010
1000
0000
0100
0000
,
0010
0001
2000
0000
3002
0000
0103
1000
,
0200
0000
0000
0000
0301
0000
0000
0000
1000
0000
0010
1000
0010
0000
0100
0000
,
0010
0001
0010
0100
1000
0100
0010
0001
,
0100
0010
1000
0100
0010
0001
0010
1000
,
1001
0000
2000
0000
3002
0000
0013
0100
,
2000
0000
3100
0010
0001
0010
0200
0000
,
0010
0010
0310
0001
0010
0001
0010
0001
,
0020
0000
1030
0001
1000
0001
1000
0001
,
2000
0000
3002
0000
0203
0000
0310
0001
,
0020
0000
0130
1000
0100
0010
0002
0000
,
0100
0100
0103
0001
0100
0001
0100
0001
,
0200
0000
0310
1000
0010
1000
0010
1000
,
0020
0000
2030
0000
3002
0000
0013
0100
,
2000
0000
3100
0010
0001
0010
0200
0000
,
0010
0010
0310
0001
1000
0001
1000
0001
,
2000
0000
3001
0010
0001
0010
0001
0010
,
0002
0000
2003
0000
3020
0000
0130
1000
,
0200
0000
0301
0010
0100
1000
0200
0000
,
0001
0001
0301
0001
0100
0001
0100
0001
,
0200
0000
0310
1000
0010
1000
0010
1000
,
1010
0000
0000
0000
;

//---------------dance-single - Copied from----------------
#NOTES:
     dance-single:
     Copied from:
     Challenge:
     12:
     0.449,0.400,0.067,0.172,0.127: // measure 1
0000
0000
0000
0000
,  // measure 2
0000
0000
0000
0000
,  // measure 3
0000
0000
0000
0000
,  // measure 4
0000
0000
0000
0000
1000
0000
0000
0001
0000
0000
0100
0010
0100
0000
0000
0000
,  // measure 5
MMMM
0000
0000
0000
0011
0000
0000
0100
0000
0000
1000
0010
1000
0000
0000
0010
,  // measure 6
0000
0000
1000
0010
1000
0000
0000
0010
0000
0000
0100
0001
0100
0000
0000
0000
,  // measure 7
MMMM
0000
0000
0000
1001
0000
0000
0001
0000
0000
1000
0010
1000
0000
0010
0000
,  // measure 8
0100
0000
0010
0000
2000
0000
0000
3000
0010
0000
MMMM
0000
1000
0000
0100
0000
,  // measure 9
0010
MMMM
0001
0010
0100
1000
0200
0000
,  // measure 10
0010
0010
0310
0100
1000
0100
1000
0100
,  // measure 11
1000
MMMM
0001
0100
0001
0100
0001
0100
,  // measure 12
0001
0000
MMMM
0000
2000
0000
0000
3000
0010
0000
MMMM
0000
0100
0000
0010
0000
,  // measure 13
0001
MMMM
0010
0100
1000
0100
0020
0000
,  // measure 14
0100
0100
0130
0010
0100
0010
0100
0010
,  // measure 15
0100
MMMM
0001
0100
0001
0100
0001
0100
,  // measure 16
0001
MMMM
2000
0000
3010
MMMM
0100
1000
,  // measure 17
0100
0000
MMMM
0000
0001
0000
0000
0000
0001
1000
0001
0000
0001
0000
1000
0000
,  // measure 18
0010
0100
1000
0100
1000
0100
0010
MMMM
,  // measure 19
0010
0000
0001
0000
0010
0000
0100
0000
1000
0000
0100
0001
0100
0000
0010
0000
,  // measure 20
0001
MMMM
0200
0000
0310
MMMM
0001
0010
,  // measure 21
0100
MMMM
0001
1000
0000
0100
0002
0000
,  // measure 22
1003
0100
0010
MMMM
0100
0010
0100
0010
,  // measure 23
0100
0000
0010
0000
0001
0010
0001
0000
0001
0000
0010
0000
0100
0000
1000
0000
,  // measure 24
0100
MMMM
2010
0000
3001
MMMM
0010
0100
,  // measure 25
1000
MMMM
0100
0010
0001
0010
0200
0000
,  // measure 26
0010
0010
0310
0010
0100
0010
0100
0010
,  // measure 27
0100
MMMM
0001
1000
0001
1000
0001
1000
,  // measure 28
0001
MMMM
2000
0000
3001
MMMM
0100
0010
,  // measure 29
0001
MMMM
0010
0100
1000
0100
0020
0000
,  // measure 30
0001
0001
0031
0001
1000
0001
1000
0001
,  // measure 31
1000
MMMM
0010
1000
0010
1000
0010
1000
,  // measure 32
0010
0000
MMMM
0000
1000
0000
0000
0001
0000
0000
1000
0010
1000
0000
0000
0000
,  // measure 33
MMMM
0000
0000
0000
1000
0000
0000
0010
0000
0000
0001
0010
0001
0000
0000
0010
,  // measure 34
0000
0000
0100
0000
0001
0000
0000
0100
0000
0000
0010
1000
0010
0000
0000
0000
,  // measure 35
MMMM
0000
0000
0000
1010
0000
0000
0010
0000
0000
0001
0010
0001
0000
1000
0000
,  // measure 36
0001
1000
0000
0000
1000
0000
0000
0010
0000
0000
1000
0010
1000
0000
0000
0000
,  // measure 37
MMMM
0000
0000
0000
1010
0000
0000
0010
0000
0000
0001
0010
0001
0000
0000
0000
,  // measure 38
MMMM
0000
0000
0000
0101
0000
0000
0100
0000
0000
0010
0100
0010
0000
0000
0000
,  // measure 39
MMMM
0000
0000
0000
1010
0000
0000
1000
0000
0000
0010
1000
0010
0000
0000
0000
,  // measure 40
0010
0000
0200
0000
0301
MMMM
0010
0100
,  // measure 41
2000
0000
0000
0000
3001
0000
0000
0000
0001
0000
1000
0001
1000
0000
0100
0000
,  // measure 42
0010
0001
0010
0100
1000
MMMM
0100
0001
,  // measure 43
0100
0000
0010
0000
0001
0000
0100
0000
0010
0000
1000
0010
1000
0000
0100
0000
,  // measure 44
0010
0001
2000
0000
3001
MMMM
0100
1000
,  // measure 45
0200
0000
0000
0000
0301
0000
MMMM
0000
1000
0000
0010
1000
0010
0000
0100
0000
,  // measure 46
0010
0001
0010
0100
1000
MMMM
0010
0001
,  // measure 47
0100
0010
1000
MMMM
0010
0001
0010
1000
,  // measure 48
1001
0000
2000
0000
3001
MMMM
0010
0100
,  // measure 49
1000
MMMM
0100
0010
0001
0010
0200
0000
,  // measure 50
0010
0010
0310
0001
0010
0001
0010
0001
,  // measure 51
0010
MMMM
1000
0001
1000
0001
1000
0001
,  // measure 52
1000
MMMM
0002
0000
0103
MMMM
0010
0001
,  // measure 53
0010
MMMM
0100
1000
0100
0010
0002
0000
,  // measure 54
0100
0100
0103
0001
0100
0001
0100
0001
,  // measure 55
0100
MMMM
0010
1000
0010
1000
0010
1000
,  // measure 56
0010
MMMM
2000
0000
3001
MMMM
0010
0100
,  // measure 57
1000
MMMM
0100
0010
0001
0010
0200
0000
,  // measure 58
0010
0010
0310
0001
1000
0001
1000
0001
,  // measure 59
1000
MMMM
0001
0010
0001
0010
0001
0010
,  // measure 60
0001
MMMM
2000
0000
3010
MMMM
0100
1000
,  // measure 61
0100
MMMM
0001
0010
0100
1000
0200
0000
,  // measure 62
0001
0001
0301
0001
0100
0001
0100
0001
,  // measure 63
0100
MMMM
0010
1000
0010
1000
0010
1000
,  // measure 64
1010
0000
0000
0000
;

//---------------dance-single - ----------------
#NOTES:
     dance-single:
     :
     Medium:
     9:
     0.372,0.353,0.231,0.060,0.056:
0000
0000
0000
0000
,
0000
0000
0000
0000
,
0000
0000
0000
0000
,
0000
0000
0000
0000
1000
0000
0000
0001
0000
0000
1000
0000
0010
0000
0000
0000
,
0100
0000
0000
0000
1000
0000
0000
0001
0000
0000
0100
0000
0010
0000
0000
0100
,
0000
0000
0010
0000
0100
0000
0000
0001
0000
0000
1000
0000
0001
0000
0000
0000
,
0010
0000
0000
0000
0100
0000
0000
0001
0000
0000
0100
0000
0001
0000
1000
0000
,
0001
1000
0002
0000
0103
0000
1000
0000
,
1100
0000
0100
0001
0100
0000
0101
0000
,
0001
0000
1000
0000
0010
1000
0010
0000
,
1010
0000
0100
0001
0100
0000
0100
0000
,
0101
2000
3010
0001
,
0101
0000
0100
0010
0100
0000
0010
0000
,
0110
0000
0000
0000
1000
0010
1000
0000
,
1010
0000
0001
0100
0001
0100
0001
0000
,
0101
0000
1000
0000
0010
0000
0001
0010
,
0100
0000
0010
0000
1000
0100
0010
0000
,
0001
0000
0100
0000
0001
0010
0100
0000
,
0010
0000
0001
0000
1000
0100
0010
0000
,
0100
0000
0001
0100
0001
0000
0100
0000
,
1000
0000
0010
0100
1000
0000
0001
0000
,
1000
0100
0010
0000
0010
0000
1000
0100
,
0010
0000
1000
0000
0100
0000
0001
1000
,
0001
2000
3100
0010
,
0011
0000
0100
0001
0100
0000
0001
1000
,
0001
0000
0100
0000
0010
1000
0010
0000
,
1010
0000
0001
0100
0001
0100
0001
0000
,
0101
2000
3100
0010
,
0011
0000
0001
1000
0001
0000
0010
0000
,
0010
0000
0010
0000
1000
0001
1000
0000
,
1001
0000
0100
0010
0100
0010
0100
0000
,
0110
0000
0000
0000
0100
0000
0000
0001
0000
0000
1000
0000
0010
0000
0000
0000
,
0100
0000
0000
0000
1000
0000
0000
0010
0000
0000
0001
0000
0100
0000
0000
0001
,
0000
0000
1000
0000
0010
0000
0000
0100
0000
0000
0001
0000
1000
0000
0000
0000
,
0100
0000
0000
0000
0010
0000
0000
0001
0000
0000
1000
0000
0001
0000
1000
0000
,
0001
0000
1000
0000
0001
0000
0000
1000
0000
0000
0010
0000
0100
0000
0000
0000
,
0001
0000
0000
0000
0100
0000
0000
0010
0000
0000
1000
0000
0010
0000
0000
0100
,
0000
0000
0001
0000
0100
0000
0000
0001
0000
0000
1000
0000
0001
0000
0000
0000
,
0010
0000
0000
0000
0100
0000
0000
0010
0000
0000
1000
0000
0001
0000
1000
0000
,
0001
1000
0001
0000
1000
0000
0010
0001
,
0010
0000
0100
0000
1000
0100
0010
0000
,
0010
0000
1000
0001
1000
0000
0001
0000
,
0100
0001
0100
0000
0010
0000
0100
0010
,
0100
0000
0001
0100
0001
0000
0100
0000
,
1000
0100
1000
0000
0010
0000
0001
0100
,
0001
0000
1000
0000
0100
0010
0100
0000
,
0001
0000
1000
0010
1000
0000
0010
0000
,
0011
2000
3010
0010
,
1010
0000
0100
0010
0001
0000
0001
0000
,
0101
0000
0000
0000
1000
0010
1000
0000
,
1010
0000
0100
0001
0100
0001
0100
0000
,
0101
0002
1003
1000
,
1001
0000
0001
0100
0001
0000
0001
0000
,
0101
0000
0001
0000
1000
0010
1000
0000
,
1010
0000
0001
0100
0001
0100
0001
0000
,
0101
2000
3010
0010
,
1010
0000
0001
0100
0001
0000
0001
0000
,
0101
0000
0100
0000
1000
0100
1000
0000
,
1100
0000
0100
0010
0100
0010
0100
0000
,
0110
0002
0013
0001
,
0101
0000
1000
0001
1000
0000
1000
0000
,
1001
0000
0001
0000
0001
0100
0001
0000
,
0101
0000
0010
0100
0010
0100
0010
0000
,
0110
0000
0000
0000
;

//---------------dance-single - ----------------
#NOTES:
     dance-single:
     :
     Easy:
     4:
     0.164,0.259,0.045,0.097,0.000:
0000
0000
0000
0000
,
0000
0000
0000
1000
,
0000
0000
0000
0000
,
0000
1000
0000
1000
,
1000
1000
0000
0001
,
0000
0001
0000
0001
,
0001
0001
0000
1000
,
0000
1001
0000
1000
,
1000
0010
0010
1000
,
1000
0000
0001
0001
,
0001
1000
1000
1000
,
1001
0000
0000
0100
,
0100
0010
0010
0010
,
0000
0000
0100
0100
,
0100
0010
0010
0010
,
0110
2000
3000
0001
,
0001
2000
3000
0010
,
0010
2000
3000
0100
,
0100
0002
0003
0100
,
0100
0020
0030
0100
,
0100
2000
3000
0010
,
0010
0002
0003
0100
,
0100
2000
3000
0010
,
0010
2000
3001
0001
,
0001
1000
1000
1000
,
0000
0000
0001
0001
,
0001
1000
1000
1000
,
1001
0002
1003
1000
,
1000
0001
0001
0001
,
1000
0000
0001
0001
,
0001
0100
0100
0100
,
0100
0020
1030
1000
,
1000
0001
0000
0001
,
0000
1000
0000
1000
,
1000
1000
0000
1000
,
0000
0010
0000
0010
,
0010
0100
0000
0100
,
0100
0100
0000
0010
,
0010
0001
0000
0001
,
0001
2000
3010
0010
,
0010
1000
0000
1000
,
0000
1000
1000
0010
,
0010
0100
0000
0000
,
0000
0000
0000
0000
,
0000
0000
0000
0000
,
0000
0000
0000
0000
,
0000
0000
0000
0000
,
0000
0000
0000
0000
,
0000
0000
0000
0000
,
0000
0000
0000
0000
,
0000
0000
0000
0000
,
0000
0000
0000
0000
,
0000
0000
0000
0000
,
0000
0000
0000
0000
,
0000
0000
0000
0000
,
0000
0000
0000
0000
,
0000
0000
0000
0000
,
0000
0000
0000
0000
,
0000
1000
1000
1000
,
1001
0002
0003
1000
,
1000
0000
0000
0000
,
0000
0000
0000
0000
,
0000
0100
0100
0100
,
0101
0000
0000
0000
;

//---------------dance-single - Copied from----------------
#NOTES:
     dance-single:
     Copied from:
     Beginner:
     2:
     0.131,0.118,0.015,0.060,0.000:
0000
0000
0000
0000
,
0000
0000
0000
0000
,
0000
0000
0000
0000
,
0000
1000
0000
1000
,
0000
1000
0000
1000
,
0000
0001
0000
0001
,
0000
0001
0000
0001
,
0000
0100
0000
0100
,
0000
0010
0000
0010
,
0000
1000
0000
1000
,
0000
0001
0000
0001
,
0000
0010
0000
0010
,
0000
0100
0000
0100
,
0000
0001
0000
0001
,
0000
1000
0000
1000
,
0000
0001
0000
0001
,
0000
1000
0000
1000
,
0000
0010
0000
0010
,
0000
0100
0000
0100
,
0000
0001
0000
0001
,
0000
1000
0000
1000
,
0000
0010
0000
0010
,
0000
0100
0000
0110
,
0000
0001
0000
0001
,
0000
1000
0000
1000
,
0000
0001
0000
0001
,
0000
1000
0000
1000
,
0000
0010
0000
0010
,
0000
0100
0000
0100
,
0000
0010
0000
0010
,
0000
0100
0000
0100
,
0000
2000
0000
0000
,
0000
3002
0000
0000
,
0000
2003
0000
0000
,
0000
3002
0000
0000
,
0000
2003
0000
0000
,
0000
3002
0000
0000
,
0000
2003
0000
0000
,
0000
3002
0000
0000
,
0000
1003
0000
1000
,
0000
0001
0000
0001
,
0000
1000
0000
1000
,
0000
0010
0000
0010
,
0000
1000
0000
1000
,
0000
0001
0000
0001
,
0000
0100
0000
0100
,
0000
0010
0000
0010
,
0000
1000
0000
1000
,
0000
0001
0000
0001
,
0000
1000
0000
1000
,
0000
0001
0000
0001
,
0000
1000
0000
1000
,
0000
0001
0000
0001
,
0000
1000
0000
1000
,
0000
0001
0000
0001
,
0000
0100
0000
0100
,
0000
0010
0000
0010
,
0000
0100
0000
0100
,
0000
0010
0000
0010
,
0000
0100
0000
0100
,
0000
0010
0000
0010
,
0000
0001
0000
0001
,
0000
1000
0000
1000
,
1001
0000
0000
0000
;
