#TITLE:Hold On;
#SUBTITLE:;
#ARTIST:Trixxy;
#TITLETRANSLIT:;
#SUBTITLETRANSLIT:;
#ARTISTTRANSLIT:;
#CREDIT:Vinylyarou;
#BANNER:Hold On-bn.png;
#BACKGROUND:Hold On-bg.png;
#LYRICSPATH:;
#CDTITLE:Dancemania Speed 8.png;
#MUSIC:Hold On.mp3;
#OFFSET:-5.385;
#SAMPLESTART:77.681;
#SAMPLELENGTH:12.000;
#SELECTABLE:YES;
#BPMS:0.000=179.080,64.000=89.540,80.000=179.080;
#STOPS:;
#BGCHANGES:;

//---------------dance-single - ----------------
#NOTES:
     dance-single:
     :
     Hard:
     12:
     0.641,0.608,0.508,0.000,0.146:
1001
0000
0110
0000
0010
1000
0001
0100
,
0010
0000
1001
0000
0001
0010
0001
0010
,
0100
0000
0110
0000
0100
1000
0010
0100
,
0010
0000
0110
0000
0010
0100
0001
1000
,
0010
0000
1001
0000
0001
1000
0001
0100
,
0010
0000
0101
0000
0100
0001
1000
0100
,
0010
0100
1000
0001
,
1001
0110
1001
0110
,
1010
0000
0000
0010
1000
0000
0000
0010
1000
0000
0010
0000
0100
0000
0001
0000
,
0100
0000
0000
0010
0100
0000
0000
0010
0100
0000
0001
0000
0010
0000
0100
0000
,
1000
0000
0000
0100
1000
0000
0000
0100
1000
0000
0010
0000
0100
0000
0001
0000
,
0010
0000
0000
0001
0010
0000
0000
0001
0010
0000
0100
0000
1000
0000
0010
0000
,
1000
0000
0000
0001
1000
0000
0000
0001
1000
0000
0010
0000
0001
0000
0010
0000
,
1000
0000
0000
0100
1000
0000
0000
0100
1000
0000
0100
0000
0001
0000
0100
0000
,
1000
0010
1000
0100
1000
0010
0100
0001
,
0010
0011
0110
1010
,
1001
0000
0000
0000
0000
0010
0000
0000
0110
0000
0000
0000
0000
0101
0000
0000
,
1001
0000
0000
0000
0000
1001
0000
0000
0110
0000
0000
0110
0000
0010
0100
0000
,
1001
0000
0000
0000
0000
1000
0000
0000
1010
0000
0000
0000
0000
0010
0000
0000
,
0100
0100
0100
0100
0100
0100
0100
0000
,
1001
0000
0010
0100
0001
0000
1000
0100
,
0010
0000
0001
0000
0100
0000
0010
0100
,
1001
0000
0100
1000
0010
0100
0001
1000
,
0001
0010
0100
1000
0001
0000
0100
0010
,
1000
0110
1001
0110
,
0100
1000
0010
0100
0010
0000
0100
0001
,
1001
0000
0010
0100
0010
0000
0110
0000
,
0001
1000
0001
0100
0001
0000
0010
0000
,
0110
0000
1001
0000
0101
0000
0000
0010
,
0100
0001
0010
1000
0010
0000
0001
0000
,
1000
0000
0010
0100
0010
0000
0000
0100
,
0001
0100
1000
0100
0001
0000
1000
0000
,
0001
0000
0010
0000
0001
0000
0100
0010
,
0000
0100
0010
1000
0001
0000
1000
0000
,
0001
0000
1000
0001
0100
0000
0010
0100
,
0001
0000
0010
0100
0010
0000
0001
0000
,
1001
0000
0100
0001
0100
0000
0010
0100
,
0001
0100
1000
0000
0001
0000
1000
0010
,
0100
0001
0010
0100
0010
0000
0001
1000
,
0010
1000
0001
0010
0100
1000
0010
0000
,
0100
0010
1000
0000
1001
0000
0001
0010
,
0001
0010
0100
1000
0010
0000
0100
0000
,
0001
0010
1000
0010
0100
0000
1000
0001
,
0100
0000
1001
0000
0001
1000
0001
1000
,
0100
0000
1001
0000
1000
0001
0010
0100
,
1000
0100
0001
0000
1000
0000
0001
0010
,
0100
0010
0001
1000
0010
0100
0001
0010
,
0001
0010
0100
1000
0010
0100
0010
0000
,
0100
0001
1000
0000
1001
0000
0010
1000
,
0010
1000
0001
0010
0100
0000
1000
0000
,
0001
0010
1000
0010
0001
0000
0100
0001
,
1000
0000
1001
0000
0001
1000
0010
0000
,
1001
0000
0110
0000
0100
0001
1000
0010
,
0100
0000
1001
0000
0001
0100
0010
1000
,
0100
0000
0110
0000
0010
0001
0100
0010
,
0100
0000
0110
0000
0100
0010
1000
0001
,
0100
0000
1001
0000
1000
0001
1000
0010
,
0100
0000
1010
0000
0010
1000
0001
0010
,
0100
0000
1100
0000
1000
0100
0010
0001
,
0110
1001
0110
1001
,
0101
0000
0000
0100
0001
0000
0000
0100
0001
0000
0100
0000
0010
0000
1000
0000
,
0010
0000
0000
0100
0010
0000
0000
0100
0010
0000
1000
0000
0100
0000
0010
0000
,
0001
0000
0000
0010
0001
0000
0000
0010
0001
0000
0100
0000
0010
0000
1000
0000
,
0100
0000
0000
1000
0100
0000
0000
1000
0100
0000
0010
0000
0001
0000
0100
0000
,
0001
0000
0000
1000
0001
0000
0000
1000
0001
0000
0100
0000
1000
0000
0100
0000
,
0001
0000
0000
0010
0001
0000
0000
0010
0001
0000
0010
0000
1000
0000
0010
0000
,
0001
0100
0001
0010
0001
0100
0010
1000
,
0100
1000
0001
0100
,
1001
0000
0000
0000
;

//---------------dance-single - ----------------
#NOTES:
     dance-single:
     :
     Medium:
     9:
     0.431,0.416,0.263,0.000,0.000: // measure 1
1000
1010
0010
0100
,  // measure 2
0001
0101
0001
0010
,  // measure 3
0100
1100
0010
0100
,  // measure 4
0001
0011
0001
1000
,  // measure 5
0001
1001
0001
0010
,  // measure 6
0100
0110
0100
1000
,  // measure 7
0010
1000
0010
0000
0100
0001
0100
0000
,  // measure 8
0010
0100
0001
1000
,  // measure 9
0001
1000
0001
1001
,  // measure 10
1000
0001
0010
0110
,  // measure 11
0100
0000
1000
0000
0010
1000
0010
0000
,  // measure 12
0100
0000
0001
0000
0100
0010
0100
0000
,  // measure 13
0001
1000
0010
1010
,  // measure 14
0010
0100
0001
0011
,  // measure 15
0100
0010
0100
0000
1000
0001
1000
0000
,  // measure 16
0001
1000
0010
0100
,  // measure 17
0100
0000
0010
0000
,  // measure 18
1000
0000
0001
0000
,  // measure 19
1000
0000
0100
0000
,  // measure 20
0010
0000
0001
0000
1000
1000
1000
0000
,  // measure 21
0001
1000
0001
0000
,  // measure 22
1000
0010
1010
0010
,  // measure 23
0100
0001
0001
1000
,  // measure 24
0010
0000
1000
0010
1000
0000
0001
0000
,  // measure 25
0010
0100
1000
0000
,  // measure 26
0001
1000
0001
0000
1000
0000
0010
0000
,  // measure 27
0100
0000
0001
0100
0001
0000
0010
0000
,  // measure 28
0100
0010
0100
0000
1000
0000
0001
0000
,  // measure 29
0000
1000
0010
0000
,  // measure 30
1000
0010
0100
0001
,  // measure 31
0010
0100
1000
0000
,  // measure 32
0001
1000
0010
0100
,  // measure 33
0001
0000
0010
0000
0100
0000
1000
0001
,  // measure 34
0000
1000
0001
0000
1000
0000
0010
0000
,  // measure 35
0100
0000
0010
0100
0010
0000
0001
1000
,  // measure 36
0001
0000
0010
0100
0010
0000
0000
0000
,  // measure 37
1001
0010
1000
0001
,  // measure 38
1000
0010
1000
0000
0010
0000
0100
0000
,  // measure 39
0001
0100
0001
0000
0100
0000
0010
0000
,  // measure 40
1000
0001
1000
0000
0010
0000
0100
0000
,  // measure 41
1000
0001
1000
0000
0001
0000
0010
0000
,  // measure 42
0100
1000
0010
0010
,  // measure 43
0100
0100
0010
0010
,  // measure 44
0100
0010
0100
0010
,  // measure 45
0110
1001
0001
1000
,  // measure 46
0001
0000
1000
0000
0010
0000
1000
0010
,  // measure 47
1000
0000
0001
1000
0001
0000
0010
0100
,  // measure 48
0010
0000
0100
1000
0010
0000
1000
0000
,  // measure 49
0001
1000
0010
1010
,  // measure 50
0010
1000
0010
0000
0100
0000
0001
0000
,  // measure 51
0100
0001
0100
0001
0100
0000
0010
0000
,  // measure 52
0100
0001
1000
0010
,  // measure 53
0001
0101
0100
0010
,  // measure 54
1000
1010
1000
0100
,  // measure 55
0010
0011
0100
0010
,  // measure 56
1000
1100
1000
0001
,  // measure 57
1000
1001
1000
0100
,  // measure 58
0010
0110
0010
0001
,  // measure 59
0100
0101
1000
0010
,  // measure 60
0100
0010
1001
0110
,  // measure 61
1001
0000
0010
0000
1000
0010
0100
0000
,  // measure 62
0001
0000
0100
0000
0010
1000
0010
0000
,  // measure 63
1000
0000
0100
0000
0010
0001
0010
0000
,  // measure 64
0001
0000
0010
0000
0100
1000
0010
0000
,  // measure 65
0100
0001
1000
1001
,  // measure 66
0010
1000
0001
1001
,  // measure 67
0001
1000
0001
0000
1000
0010
0100
0000
,  // measure 68
0010
0100
0001
1000
,  // measure 69
1001
0000
0000
0000
;

//---------------dance-single - ----------------
#NOTES:
     dance-single:
     :
     Easy:
     4:
     0.257,0.320,0.160,0.000,0.000:
1000
0000
0001
0001
,
0001
0000
1000
1000
,
1000
0000
0010
0010
,
0010
0000
0100
0100
,
0100
0000
0001
0001
,
0001
0000
1000
1000
,
1000
0000
0010
0000
,
0100
0000
0001
0000
,
1000
0000
1001
0000
,
0001
0000
0101
0000
,
0010
0000
0110
0000
,
1000
0000
1010
0000
,
0001
0000
0100
0000
,
0010
0000
1000
0000
,
1001
0000
0110
0000
,
1001
0000
0110
0000
,
1000
0000
0001
0000
,
0100
0000
0010
0000
,
1000
0000
0000
0000
,
0001
0001
1000
1000
,
1000
0010
1000
0000
,
0010
0100
0001
0000
,
1000
0000
0001
0000
,
1000
0010
0100
0000
,
0000
0010
0010
0000
,
0100
0100
0100
0000
,
0001
0000
1000
0000
,
0010
0100
0001
0000
,
0000
1000
0001
0000
,
1000
0001
1000
0000
,
0010
0100
0010
0000
,
0100
0010
0100
0000
,
0001
0000
1000
0000
,
0001
0000
0010
0000
,
0100
0000
1000
0000
,
0010
0000
0000
0000
,
0110
0000
0000
0100
,
0100
0100
0000
0010
,
0010
0010
0010
0000
,
0100
0100
0100
0001
,
1000
0010
0000
1000
,
1000
1000
0010
0000
,
0100
0001
1000
0001
,
1000
0010
0100
0010
,
1000
0000
0001
0001
,
0001
0000
1000
1000
,
1000
0000
0010
0000
,
0100
0000
0001
0000
,
0010
0100
0000
1000
,
1000
0010
1000
0000
,
0001
0001
1000
0010
,
0100
0001
1000
0010
,
1001
0000
0000
0000
,
0110
0000
0000
0000
,
0011
0000
0000
0000
,
1100
0000
0000
0000
,
0110
0000
0000
0000
,
1001
0000
0000
0000
,
0011
0000
0001
0000
,
1000
1000
1000
1000
,
0010
1000
0010
0000
,
0100
0001
0010
0000
,
0100
1000
0010
0000
,
0010
0010
0100
0000
,
0001
1000
0001
0000
,
0010
0100
1000
0000
,
0001
0010
0100
1000
,
0010
0100
0001
0000
,
1001
0000
0000
0000
;
