#TITLE:Hold On To Love;
#SUBTITLE:;
#ARTIST:Bliss Team;
#TITLETRANSLIT:;
#SUBTITLETRANSLIT:;
#ARTISTTRANSLIT:;
#GENRE:;
#CREDIT:;
#MUSIC:Hold On To Love.ogg;
#BANNER:Hold On To Love.png;
#BACKGROUND:Hold On To Love-bg.png;
#CDTITLE:cdtitle.png;
#SAMPLESTART:12.000;
#SAMPLELENGTH:15.000;
#SELECTABLE:YES;
#OFFSET:1.580;
#BPMS:0.000=150.000;
#STOPS:;
#LASTBEATHINT:1.450000;
#BGCHANGES:1.000=Hold On To Love.avi=1.000=0=0=1,
99999.000=-nosongbg-=1.000=0=0=0=StretchNoLoop====
;
#FGCHANGES:;

//--------------- dance-single - RaverAce ----------------
#NOTES:
     dance-single:
     RaverAce:
     Beginner:
     4:
     0,0,0,0,0:
0000
0000
0000
0000
,
0000
0000
0000
0000
,
0000
0000
0000
0000
,
0000
0000
0000
0000
,
0000
0000
0000
0000
,
1001
0000
0000
0000
,
0000
0000
0000
0000
,
0110
0000
0000
0000
,
0000
0000
0000
0000
,
1001
0000
0000
0000
,
1000
0000
0000
0000
,
0001
0000
0000
0000
,
1000
0000
0000
0000
,
0100
0000
0000
0000
,
0010
0000
0000
0000
,
0100
0000
0000
0000
,
0010
0000
0000
0000
,
1001
0000
0000
0000
,
1001
0000
0000
0000
,
0100
0000
0000
0000
,
0100
0000
0000
0000
,
1001
0000
0000
0000
,
1001
0000
0000
0000
,
0010
0000
0000
0000
,
0010
0000
0000
0000
,
1000
0000
0001
0000
,
1000
0000
0000
0000
,
0001
0000
1000
0000
,
0001
0000
0000
0000
,
0010
0000
0000
0000
,
0010
0000
0000
0000
,
0100
0000
0000
0000
,
0100
0000
0000
0000
,
1000
0000
0000
0000
,
1000
0000
0000
0000
,
0001
0000
0000
0000
,
0001
0000
0000
0000
,
0100
0000
0000
0000
,
0100
0000
0000
0000
,
0010
0000
0000
0000
,
0010
0000
0000
0000
,
1000
0000
0000
0000
,
0001
0000
0000
0000
,
0010
0000
0000
0000
,
0100
0000
0000
0000
,
2002
0000
3003
0000
,
0001
0000
1000
0000
,
0001
0000
0000
0000
,
1000
0000
0001
0000
,
1000
0000
0000
0000
,
0010
0000
0100
0000
,
0010
0000
0000
0000
,
0100
0000
0010
0000
,
0100
0000
0000
0000
,
0001
0001
0001
0000
,
1000
1000
1000
0000
,
0010
0000
0010
0000
,
0010
0000
0000
0000
,
0100
0100
0100
0000
,
0010
0010
0010
0000
,
1000
0000
0001
0000
,
0200
0000
0300
0000
,
0010
0000
0010
0000
,
0010
0000
0000
0000
,
0100
0000
0100
0000
,
0100
0000
0000
0000
,
0001
0000
0001
0000
,
0001
0000
0000
0000
,
1000
0000
1000
0000
,
1000
0000
0001
0000
,
1001
0000
0000
0000
;

//--------------- dance-single - RaverAce ----------------
#NOTES:
     dance-single:
     RaverAce:
     Easy:
     7:
     0,0,0,0,0:
0000
0000
0000
0000
,
0000
0000
0000
0000
,
0000
0000
0000
0000
,
0000
0000
0000
0000
,
0000
0000
0000
0000
,
0110
0000
0010
0000
,
0100
0000
0000
0000
,
0110
0000
0010
0000
,
2002
0000
3003
0000
,
1000
0000
0100
0000
,
1000
0000
0001
0100
,
0001
0000
0100
0000
,
0010
0000
0100
0001
,
1000
0000
0100
0000
,
0010
0000
0001
1000
,
0010
0000
0100
0000
,
2002
0000
3003
0000
,
0001
0001
0001
0000
,
1000
1000
1000
0000
,
0100
0100
0100
0000
,
0010
0010
0010
0000
,
0100
0100
0100
0000
,
1000
1000
1000
0000
,
0010
0010
0010
0000
,
0100
0100
0100
0000
,
1001
0000
0110
0000
,
1000
0001
1000
0000
,
0110
0000
1001
0000
,
0220
0000
0330
0000
,
0100
0000
0001
0000
,
0100
0000
0010
0000
,
1000
0010
0100
0000
,
0001
0100
0010
0000
,
1000
0000
1000
0000
,
0001
0000
0001
0000
,
0010
0100
1000
0001
,
2002
0000
3003
0000
,
1000
0000
0100
0000
,
1000
0000
0010
0100
,
0001
0000
0010
0000
,
0001
0000
0100
0010
,
1000
0000
0100
0000
,
0001
0000
0100
1000
,
0010
0000
0100
0001
,
0010
0000
0010
0100
,
0220
0000
0330
0000
,
1000
0000
0100
0001
,
0100
0000
1000
0000
,
0010
0000
0100
0001
,
0100
0000
0010
1000
,
0001
0000
0100
0001
,
0100
0000
1000
0100
,
0001
0000
0010
0100
,
2002
0000
3003
0000
,
0001
0001
0001
0000
,
0010
0010
0010
0000
,
0100
1000
0010
0100
,
0002
0000
0103
0000
,
1000
1000
1000
0000
,
0100
0100
0100
0000
,
0001
0100
1000
0020
,
0200
0000
0330
0000
,
0100
0000
0001
0100
,
0010
0000
1000
0010
,
0100
0000
0001
0010
,
1000
0000
0010
0001
,
0100
0000
0010
1000
,
0010
0000
0100
0001
,
1000
0000
0100
0010
,
0001
1000
0010
0100
,
1001
0000
0000
0000
;

//--------------- dance-single - RaverAce ----------------
#NOTES:
     dance-single:
     RaverAce:
     Medium:
     11:
     0,0,0,0,0:
0000
0000
0000
0000
,
0000
0000
0000
0000
,
0000
0000
0000
0000
,
0000
0000
0000
0000
,
0000
0000
0000
0000
,
0001
0001
0001
0001
,
1001
0000
1000
0000
1000
0001
1000
0100
,
0010
0000
0010
0000
0010
0000
0010
0001
,
0202
0000
0003
0000
,
0310
0000
1000
0010
0000
0100
0001
1000
,
0100
0000
0110
0000
0010
0001
1000
0010
,
0100
0000
0010
1000
0000
0010
0100
0002
,
0000
0100
0000
0103
0010
1000
0010
0100
,
0001
0000
0010
0100
0000
0100
1000
0100
,
0001
0000
0100
0000
1000
0100
0010
0001
,
0100
0000
0010
1000
0000
0010
0100
0001
,
2000
0100
0100
3100
,
1100
0000
1100
0000
0100
0010
0000
0002
,
0000
0000
0103
0000
0010
0010
0000
2000
,
0000
0000
3100
0000
0010
0010
0000
0002
,
0000
0103
1000
0100
0000
0100
0001
0000
,
0101
0000
0101
0000
0100
0010
0000
2000
,
0000
0000
3100
0000
0010
0010
0000
0002
,
0000
0000
0103
0000
0010
0010
0000
2000
,
0000
3100
0001
0100
0000
0100
1000
0001
,
1001
1010
1001
0011
,
0001
0100
0010
1000
0010
0100
0001
0000
,
1001
0011
1001
1010
,
0220
0000
0000
0330
,
0100
0000
0001
0100
0000
0100
0020
0000
,
2030
0000
3100
0001
0000
0001
0100
1000
,
0020
0000
0000
0230
0000
0000
0301
0100
,
0002
0000
1000
0000
1000
0000
1003
0010
,
2000
0000
0000
3200
0000
0302
0000
0000
,
0103
2000
0000
0010
0000
3010
0010
1000
,
0001
0000
0011
0000
0001
0020
0000
1000
,
0000
0001
0031
0000
0001
1000
0001
0000
,
1020
0000
1000
0000
0100
0000
1000
1000
,
0000
0130
0000
0100
0001
0010
0000
0210
,
0000
0000
0000
1000
1000
1000
0000
0010
,
0000
1000
1300
0000
1000
0001
0100
0001
,
0020
0000
0001
0000
0100
0100
0000
0001
,
0000
0130
0000
0010
0010
0010
0000
0002
,
0000
0000
0100
0000
0100
0000
0103
0010
,
2000
0001
0100
3001
,
2002
0000
0000
3003
,
0101
0000
0100
0010
0000
0010
1000
0010
,
0100
0000
0101
0000
0001
1000
0100
0010
,
0011
0000
0001
0010
0000
0010
0100
1000
,
0001
0100
0010
0000
1000
0010
0100
0001
,
1001
0000
1000
0010
0000
0010
0100
0001
,
1000
0000
1100
0000
0001
1000
0010
0100
,
0110
0000
0010
1000
0000
1000
0010
0100
,
0002
0000
0010
0000
0013
0100
1000
0100
,
0000
0110
0000
1100
0000
0100
0010
0001
,
0000
0011
0000
0110
0000
0100
1000
0001
,
0000
1001
0000
1010
0000
1000
0010
0100
,
0002
0000
1000
0000
1003
0001
0100
0010
,
0000
1010
0000
1100
0000
1000
0001
0200
,
0000
1000
0000
0301
0010
0100
1000
0001
,
0100
0010
0000
1010
0000
0110
0000
0102
,
0000
0000
0013
0000
0100
0010
0100
1000
,
1001
0000
0001
1000
0000
1000
0010
0100
,
0001
0000
0101
0000
1000
0001
0100
0010
,
1010
0000
1000
0010
0000
0010
0100
0001
,
1000
0100
0010
0000
0010
0001
1000
0001
,
1001
0000
1000
0010
0000
0100
0001
1000
,
0100
0000
0110
0000
0010
0001
1000
0100
,
1100
0000
1000
0001
0000
0001
0100
0010
,
2000
0010
0010
3010
,
1001
0000
0000
0000
;

//--------------- dance-single - RaverAce ----------------
#NOTES:
     dance-single:
     RaverAce:
     Hard:
     13:
     0.567677,0.612691,0.472648,0.332604,0.030635,454,400,54,38,0,0,0.567677,0.612691,0.472648,0.332604,0.030635,454,400,54,38,0,0:
0000
0000
0000
0000
,
0000
0000
0000
0000
,
0000
0000
0000
0000
,
0000
0000
0000
0000
,
0000
0000
0000
0000
,
1000
0000
1000
0000
1000
0000
1000
0010
,
0100
0000
0100
0000
0100
1000
0100
0001
,
0010
0000
0100
0000
1000
0010
0100
0001
,
2002
0000
0000
3003
,
0011
0001
0100
0010
1000
0010
0100
0001
,
0010
0100
0010
0000
0001
0010
1000
0010
,
0001
0100
0010
1000
0010
0100
0001
1000
,
0100
0010
0100
0000
1000
0100
0001
0100
,
1000
0010
0100
0001
1000
0100
0010
0100
,
1000
0001
0100
0000
0001
0100
1000
0100
,
0001
1000
0100
0010
0001
1000
0010
0100
,
0020
1000
1000
1030
,
1001
0000
0101
0000
0001
0020
0000
1000
,
0000
0000
0001
0000
0032
0000
0000
0000
1003
0000
0010
1000
0000
0000
0001
0000
,
0000
0001
1000
0010
0100
0100
0000
0101
,
0000
0001
0010
0100
0000
1000
1100
0000
,
1001
0000
1100
0000
1000
0020
0000
0001
,
0000
0000
1000
0000
1030
0000
0000
0000
0001
0000
0010
0001
0000
0000
1000
0000
,
0000
1000
0001
0010
0100
0100
0000
0110
,
0000
0010
0100
0010
0001
1000
0001
0100
,
0110
1010
0110
0101
,
0001
0000
1000
0000
0100
0010
0000
0010
0100
0000
1000
0000
0001
0000
0010
0000
,
0110
0000
0000
0000
0011
0000
0000
0000
0110
0000
0000
0000
1100
0000
1000
0002
,
2000
0000
0000
3003
,
1100
0100
0010
0100
1000
0010
0100
0001
,
1000
0010
0100
0010
1000
0001
0010
0100
,
2000
0000
0100
3200
0000
0301
0100
1000
,
0020
0000
1000
0000
1030
0000
1000
0001
,
0101
0100
0010
0100
0001
0010
0100
1000
,
0001
1000
0010
0100
0001
0010
0100
0010
,
0011
0000
0201
0000
1300
0200
0000
0302
,
0000
0013
0100
0000
1000
0010
0100
0000
,
1002
0000
0100
0000
2003
0000
3010
0002
,
0000
0000
0023
0000
0000
0000
1030
0010
1000
0000
0200
0000
0000
0000
0302
0000
,
0000
0103
1000
0010
0100
0002
0000
0023
,
0000
0100
0130
0000
0010
0001
1000
0000
,
2001
0000
0100
0000
3001
0002
0000
0203
,
0000
2300
0000
3100
0001
0020
0000
0230
,
0000
0000
0010
0000
0010
0000
0310
0001
,
1000
0000
1000
0000
1000
0010
0100
0001
,
2002
0000
0003
0000
3001
0010
0100
1000
,
1001
0001
0100
0110
0010
1000
0100
0010
,
0001
0000
1001
0000
0001
0100
1000
0100
,
0101
0001
0010
0110
0100
1000
0001
1000
,
0010
0100
0001
0000
1000
0010
0001
0010
,
1010
1000
0100
0110
0010
0001
0100
0010
,
1000
0000
1001
0000
0001
0010
1000
0010
,
0011
0001
1000
1001
0001
0100
0010
1000
,
0100
0001
0100
1000
0100
0010
0001
0011
,
0000
0101
0000
2010
0000
3001
1000
1010
,
0000
1100
0000
0012
0000
1003
0010
0200
,
0000
0001
0000
1000
0000
0310
1000
0001
,
1000
0100
0001
0000
0001
0100
1000
1010
,
0000
0110
0000
0102
0000
1003
0001
0200
,
0000
1300
0100
0001
0010
1000
0010
0001
,
0010
0200
0000
1000
0000
0301
0000
0120
,
0000
0100
0130
0000
0010
0001
1000
0010
,
0110
0100
0001
1001
1000
0100
0010
0001
,
1000
0010
1010
0000
1000
0100
0001
0100
,
1100
1000
0010
0110
0100
0001
0010
0100
,
1000
0001
0011
0000
0001
0100
1000
0100
,
0101
0001
0010
0110
0100
1000
0001
0100
,
0010
1000
1100
0000
1000
0010
0100
0001
,
1001
1000
0100
0110
0010
0001
1000
0010
,
0100
0001
0100
1000
0100
0001
0010
0100
,
1001
0000
0000
0000
;

//--------------- dance-double - RaverAce ----------------
#NOTES:
     dance-double:
     RaverAce:
     Easy:
     7:
     0,0,0,0,0:
00000000
00000000
00000000
00000000
,
00000000
00000000
00000000
00000000
,
00000000
00000000
00000000
00000000
,
00000000
00000000
00000000
00000000
,
00000000
00000000
00000000
00000000
,
00000100
00000000
00000100
00000000
,
00001100
00000000
00000000
00000000
,
01000000
00000000
01000000
00000000
,
02020000
00000000
00000000
03030000
,
00001000
00000000
00010000
00100000
,
01000000
00000000
01000000
10000000
,
00100000
00000000
00100000
01000000
,
00010000
00000000
00001000
00000100
,
00000010
00000000
00000001
00000100
,
00000010
00000000
00001000
00010000
,
00100000
00000000
01000000
10000000
,
20020000
00000000
00000000
30030000
,
10100000
10100000
00100000
01000000
,
00010000
00000000
00020000
00000000
,
02030000
00000000
03002000
00000000
,
00023000
00000000
00030100
00000010
,
00000011
00000011
00000010
00000100
,
00001000
00000000
00002000
00000000
,
00003200
00000000
00020300
00000000
,
00032000
00000000
01003000
00100000
,
10100000
10000000
01000000
00100000
,
00110000
00010000
00001000
00000100
,
00000110
00000010
00000001
00000100
,
00002002
00000000
00000000
00003003
,
00000001
00000010
00000100
00000000
,
00000100
00001000
00010000
00000000
,
00200000
00000000
02300000
00000000
,
23000000
00000000
30010000
00000000
,
01000000
00001000
01000000
00000000
,
00010000
00100000
01000000
00000000
,
10000000
01000000
00100000
00010000
,
00012000
00000000
00013000
00000100
,
00001100
00001000
00000010
00000100
,
00000001
00000100
00000010
00001000
,
00001010
00000010
00001000
00010000
,
00100000
01000000
10000000
01000000
,
00100000
00110000
00010000
01000000
,
00001000
00010000
00001000
00000100
,
00000110
00000010
00000001
00001000
,
00001010
00000010
00010000
00001000
,
00022000
00000000
00000000
00033000
,
00010000
00000000
00001000
00000100
,
00000010
00000000
00000010
00000001
,
00000100
00000000
00000100
00000010
,
00001000
00000000
00010000
00100000
,
01000000
00000000
10000000
00100000
,
01000000
00000000
00010000
00001000
,
00000100
00000000
00000010
00000001
,
00002002
00000000
00000000
00003003
,
00001200
00001000
00001300
00000000
,
00021000
00001000
00031000
00000000
,
00210000
00001000
00001000
00302000
,
00013000
00000000
00011000
00000000
,
02010000
00001000
03001000
00010000
,
00001000
00010000
00000200
00000000
,
00001300
00000100
00000010
00000001
,
00000200
00000000
00000310
00001000
,
00001100
00000100
00010000
00001000
,
00011000
00000000
00010000
00001000
,
00011000
00010000
00100000
01000000
,
20000000
00000000
30010000
01000000
,
01100000
00100000
10000000
01000000
,
01100000
00100000
00010000
00001000
,
00011000
00010000
00001000
00000100
,
00000110
00000010
00000100
00001000
,
00011000
00000000
00000000
00000000
;

//--------------- dance-double - RaverAce ----------------
#NOTES:
     dance-double:
     RaverAce:
     Medium:
     11:
     0,0,0,0,0:
00000000
00000000
00000000
00000000
,
00000000
00000000
00000000
00000000
,
00000000
00000000
00000000
00000000
,
00000000
00000000
00000000
00000000
,
00000000
00000000
00000000
00000000
,
00000010
00000000
00000010
00000000
00000010
00000000
00000010
00000100
,
00001000
00000000
00001000
00000000
00001000
00010000
00001000
00000000
,
00010000
00000000
00010000
00000000
00010000
00100000
01000000
10000000
,
20020000
00000000
00000000
30030000
,
10100000
00000000
10000000
01000000
00000000
01000000
00100000
00010000
,
00000000
00011000
00000000
00001000
00010000
00000100
00001000
00000000
,
00001100
00000000
00000100
00000010
00000000
00000010
00000001
00000100
,
00000000
00000101
00000000
00000100
00000010
00001000
00000100
00010000
,
00011000
00000000
00001000
01000000
00000000
01000000
00100000
10000000
,
00000000
11000000
00000000
01000000
00100000
00010000
00100000
00001000
,
00011000
00000000
00010000
00000100
00000000
00000100
00001000
00000010
,
00000000
00001010
00000000
00000110
00000000
00000010
00001000
00000100
,
00000020
00000000
00000001
00000000
00000031
00000001
00000000
00000002
,
00000000
00000000
00000103
00000000
00000010
00000010
00000000
00020000
,
00000000
00000000
00031000
00000000
00001000
00002000
00000000
02003000
,
00000000
03100000
10000000
02000000
00000000
10000000
13000000
00000000
,
00200000
00000000
10000000
00000000
10000000
10300000
00000000
20000000
,
00000000
00000000
31000000
00000000
00100000
00100000
00000000
00002000
,
00000000
00000000
00013000
00000000
00010000
00020000
00000000
00030200
,
00000000
00000310
00000001
00000100
00000000
00000100
00000010
00001000
,
00001100
00011000
00110000
00011000
,
00001000
00000100
00000010
00000001
00000100
00000010
00001000
00000000
,
00011000
00000000
00110000
00000000
00011000
00000000
00001100
00000200
,
00020000
00000000
00000000
00030300
,
00001000
00010000
00100000
01000000
10000000
00100000
01000000
00000000
,
00010000
10000000
00100000
01000000
00010000
10000000
01000000
00000000
,
00100000
00000000
01000000
10000000
00000000
00010000
01000000
00000000
,
00100000
00000000
10000000
00100000
00000000
01000000
00010000
00000000
,
10000000
00000000
01000000
00100000
00000000
00010000
00001000
00000100
,
00000010
00000010
00000000
00000002
00000000
00000103
00000010
00001000
,
00001100
00000000
00011000
00000000
00010000
02000000
00000000
13000000
,
00000000
01000000
00010000
00000000
00010000
00100000
01000000
00000000
,
01100000
00000000
10010000
00000000
10000000
00000000
00010000
02000000
,
00000000
03002000
00000000
00013000
00001000
00010000
00000000
00010200
,
00000000
00001300
00000100
00000010
00000001
00000200
00000000
00001000
,
00000000
00000301
00000100
00000000
00000001
00000010
00000100
00000000
,
00000110
00000000
00001100
00000000
00010000
00002000
00000000
00023000
,
00000000
00230000
00000000
01300000
10000000
00100000
00000000
20100000
,
00000000
00000000
01000000
00000000
01000000
00000000
31000000
00100000
,
00010000
00000000
00001000
00000000
00000100
00000010
00000001
00001000
,
00002002
00000000
00000000
00003003
,
00000101
00000000
00000100
00000010
00000000
00000010
00001000
00000100
,
00010000
00000000
00011000
00000000
00001000
00010000
00001000
00000000
,
00100000
00000000
00010000
01000000
00000000
01000000
00100000
10000000
,
01000000
00100000
00010000
00000000
00001000
00010000
00001000
00010000
,
00011000
00000000
00001000
00010000
00000000
00010000
00100000
01000000
,
10000000
00000000
11000000
00000000
01000000
00100000
00010000
00001000
,
00001100
00000000
00000100
00000010
00000000
00000010
00000001
00000100
,
00000020
00000000
00001000
00000000
00001030
00000100
00001000
00001100
,
00000000
00010100
00000000
00001100
00000000
00000100
00010000
00001000
,
00000000
00011000
00000000
00110000
00000000
00001000
00010000
01000000
,
00000000
00200000
00000000
20300000
00000000
32000000
00000000
03010000
,
01000000
10000000
00100000
00000000
00100000
10000000
00010000
01010000
,
00000000
00011000
00000000
00001100
00000000
00000100
00000010
00000002
,
00000000
00000203
00000000
00000310
00001000
00000001
00000010
00000100
,
00001000
00000020
00000000
00000001
00000000
00001030
00000000
00000100
,
00001000
00000000
00001100
00000000
00000100
00001000
00010000
00100000
,
01100000
00000000
01000000
10000000
00000000
10000000
00100000
01000000
,
00010000
00000000
01010000
00000000
01000000
00100000
10000000
01000000
,
00100000
00000000
00010000
00001000
00000000
00001000
00000100
00000010
,
00000001
00000100
00000001
00000000
00000100
00000010
00001000
00000001
,
00001001
00000000
00000001
00000010
00000000
00000100
00001000
00010000
,
00100000
00000000
01100000
00000000
01000000
00100000
00010000
00001000
,
00011000
00000000
00010000
00000100
00000000
00000100
00001000
00000100
,
00000010
00000001
00000100
00000010
00001000
00000001
00001000
00000010
,
00001001
00000000
00000000
00000000
;

//--------------- dance-double - RaverAce ----------------
#NOTES:
     dance-double:
     RaverAce:
     Hard:
     13:
     0,0,0,0,0:
00000000
00000000
00000000
00000000
,
00000000
00000000
00000000
00000000
,
00000000
00000000
00000000
00000000
,
00000000
00000000
00000000
00000000
,
00000000
00000000
00000000
00000000
,
00000101
00000000
00000001
00000000
00000001
00000000
00000001
00001000
,
00000010
00000000
00000010
00000000
00000010
00001000
00010000
00100000
,
01100000
00000000
01100000
00000000
01100000
00000000
01000000
10000000
,
20020000
00000000
00000000
30030000
,
01010000
01000000
00001000
00010000
00000100
00000010
00000001
00000100
,
00000010
00000000
00001010
00000000
00001000
00000100
00000001
00000100
,
00001100
00001000
00000010
00000100
00000001
00000100
00001000
00010000
,
00100000
01000000
00100000
00000000
00010000
00100000
10000000
00100000
,
00110000
00010000
00100000
01000000
10000000
00100000
01000000
00010000
,
00001000
00000000
00001001
00000000
00000001
00000100
00001000
00000100
,
00000101
00000001
00000010
00000100
00001000
00010000
00001000
00100000
,
01200000
00010000
00010000
00310000
,
00110000
00000000
00110000
00000000
00100000
00002000
00000000
01000000
,
00000000
00000000
00000000
00000000
00013000
00000000
00000000
00000000
00001000
00000000
00100000
00020000
00000000
00000000
02030000
00000000
,
00000000
00000000
03100000
00000000
10000000
10000000
00000000
01100000
,
00000000
00100000
10000000
00010000
00000000
00010000
10000000
01000000
,
01100000
00000000
01100000
00000000
00100000
00020000
00000000
00032000
,
00000000
00000000
00003100
00000000
00000010
00000000
00000000
00000000
00000100
00000000
00001000
00000010
00000000
00000000
00002000
00000000
,
00000000
00003100
00010000
00000000
00010000
00010000
00000000
00000200
,
00000000
00010300
00001000
00100000
00000000
00001000
00010000
00000100
,
00001100
00000110
00000011
00000101
,
00000100
00000010
00001000
00010000
00100000
01000000
00100000
00000000
,
00110000
00000000
10010000
00000000
11000000
00000000
00100000
00020000
,
00002000
00000000
00000000
00000000
00000000
00033000
00000000
00000000
,
00001000
00000100
00000010
00000001
00000100
00000010
00001000
00000000
,
00010000
00100000
01000000
10000000
00100000
01000000
00010000
00000000
,
02000000
00000000
00000000
03002000
00000000
00000000
00013000
00001000
,
00020000
00000000
00000100
00000000
00000100
00000000
00030100
00001000
,
00000100
00000010
00000001
00000100
00000010
00001000
00000100
00000000
,
00010000
00001000
00100000
00010000
00100000
01000000
10000000
00100000
,
01100000
00000000
10100000
00000000
10000000
02000000
00000000
00010000
,
00000000
10000000
13000000
00000000
10000000
00100000
01000000
00000000
,
01010000
00000000
00011000
00000000
00001200
00000000
00000010
00000010
,
00000000
00000000
00001300
00000000
00000000
00000000
00000010
00001000
00000010
00000000
00001000
00000000
00000000
00000000
00010100
00000000
,
00000000
00010000
00100000
01000000
10000000
01000000
00010000
02000000
,
00000000
10000000
13000000
00000000
10000000
00010000
01000000
00000000
,
01001000
00000000
00011000
00000000
00010000
00000020
00000000
00000230
,
00000000
00001000
00000000
00000301
00000010
00000100
00000000
00000120
,
00000000
00000000
00000001
00000000
00000001
00000000
00000031
00000100
,
00000020
00000000
00001030
00000000
00000100
00010000
00001000
00100000
,
02100000
00000000
00000000
00000000
13000000
01000000
00100000
00010000
,
00011000
00001000
00010000
00100000
01000000
10000000
00100000
01000000
,
00010000
00000000
00011000
00000000
00001000
00010000
00000100
00001000
,
00001100
00000100
00000010
00000001
00000100
00001000
00000100
00000001
,
00000010
00000100
00000110
00000000
00000010
00000001
00001000
00000010
,
00001010
00001000
00000100
00010000
00001000
00010000
00100000
10000000
,
00100000
00010000
01010000
00000000
01000000
00100000
10000000
00100000
,
01100000
01000000
00010000
10000000
01000000
00100000
00010000
00001000
,
00011000
00010000
00001000
00100000
01000000
10000000
00100000
10100000
,
00000000
10010000
00000000
01010000
00000000
01000000
00001000
00010000
,
00000000
00011000
00000000
00001100
00000000
00000100
00000010
00000001
,
00000000
00000011
00000000
00000110
00000000
00000100
00010000
00001000
,
00012000
00000000
00010000
00000000
00013000
00001000
00100000
00101000
,
00000000
01100000
00000000
11000000
00000000
10000000
00010000
01000000
,
00000000
01001000
00000000
00001000
00010000
00001000
00001000
00000000
,
00010000
00000200
00000000
00002300
00000000
00003020
00000000
00000130
,
00000001
00000000
00000101
00000000
00000100
00000010
00001000
00000100
,
00001100
00001000
00010000
00100000
01000000
10000000
00100000
01000000
,
00010000
00000000
01010000
00000000
01000000
10000000
01000000
00010000
,
01000000
00100000
10000000
01000000
00100000
00010000
00001000
00000100
,
00000010
00000100
00001000
00000000
00000001
00000100
00001000
00000100
,
00000101
00000001
00000010
00000100
00001000
00010000
00100000
00010000
,
00001000
00000000
00001100
00000000
00000100
00001000
00010000
00100000
,
01100000
01000000
10000000
00100000
01000000
00010000
10000000
01000000
,
01100000
00100000
00010000
00001000
00010000
00000100
00001000
00010000
,
00011000
00000000
00000000
00000000
;
