#TITLE:High Tech Jazz;
#SUBTITLE:;
#ARTIST:tigerlily;
#TITLETRANSLIT:;
#SUBTITLETRANSLIT:;
#ARTISTTRANSLIT:;
#GENRE:;
#CREDIT:;
#BANNER:High Tech Jazz.png;
#BACKGROUND:High Tech Jazz-bg.png;
#LYRICSPATH:;
#CDTITLE:;
#MUSIC:High Tech Jazz.ogg;
#OFFSET:-0.033212;
#SAMPLESTART:36.099937;
#SAMPLELENGTH:15.000000;
#SELECTABLE:YES;
#DISPLAYBPM:133.000000;
#BPMS:0.000000=133.000000
,240.000000=66.500000
,240.250000=133.000000
,240.500000=266.000000
,241.000000=133.000000
;
#STOPS:
;
#BGCHANGES:;
#KEYSOUNDS:;
#ATTACKS:;

//---------------dance-single - ----------------
#NOTES:
     dance-single:
     :
     Hard:
     13:
     0.587941,0.626722,0.272237,0.296258,0.460401,514.000000,480.000000,34.000000,37.000000,0.000000,0.000000,0.587941,0.626722,0.272237,0.296258,0.460401,514.000000,480.000000,34.000000,37.000000,0.000000,0.000000:
0000
0000
0000
0000
,
0000
0000
0000
0000
,
0000
0000
0000
0000
,
0000
0000
0000
0000
,
1000
0000
0000
1000
0000
0000
0100
0000
0000
0100
0000
0000
1000
0000
0001
0000
,
0100
0000
0000
0100
0000
0000
0001
0000
0000
0001
0000
0001
0100
0000
0010
0000
,
1000
0000
0000
1000
0000
0000
0010
0000
0000
0010
0000
0000
1000
0000
0001
0000
,
0010
0000
0000
0010
0000
0000
0001
0000
0000
1000
0000
0001
0010
0000
0100
0000
,
2000
0000
0000
0000
3100
0000
0000
0010
0000
0010
0000
0000
0100
0000
1000
0000
,
0002
0000
0000
0000
0103
0000
0000
0010
0000
0010
0000
0000
1000
0000
0001
0000
,
2000
0000
0000
0000
3100
0000
0000
0010
0000
0010
0000
0000
0100
0000
1000
0000
,
0002
0000
0000
0000
0103
0000
0000
0000
0001
0000
0001
0000
1000
0020
0000
0000
,
0130
0000
0001
0000
0010
0000
0001
1000
0000
1000
0000
0000
0001
0000
1000
0000
,
0100
0000
1000
0000
0010
0000
1000
0001
0000
0001
0000
0000
0100
0000
0010
0000
,
1000
0000
0010
0000
0001
0000
0010
0100
0000
0100
0000
0000
0001
0000
1000
0000
,
0100
0001
0100
0010
0002
1003
0002
1003
,
0010
0000
0010
0000
1000
0010
0000
0000
0100
0000
0010
0000
1000
0000
0000
0000
,
0101
0000
0000
0000
1010
0000
0000
0000
1000
0000
0001
0000
1000
0100
0000
0000
,
0010
0000
0010
0000
0001
0010
0000
0000
0100
0000
0010
0000
0001
0000
0000
0000
,
1100
0000
0000
0000
0011
0000
0000
0000
0001
0000
1000
0000
0010
0100
0000
0000
,
0010
0000
0010
0000
1000
0010
0000
0000
0100
0000
0001
0000
0010
0000
0000
0000
,
1010
0000
0000
0000
0011
0000
0000
0000
0010
0000
0001
0000
1000
0100
0000
0000
,
0010
0000
0010
0000
0001
0010
0000
0000
0100
0000
1000
0000
0001
0000
1000
0000
,
1100
0000
0000
0000
0101
0000
0000
0000
0200
0000
0010
0000
0000
0310
0000
0000
,
1000
0001
0100
0001
1000
0100
1000
0001
,
0010
0000
0000
0010
0001
0000
0000
0001
1000
0000
1000
0000
1000
0000
0001
0100
,
0000
0001
0010
0001
1000
0010
1000
0001
,
0100
0000
0000
0010
0100
0000
0000
0100
0001
0000
0001
0000
0001
0000
1000
0001
,
1000
0010
0100
0001
0010
0100
1000
0001
,
0010
0000
0000
0010
0100
0000
0000
0100
0010
0000
0010
0000
0010
0000
0001
1000
,
0000
0001
0100
0010
1000
0100
0010
0001
,
0100
0000
0000
0010
0100
0000
0000
0100
0001
0000
0100
0000
0010
0000
1000
0000
,
0001
0010
0011
0001
1000
0010
1010
1000
,
0001
0000
0001
0100
0002
0000
0000
0000
0013
0000
0010
0000
0010
0000
0001
2000
,
0000
0000
3100
0000
0100
0010
0000
0010
0001
0000
0100
0000
0110
0000
0010
0000
,
1000
0000
1000
0010
2000
0000
0000
0000
3100
0000
0100
0000
0100
0000
0010
0002
,
0000
1003
1010
0010
0100
0001
0011
0010
,
0100
0000
0100
1000
0002
0000
0000
0000
0013
0000
0010
0000
0010
0000
0100
2000
,
0000
0000
3001
0000
0001
0100
0000
0100
0010
0000
1000
0000
1100
0000
0100
0000
,
0010
0000
0010
0001
2000
0000
0000
0000
3001
0000
0100
0000
0010
0000
0100
0010
,
1000
0000
1000
0000
0100
2000
0000
0000
3001
0000
0001
0000
1000
0002
0000
0000
,
0013
0000
0010
0000
0001
0020
0000
0000
0130
0000
0100
0000
1000
0000
0001
0000
,
0100
0000
0100
0000
0001
0200
0000
0000
0301
0000
0001
0000
1000
0002
0000
0000
,
1003
0000
1000
0000
0010
2000
0000
0000
3001
0000
1001
0000
1000
0000
1001
0000
,
0001
0000
0001
0000
0010
0002
0000
0000
0013
0000
0010
0000
0100
0020
0000
0000
,
0130
0000
0100
0000
1000
0200
0000
0000
1300
0000
1000
0000
0001
0000
0100
0000
,
0010
0000
0010
0000
1000
0020
0000
0000
0130
0000
0100
0000
0010
0200
0000
0000
,
0301
0000
0001
0000
0100
0002
0000
0000
0103
0000
0010
0000
1001
0000
0000
0000
,
1100
0000
0000
1001
0000
0000
1000
0100
0000
0000
1000
0000
0001
0000
1000
0000
,
1010
0000
0000
0110
0000
0000
0000
0100
0010
0000
0100
0001
1000
0000
0001
0000
,
0101
0000
0000
1001
0000
0000
1000
0001
0010
0000
0010
0100
1000
0000
0001
0000
,
0011
0000
0000
0110
0000
0000
0000
0100
1000
0000
0001
0000
0100
0010
0000
0010
,
1000
0000
0000
1001
0000
0000
0001
0100
0010
0000
0100
0000
0001
0000
1000
0000
,
1100
0000
0000
0110
0000
0000
0000
0100
0000
0010
0000
0001
0000
1000
0001
0000
,
1001
0000
0000
1001
0000
0000
0000
0001
0100
0000
0001
1000
0000
0010
1000
0000
,
0110
0000
0000
0110
0000
0000
1001
0000
0000
2002
0000
0000
3003
0000
0000
0000
,
1000
0000
0001
0000
0100
0000
0000
0001
0000
0002
0000
0000
1003
0000
0000
0000
,
0001
0000
1000
0000
0100
0000
0000
1000
0000
2000
0000
0000
3001
0000
0001
1000
,
0001
0000
0010
0000
0100
0000
0000
0010
0000
0020
0000
0000
0031
0000
0000
0000
,
1000
0000
0010
0000
0100
0000
0000
0000
0100
0000
0010
0100
0000
0010
1000
0001
,
2000
0000
0000
0000
3100
0000
0010
0001
0000
0001
0000
0000
0010
0000
0100
0000
,
1000
0000
0100
0000
0001
0000
0100
0010
0000
0010
0000
0000
0100
0000
1000
0000
,
0002
0000
0000
0000
0103
0000
0010
1000
0000
1000
0000
0000
0010
0000
0100
0000
,
0001
0000
0100
0000
2000
0000
0000
0000
3100
0000
0100
0000
0001
1000
0000
0000
,
0001
0000
0010
0000
0100
0000
0010
0001
0000
0001
0000
0000
1000
0000
0001
0000
,
1000
0000
0010
0000
0100
0000
0010
1000
0000
1000
0000
0000
0001
0000
1000
0000
,
0001
0000
0010
0000
1000
0000
0010
0100
0000
0100
0000
0000
1000
0000
0001
0000
,
1000
0010
0001
0010
2000
3001
2000
3001
,
0100
0010
0000
0000
0000
0000
0000
0000
0000
0000
0000
0000
0000
0000
0000
0000
;

//---------------dance-single - ----------------
#NOTES:
     dance-single:
     :
     Challenge:
     14:
     0.672587,0.653970,0.584510,0.368321,0.632552,588.000000,515.000000,73.000000,46.000000,0.000000,0.000000,0.672587,0.653970,0.584510,0.368321,0.632552,588.000000,515.000000,73.000000,46.000000,0.000000,0.000000:
0000
0000
0000
0000
,
0000
0000
0000
0000
,
0000
0000
0000
0000
,
0000
0000
0000
0000
,
1200
0000
0000
0310
0000
0000
0021
0000
0000
0130
0000
0000
1000
0000
0001
0000
,
0201
0000
0000
0310
0000
0000
2010
0000
0000
3001
0000
0001
0100
0000
0010
0000
,
0210
0000
0000
0301
0000
0000
1002
0000
0000
0013
0000
0000
0100
0000
0010
0000
,
0210
0000
0000
1300
0000
0000
2001
0000
0000
3100
0000
0100
1000
0000
0001
0000
,
0200
0000
0000
0000
0301
0000
0000
1000
0000
1000
0000
1000
0001
0000
0010
0000
,
0200
0000
0000
0000
1300
0000
0000
0001
0000
0001
0000
0001
1000
0000
0010
0000
,
0200
0000
0000
0000
0301
0000
0000
0010
0000
0010
0000
0010
0001
0000
1000
0000
,
0200
0000
0000
0000
1300
0000
0000
0000
1200
0000
0310
0000
0010
0002
0000
0000
,
1003
0000
0100
0000
0001
0000
0100
1000
0000
1000
0000
1000
0010
0000
0100
0000
,
0001
0000
0100
0000
1000
0000
0100
0001
0000
0001
0000
0001
0010
0000
0100
0000
,
1000
0000
0100
0000
0001
0000
0100
0010
0000
0010
0000
0010
0001
0000
1000
0000
,
0001
0100
0110
0000
0102
1003
2100
3001
,
0010
0000
0010
0000
0100
0010
0000
0000
0001
0000
1000
0000
1010
0000
0000
0000
,
0021
0000
0000
0000
1030
0000
0000
0000
0001
0000
0010
0000
0001
2000
0000
0000
,
3010
0000
0010
0000
0100
0010
0000
0000
1000
0000
0100
0000
1100
0000
0000
0000
,
0201
0000
0000
0000
1300
0000
0000
0000
0001
0000
1000
0000
0001
0200
0000
0000
,
0310
0000
0010
0000
0100
0010
0000
0000
1010
0000
1000
0000
1100
0000
0000
0000
,
0012
0000
0000
0000
0103
0000
0000
0000
0100
0000
0001
0000
1000
0100
0000
0000
,
0010
0000
0010
0000
0100
0010
0000
0000
0011
0000
0001
0000
0101
0000
0000
0000
,
1100
0000
0100
0000
0010
0001
0000
0001
1000
0000
0001
0100
0000
0100
0010
1000
,
0001
0000
0100
0000
0010
0100
0000
0100
0001
0000
0010
0000
0100
0000
0010
0000
,
0001
0000
0001
1000
0001
0000
0001
0100
0001
0000
0001
0000
1000
0000
0001
0200
,
0000
0000
0301
0000
1000
0100
0000
0110
0000
0000
0100
0000
1000
0000
0010
0000
,
0100
0000
0100
0001
0100
0001
0000
0001
1000
0000
1000
0000
0001
0000
0010
0200
,
0000
0000
0310
0000
0001
0010
0000
0010
0100
0000
1000
0000
0001
0000
0100
0000
,
0010
0000
0010
1000
0010
0000
0010
0100
0001
0000
0001
0000
1000
0000
0001
0200
,
0000
0000
0301
0000
1000
0001
0000
1001
0000
0000
0001
0000
0100
0000
0010
0000
,
1000
0000
1000
0001
1000
0000
1000
0100
0010
0100
0010
0001
1000
0000
0001
1000
,
0010
0100
0101
0001
0010
0100
1100
1000
,
0001
0010
0000
0001
0010
0001
0000
0010
0001
0000
0001
0000
0001
0000
1000
0200
,
0000
1300
1010
0010
0100
0001
0011
0010
,
0100
0000
1000
0100
1000
0000
0100
1000
0010
0000
0010
0000
0110
0000
0010
0200
,
0000
0301
1001
1000
0100
0010
0110
0100
,
1000
0010
0000
1000
0010
1000
0000
0010
1000
0000
1000
0000
1000
0000
0001
0200
,
0000
0310
0110
0100
0001
1000
1001
0001
,
0010
0000
0010
0001
1000
0001
0000
0000
0100
0000
0100
0000
0001
0000
1000
0000
,
1100
0000
0100
0000
1000
0100
0000
0000
1001
0000
0001
0000
1000
0001
0000
0000
,
1010
0000
0010
0000
1000
0010
0000
0000
0100
0000
0010
0000
1000
0000
0000
0000
,
0101
0000
0100
0000
0001
0100
0000
0000
1001
0000
1000
0000
0001
1000
0000
0000
,
0011
0000
0010
0000
0001
0010
0000
0000
0100
0000
0100
0000
1000
0000
0001
0000
,
0101
0000
0001
0000
0100
0001
0000
0000
1001
0000
1000
0000
0001
1000
0000
0000
,
1010
0000
0010
0000
1000
0010
0000
0000
0100
0000
0001
0000
0010
0000
0000
0000
,
1100
0000
0100
0000
1000
0100
0000
0000
0110
0000
0010
0000
0100
0010
0000
0000
,
0011
0000
0001
0000
0010
0002
0000
0000
1003
0000
0100
0000
0001
0100
0000
0000
,
0110
0000
0000
0110
0000
0000
0100
1000
0001
0000
0001
1000
0001
0100
0010
0000
,
0110
0000
0000
0110
0000
0000
0000
0010
0000
1000
0000
0001
1000
0001
0010
0000
,
0011
0000
0000
1010
0000
0000
1000
0010
0000
0100
0000
0001
0000
0001
1000
0000
,
1100
0000
0000
0000
0000
0000
0000
0000
0000
0101
0000
0000
0000
0000
0000
0000
0000
0000
0001
0000
1000
0000
0001
0000
1000
0000
0000
0000
0000
0000
0100
0000
0000
0000
0000
0000
0010
0000
0000
0001
0000
0000
0000
0000
0000
0001
0000
0000
,
1000
0000
0000
0110
0000
0000
0001
0010
0100
0000
1000
0000
0001
0010
0100
0000
,
1001
0000
0000
1001
0000
0000
0000
0001
0000
0100
0000
0010
0000
0010
1000
0000
,
1010
0000
0000
0011
0000
0000
0000
0001
0010
0000
1000
0100
0000
0001
1000
0000
,
1100
0000
0000
0011
0000
0000
0101
0000
0000
1010
0000
0010
0100
0010
0100
0010
,
2000
0000
0000
0000
3200
0000
0000
0310
0000
0010
0100
0000
0002
0000
0000
0000
,
0203
0000
0000
0000
2300
0000
0000
3001
0000
0001
0100
0000
0020
0000
0000
0000
,
2030
0000
0000
0000
3200
0000
0000
0310
0000
0010
0100
0000
0002
0000
0000
0000
,
0203
0000
0000
0000
1300
0000
0000
0000
1000
0100
1000
0001
0000
1000
0001
0010
,
0002
0000
0000
0000
0103
0000
0010
1000
0000
1010
0000
1000
0001
0000
0010
0000
,
0100
0000
1000
0000
1001
0000
1000
0100
0000
1100
0000
1000
0001
0000
0010
0000
,
0002
0000
0000
0000
0103
0000
0100
0001
0000
0011
0000
0010
0001
0000
1000
0000
,
0010
0000
1000
0000
0001
0000
0000
0001
0100
0000
0101
0000
0100
0020
0000
0000
,
2030
0000
0000
0000
3100
0000
0010
0001
0000
0011
0000
0010
0001
0000
1000
0000
,
0010
0000
1000
0000
1001
0000
0001
0100
0000
0101
0000
0001
1000
0000
0010
0000
,
2000
0000
0000
0000
3100
0000
0100
0010
0000
0110
0000
0000
0100
0000
1000
0000
,
0002
0000
1003
0000
2100
3001
0102
1003
,
1000
0010
0000
0000
0000
0000
0000
0000
0000
0000
0000
0000
0000
0000
0000
0000
;

//---------------dance-single - ----------------
#NOTES:
     dance-single:
     :
     Medium:
     10:
     0.404925,0.435980,0.296258,0.184161,0.192168,354.000000,317.000000,37.000000,23.000000,0.000000,0.000000,0.404925,0.435980,0.296258,0.184161,0.192168,354.000000,317.000000,37.000000,23.000000,0.000000,0.000000:
0000
0000
0000
0000
,
0000
0000
0000
0000
,
0000
0000
0000
0000
,
0000
0000
0000
0000
,
1000
1100
0100
0110
,
0010
0000
0011
0000
0001
0000
1000
0001
,
1000
1010
0010
0110
,
0100
0000
0101
0000
0001
0000
1000
0001
,
0010
0000
0000
0000
0001
0000
0000
0010
0000
0010
0000
0000
0001
0000
0000
0000
,
1000
0000
0000
0000
0010
0000
0000
1000
0000
1000
0000
0000
0010
0000
0000
0000
,
0100
0000
0000
0000
0001
0000
0000
0100
0000
0100
0000
0000
0001
0000
0000
0000
,
1000
0000
0000
0000
0100
0000
0000
0000
1000
0000
1000
0000
0000
0100
0000
0000
,
1000
0000
0000
0000
0010
0000
0000
0100
0000
0100
0000
0000
0010
0000
1000
0000
,
0001
0000
0000
0000
0010
0000
0000
0100
0000
0100
0000
0000
0010
0000
0001
0000
,
1000
0000
0000
0000
0100
0000
0000
0010
0000
0010
0000
0000
0100
0000
1000
0000
,
0001
0000
0100
0000
0020
0030
0020
0030
,
1000
0000
1000
0000
0000
1000
0000
0000
0001
0000
0000
0000
0010
0000
0000
0000
,
1100
0000
0000
0000
0011
0000
0000
0000
0010
0000
0100
0000
0000
0100
0000
0000
,
1000
0000
1000
0000
0000
1000
0000
0000
0001
0000
0000
0000
0100
0000
0000
0000
,
1010
0000
0000
0000
0101
0000
0000
0000
0100
0000
0010
0000
0000
0100
0000
0000
,
0001
0000
0001
0000
0000
0001
0000
0000
1000
0000
0000
0000
0100
0000
0000
0000
,
0011
0000
0000
0000
1010
0000
0000
0000
0010
0000
0100
0000
0000
0100
0000
0000
,
0001
0000
0001
0000
0000
0001
0000
0000
1000
0000
0000
0000
0010
0000
0000
0000
,
0101
0000
1100
0000
0001
1000
0001
0000
,
0100
0010
1000
0010
,
0100
0001
1000
0000
0100
1000
0001
0000
,
0010
0001
1000
0001
,
1000
0010
0100
0000
0001
0010
0100
0000
,
1000
0001
0100
0001
,
0010
0001
1000
0000
0010
1000
0001
0000
,
0010
0100
1000
0100
,
0010
0001
0100
0000
0010
1000
0100
0000
,
1000
1100
1001
1100
,
0100
0010
0001
0000
0001
0010
0100
0000
,
1000
1010
1001
1010
,
0010
0100
0001
0000
0001
0100
0010
0100
,
0001
0101
1001
0101
,
0100
0010
1000
0000
1000
0010
0100
0000
,
0001
0011
1001
0011
,
0110
0000
1001
0000
0001
0100
0010
1000
,
0001
0000
0001
0000
0000
0001
0000
0000
1000
0000
1000
0000
0000
1000
0000
0000
,
0001
0000
0001
0000
0000
0001
0000
0000
1000
0000
0000
0000
0100
0000
0000
0000
,
0010
0000
0010
0000
0000
0010
0000
0000
0100
0000
0100
0000
0000
0100
0000
0000
,
0010
0000
0010
0000
0000
0010
0000
0000
0100
0000
0000
0000
1000
0000
0000
0000
,
0001
0000
0001
0000
0000
0001
0000
0000
0100
0000
0100
0000
0000
0100
0000
0000
,
0010
0000
0010
0000
0000
0010
0000
0000
1000
0000
0000
0000
0001
0000
0000
0000
,
1000
0000
1000
0000
0000
1000
0000
0000
0100
0000
0100
0000
0000
0100
0000
0000
,
0010
0000
0010
0000
0000
0010
0000
0000
0100
0000
1000
0000
0001
0000
0000
0000
,
0020
0000
0000
0002
0000
0000
0000
0000
0033
0000
0000
0000
0001
0000
1000
0000
,
0020
0000
0000
2000
0000
0000
0000
0000
3030
0000
0000
0000
1000
0000
0001
0000
,
0020
0000
0000
0200
0000
0000
0000
0000
0330
0000
0000
0000
0100
0000
1000
0000
,
0020
0000
0000
0200
0000
0000
0000
0000
0330
0000
0000
0000
1001
0000
0000
0000
,
0002
0000
0000
0013
0000
0000
0000
0000
0001
0000
0010
0000
0100
0000
0000
0000
,
2000
0000
0000
3010
0000
0000
0000
0000
0100
0000
0010
0000
1000
0000
0000
0000
,
0002
0000
0000
1003
0000
0000
0000
0000
1000
0000
0001
0000
0010
0000
0000
0000
,
0200
0000
0000
0310
0000
0000
0010
0000
0000
0000
2002
0000
0000
0000
0000
0000
,
3003
0102
2003
3100
,
0002
0103
2000
3100
,
0002
0013
2000
3010
,
0002
0000
0013
0000
0010
0100
0010
0100
,
0010
0000
0000
0000
0001
0000
0000
0100
0000
0100
0000
0000
0001
0000
0000
0000
,
0010
0000
0000
0000
0100
0000
0000
1000
0000
1000
0000
0000
0100
0000
0000
0000
,
1000
0000
0000
0000
0001
0000
0000
0010
0000
0010
0000
0000
0001
0000
0000
0000
,
0001
0000
0000
0000
1000
0000
0000
0000
0010
0000
0010
0000
0000
0100
0000
0000
,
1000
1100
0100
0110
,
0010
0000
0011
0000
0001
0000
0001
1000
,
0001
0101
0100
0110
,
0010
0000
1001
0000
1000
0100
0001
0000
,
0100
0010
0000
0000
0000
0000
0000
0000
0000
0000
0000
0000
0000
0000
0000
0000
;

//---------------dance-single - ----------------
#NOTES:
     dance-single:
     :
     Easy:
     6:
     0.258511,0.299461,0.136119,0.144126,0.000000,226.000000,209.000000,17.000000,18.000000,0.000000,0.000000,0.258511,0.299461,0.136119,0.144126,0.000000,226.000000,209.000000,17.000000,18.000000,0.000000,0.000000:
0000
0000
0000
0000
,
0000
0000
0000
0000
,
0000
0000
0000
0000
,
0000
0000
0000
0000
,
1000
0100
1000
0100
,
0010
0001
0010
0001
,
0100
0001
0100
0001
,
1000
0010
1000
0010
,
0100
0010
1000
0000
,
0100
0010
1000
0001
,
0100
0010
1000
0000
,
0100
0010
0100
0001
,
0010
0100
1000
0000
,
0010
0100
1000
0001
,
0010
0100
1000
0000
,
0010
0100
1000
1000
,
0001
0000
0001
0100
,
0010
0010
0100
0001
,
1000
0000
1000
0100
,
0010
0010
0100
1000
,
0001
0000
0001
1000
,
0010
0010
0100
0001
,
1000
0000
1000
0001
,
0010
0010
0200
0300
,
0010
0010
0001
0001
,
1000
0100
1100
0000
,
1000
1000
0010
0010
,
0100
0001
0101
0000
,
0001
0010
0100
0010
,
0001
1000
1010
0000
,
1000
0010
0100
0010
,
1000
0001
0011
0000
,
1000
0100
0010
0100
,
1000
1000
1100
0100
,
0010
0001
0100
0001
,
0010
0010
0011
0001
,
1000
0010
0100
0001
,
1000
1000
1010
0010
,
0100
0001
1000
0010
,
0100
0100
0101
0001
,
2000
3000
2000
3000
,
2000
3000
0100
0010
,
0002
0003
0002
0003
,
0002
0003
0001
0010
,
0200
0300
0200
0300
,
0200
0300
1000
0001
,
0020
0030
0020
0030
,
0020
0030
0001
1000
,
1001
0000
0000
0100
,
0110
0000
0000
0010
,
1010
0000
0000
0010
,
0011
0000
0000
0100
,
1001
0000
0000
0010
,
0110
0000
0000
0100
,
1100
0000
0000
0000
,
2002
0000
0000
3003
,
0001
0100
0010
0000
,
0001
0100
0010
0000
,
1000
0100
0010
0000
,
1000
0200
0000
0300
,
2000
3001
0100
0001
,
0010
0001
0100
0100
,
0001
1000
0100
1000
,
0010
0010
0100
0001
,
1000
0100
0010
0001
,
0010
0010
0100
1000
,
0001
0100
0010
1000
,
0001
1000
0200
0310
,
1001
0000
0000
0000
;
