#VERSION:0.83;
#TITLE:Hero [Club-MIX];
#SUBTITLE:;
#ARTIST:朝日奈 夕子;
#TITLETRANSLIT:;
#SUBTITLETRANSLIT:;
#ARTISTTRANSLIT:YUUKO ASAHINA;
#GENRE:;
#ORIGIN:;
#CREDIT:;
#BANNER:Hero [Club-MIX].png;
#BACKGROUND:Hero [Club-MIX]-bg.png;
#PREVIEWVID:;
#JACKET:Hero [Club-MIX]-jacket.png;
#CDIMAGE:;
#DISCIMAGE:;
#LYRICSPATH:;
#CDTITLE:;
#MUSIC:Hero [Club-MIX].ogg;
#OFFSET:1.470000;
#SAMPLESTART:44.199001;
#SAMPLELENGTH:15.000000;
#SELECTABLE:YES;
#BPMS:0.000=139.920;
#STOPS:;
#DELAYS:;
#WARPS:;
#TIMESIGNATURES:0.000=4=4;
#TICKCOUNTS:0.000=4;
#COMBOS:0.000=1;
#SPEEDS:0.000=1.000=0.000=0;
#SCROLLS:0.000=1.000;
#FAKES:;
#LABELS:0.000=Song Start;
#BGCHANGES:;
#KEYSOUNDS:;
#ATTACKS:
;

//---------------dance-single - ----------------
#NOTEDATA:;
#CHARTNAME:;
#STEPSTYPE:dance-single;
#DESCRIPTION:;
#CHARTSTYLE:;
#DIFFICULTY:Hard;
#METER:13;
#RADARVALUES:0.587340,0.761450,0.236545,0.000000,0.444930,365.000000,344.000000,21.000000,0.000000,0.000000,0.000000,0.000000,0.000000,0.000000,0.587340,0.761450,0.236545,0.000000,0.444930,365.000000,344.000000,21.000000,0.000000,0.000000,0.000000,0.000000,0.000000,0.000000;
#CREDIT:Kekkle;
#NOTES:
0000
0000
0000
0000
,
0000
0000
0000
0000
,
0000
0000
0000
0000
,
0000
0000
0000
0000
,
0000
0000
0000
0000
,
0000
0000
0000
0000
,
0000
0000
0000
0000
,
0001
1000
0001
0000
0010
0000
0000
0100
0000
0001
0000
0001
0100
0000
1000
0000
,
0001
1000
0001
0000
0100
0000
0000
0010
0000
0001
0000
0001
0010
0000
1000
0000
,
0001
1000
0001
0000
0010
0000
0000
0100
0000
0001
0000
0001
0100
0000
1000
0000
,
0010
0000
0010
0000
1001
0000
0001
0100
0000
1000
0100
0000
0010
0000
1000
0000
,
1001
0001
0010
0100
0001
1000
0000
0010
,
0000
0001
1000
0010
0100
1000
0000
0100
,
0001
1000
0100
0010
0001
1000
1000
1000
,
0001
0100
0000
1000
0000
0010
0000
0000
,
1001
1000
0100
0010
1000
0001
0000
0100
,
0000
1000
0010
0100
1000
0001
0000
0010
,
1000
0001
0010
0100
0010
0001
0001
0001
,
1000
0000
0100
0000
0000
0000
0001
0000
0000
0000
0010
0000
1000
0001
1000
0001
,
0010
0001
1000
0010
0100
1000
0000
0100
,
0001
0000
1000
0000
0010
0100
0000
0000
,
0001
0000
1000
0010
0000
0001
0010
1000
,
0001
0010
0000
1000
0000
0100
0000
1001
,
1001
0001
0100
0010
0001
1000
0000
0100
,
0001
0000
1000
0000
0100
0010
0000
0000
,
0001
0100
0010
1000
0001
1000
0100
0010
,
0001
1000
0001
0000
1000
0000
0010
0100
0000
0100
0010
0000
1000
0001
0010
0000
,
1001
0000
0000
0000
0001
0000
0000
0001
0100
0000
1000
0000
0000
0000
0100
0000
,
0000
0000
0001
0000
1000
0100
1000
0100
0000
0000
0000
0000
0010
0000
0000
0000
,
0010
0000
0001
0000
1000
0000
0010
0000
0001
0000
0000
0010
0000
0000
1000
0000
,
0001
0010
1000
0100
,
1001
0000
0000
0000
1000
0000
0000
1000
0100
0000
0001
0000
0000
0000
0100
0000
,
0000
0000
1000
0000
0001
0000
0001
0100
0000
0000
0000
0000
0010
0000
0000
0000
,
0010
0000
0100
0000
1000
0100
0001
1000
,
0100
0001
0010
1000
,
1001
0000
0001
0000
1000
0000
0000
0001
0010
0000
1000
0000
0010
0000
0100
0000
,
1000
0000
0001
0000
0100
0000
0100
0010
0000
0000
0000
0000
0100
0000
0110
0000
,
1001
0000
0001
0000
0100
0000
0010
0000
0001
0000
0000
0010
0000
0000
1000
0000
,
1100
0000
0000
0000
0101
0000
0000
0001
1000
0001
1000
0100
0010
0100
0010
0000
,
1001
0000
1000
0000
0001
0000
0000
1000
0100
0000
0001
0000
0100
0000
0010
0000
,
0001
0000
1000
0000
0010
0000
0010
0100
0000
0000
0000
0000
0010
0000
0110
0000
,
1001
0000
0001
0100
1000
0100
0010
1000
,
1010
0000
0000
0000
0011
0000
0000
0001
1000
0001
1000
0010
0100
0010
0100
0000
,
0010
1000
0001
0000
1000
0000
0100
0010
0000
0010
0000
0001
1000
0001
1000
0000
,
0001
0010
0100
0000
1000
0000
0001
0010
0000
0010
0000
0001
1000
0001
1000
0000
,
0100
0010
0001
0000
1000
0000
0010
0100
0000
0100
0000
0001
1000
0001
1000
0000
,
0001
1000
0100
0000
0010
0000
0001
1000
0001
0100
0001
0100
0010
1000
0010
1000
,
0001
1000
0100
0000
1000
0000
0100
0010
0000
0010
0000
0001
1000
0001
0100
0000
,
0010
1000
0001
0000
1000
0000
0100
0010
0000
0010
0000
0001
1000
0001
0010
0000
,
0100
1000
0001
0000
0010
0000
0100
1000
0000
1000
0000
0001
1000
0001
0100
0000
,
0001
0101
0000
1000
1100
0000
0001
0011
,
0000
0000
1000
0000
1010
0000
0000
0000
0001
1000
0000
0010
0000
0010
0000
0010
,
0100
0000
0000
0000
;

//---------------dance-double - ----------------
#NOTEDATA:;
#CHARTNAME:;
#STEPSTYPE:dance-double;
#DESCRIPTION:;
#CHARTSTYLE:;
#DIFFICULTY:Hard;
#METER:13;
#RADARVALUES:0.576076,0.702877,0.270337,0.000000,0.388610,358.000000,334.000000,24.000000,0.000000,0.000000,0.000000,0.000000,0.000000,0.000000,0.576076,0.702877,0.270337,0.000000,0.388610,358.000000,334.000000,24.000000,0.000000,0.000000,0.000000,0.000000,0.000000,0.000000;
#CREDIT:Kekkle;
#NOTES:
00000000
00000000
00000000
00000000
,
00000000
00000000
00000000
00000000
,
00000000
00000000
00000000
00000000
,
00000000
00000000
00000000
00000000
,
00000000
00000000
00000000
00000000
,
00000000
00000000
00000000
00000000
,
00000000
00000000
00000000
00000000
,
10000000
00010000
10000000
00000000
00010000
00000000
00010000
01000000
00000000
00000000
00001000
00000000
00010000
00000000
00000010
00000000
,
00001000
00000001
00001000
00000000
00000001
00000000
00000001
00000010
00000000
00000000
00000100
00000000
00010000
00000000
00001000
00000000
,
01000000
00010000
01000000
00000000
00100000
00000000
00100000
10000000
00000000
00000000
00010000
00000000
01000000
00000000
00001000
00000000
,
00010000
00000000
00010000
00000000
00011000
00000000
00000000
00000010
00000000
00000010
00001000
00000000
00000010
00000000
00000100
00000000
,
00001001
00000001
00000100
00000010
00000100
00001000
00000000
00010000
,
00000000
00100000
10000000
01000000
00100000
01000000
00000000
00100000
,
00010000
10000000
00010000
00100000
00001000
00010000
00100000
10000000
,
01000000
00010000
00000000
00000010
00000000
00000100
00000000
00000000
,
00001001
00000001
00000010
00000100
00000010
00001000
00000000
00010000
,
00000000
01000000
10000000
00100000
01000000
00100000
00000000
10000000
,
00010000
01000000
00100000
01000000
00001000
00100000
00001000
00010000
,
01000000
00000000
10000000
00000000
00000000
00000000
00100000
00000000
00000000
00000000
00010000
00000000
00001000
00010000
00001000
00010000
,
00001000
00010000
00000100
00000010
00000100
00001000
00000000
00000001
,
00000100
00000000
00010000
00000000
00001000
00000010
00000000
00000000
,
00010010
00000000
00000000
00101000
00000000
00000000
11000000
00000000
,
10000000
01000000
00000000
00001000
00000000
00010000
00000000
00110000
,
00101000
00001000
01000000
00100000
10000000
00010000
00000000
01000000
,
00100000
00000000
00001000
00000000
00000010
00000100
00000000
00000000
,
00000001
00000100
00010000
00001000
00100000
10000000
00010000
00000000
,
00100000
00000000
01000000
00000000
00010000
00000000
00001000
00010000
00000000
00010000
00000010
00000000
00000100
00000000
00000010
00000000
,
00001001
00000000
00000000
00000000
00010010
00000000
00000000
00000010
00000100
00000000
00001000
00000000
00000000
00000000
00010000
00000000
,
00000000
00000000
00100000
00000000
10000000
00010000
10000000
00010000
00000000
00000000
00000000
00000000
00100000
00000000
00000000
00000000
,
00100000
00000000
00010000
00000000
01000000
00000000
00100000
00000000
00010000
00000000
00000000
00001000
00000000
00000000
00000100
00000000
,
00000001
00001000
00010000
10000000
,
10010000
00000000
00000000
00000000
01001000
00000000
00000000
01000000
00100000
00000000
00010000
00000000
00000000
00000000
00001000
00000000
,
00000000
00000000
00000100
00000000
00000001
00000000
00000001
00001000
00000000
00000000
00000000
00000000
00000010
00000000
00000000
00000000
,
00000010
00000000
00001000
00000000
00000100
00000010
00001000
00010000
,
01000000
00000000
00100000
00000000
00010000
00000000
10000000
00000000
00010000
01000000
00010000
01000000
00001000
00010000
00001000
00000000
,
00011000
00000000
00000000
00000000
00010010
00000000
00000000
00000010
00001000
00000000
00000001
00000000
00000000
00000000
00000100
00000000
,
00000000
00000000
00010000
00000000
01000000
00000000
01000000
00100000
00000000
00000000
00000000
00000000
01000000
00000000
01100000
00000000
,
10010000
00000000
00010000
00000000
00100000
00000000
01000000
00000000
00010000
00000000
00000000
00001000
00000000
00000000
00000010
00000000
,
00000001
00000000
00000100
00000000
00001000
00000000
00000100
00000000
00000001
00001000
00000001
00001000
00000010
00010000
00000010
00000000
,
00010010
00000000
00000000
00000000
00011000
00000000
00000000
00001000
01000000
00000000
00100000
00000000
00000000
00000000
00010000
00000000
,
00000000
00000000
00001000
00000000
00100000
00000000
00100000
01000000
00000000
00000000
00000000
00000000
00100000
00000000
01100000
00000000
,
10010000
00000000
00010000
00000000
01000000
00100000
00010000
00001000
,
00010000
00000000
01000000
00000000
10000000
00000000
01000000
00000000
00010000
00001000
00010000
00001000
00100000
00010000
00100000
00000000
,
00001000
00010000
00000010
00000000
00001000
00000000
00000010
00000100
00000000
00000001
00000000
00000001
00001000
00000000
00000010
00000000
,
00010000
00001000
00100000
00000000
00001000
00000000
01000000
00010000
00000000
01000000
00000000
01000000
00100000
00000000
10000000
00000000
,
00010000
01000000
00100000
00000000
01000000
00000000
00010000
10000000
00000000
00010000
00000000
00010000
00100000
00000000
00001000
00000000
,
00010000
00000010
00010000
00000000
00000010
00000000
00001000
00000010
00000000
00000100
00000000
00000100
00000001
00001000
00000001
00001000
,
00000100
00010000
00001000
00000000
01000000
00000000
00010000
10000000
00000000
00100000
00000000
01000000
00010000
01000000
00010000
00000000
,
10000000
00010000
00100000
00000000
00001000
00000000
01000000
00010000
00000000
01000000
00000000
00001000
00010000
00001000
00010000
00000000
,
00000100
00001000
00000001
00000000
00000100
00000000
00000010
00001000
00000000
00000010
00000000
00010000
00001000
00010000
00001000
00000000
,
00010000
00010010
00000000
00010000
00010100
00000000
00001000
00101000
,
00000000
00000000
00001000
00000000
01001000
00000000
00000000
00000000
00001000
00010000
00000000
00001000
00000000
00000100
00000000
00001000
,
00010000
00000000
00000000
00000000
;

//---------------dance-single - ----------------
#NOTEDATA:;
#CHARTNAME:;
#STEPSTYPE:dance-single;
#DESCRIPTION:;
#CHARTSTYLE:;
#DIFFICULTY:Medium;
#METER:10;
#RADARVALUES:0.403897,0.468585,0.123905,0.000000,0.000000,251.000000,240.000000,11.000000,0.000000,0.000000,0.000000,0.000000,0.000000,0.000000,0.403897,0.468585,0.123905,0.000000,0.000000,251.000000,240.000000,11.000000,0.000000,0.000000,0.000000,0.000000,0.000000,0.000000;
#CREDIT:Kekkle;
#NOTES:
0000
0000
0000
0000
,
0000
0000
0000
0000
,
0000
0000
0000
0000
,
0000
0000
0000
0000
,
0000
0000
0000
0000
,
0000
0000
0000
0000
,
0000
0000
0000
0000
,
0001
0000
1000
0000
0010
0100
0001
0000
,
1000
0000
0001
0000
0010
0100
1000
0000
,
0001
0000
1000
0000
0100
0010
0001
0000
,
1000
0000
0010
0100
0001
1000
0010
0000
,
1001
0000
0001
0000
1000
0100
0000
0001
,
0000
0000
0100
0000
0010
0001
0000
1000
,
0000
0000
0001
0000
0100
0000
0010
1000
,
0001
0100
0000
0010
0000
1000
0000
0000
,
1001
0000
1000
0000
0001
0010
0000
1000
,
0000
0000
0010
0000
0001
1000
0000
0100
,
0000
0000
0010
0000
0001
0000
1000
0001
,
0100
0001
0000
1000
0000
0001
0100
0010
,
1001
0000
1000
0000
0001
0010
0000
0100
,
1000
0000
0001
0000
0100
0010
0000
0000
,
1000
0000
0000
0010
0000
0000
0001
0000
,
0010
1000
0000
0001
0000
0010
0000
0100
,
1001
0000
1000
0000
0010
0100
0000
0010
,
0001
0000
0010
0000
1000
0001
0000
0000
,
0010
0001
0100
1000
,
0100
0010
1000
0000
0100
0010
0001
0100
,
0110
0000
0010
0000
1000
0010
0000
1000
,
0000
0001
0010
1000
0010
0000
0001
0000
,
0001
0000
1000
0000
0010
0000
0100
0001
,
1000
1000
0001
0001
,
1001
0000
1000
0000
0001
0100
0000
1000
,
0000
0100
1000
0100
0001
0000
1000
0000
,
1000
0000
0001
0000
0010
0001
1000
0000
,
0010
0010
0100
0100
,
1001
0000
0001
1000
0100
0010
0000
0001
,
1000
0010
0001
0010
0100
0000
0001
1000
,
1001
0000
0001
0000
0010
0001
1000
0010
,
0100
0000
0100
0000
0010
0100
0001
0000
,
1001
0000
1000
0001
0010
0100
0000
0010
,
0001
0010
1000
0010
0100
0000
1000
0001
,
1001
0000
1000
0000
0001
1000
0010
0000
,
1000
0000
1000
0100
0010
0001
1000
0010
,
0100
0001
1000
0000
0001
0000
0010
0001
,
1000
0100
0010
0000
0001
0000
1000
0010
,
0100
0010
1000
0000
0001
0000
0010
0001
,
1000
0100
0010
0000
0001
0100
1000
0100
,
0010
1000
0001
0000
0010
0001
0010
0100
,
1000
0001
0100
0000
0010
1000
0010
0100
,
0001
1000
0001
0000
0010
0100
1000
0001
,
0010
0010
0000
0001
0001
0000
1000
1000
,
0000
0010
0010
0000
0100
0010
0100
0010
,
1001
0000
0000
0000
;

//---------------dance-double - ----------------
#NOTEDATA:;
#CHARTNAME:;
#STEPSTYPE:dance-double;
#DESCRIPTION:;
#CHARTSTYLE:;
#DIFFICULTY:Medium;
#METER:10;
#RADARVALUES:0.397460,0.468585,0.123905,0.000000,0.000000,247.000000,236.000000,11.000000,0.000000,0.000000,0.000000,0.000000,0.000000,0.000000,0.397460,0.468585,0.123905,0.000000,0.000000,247.000000,236.000000,11.000000,0.000000,0.000000,0.000000,0.000000,0.000000,0.000000;
#CREDIT:Kekkle;
#NOTES:
00000000
00000000
00000000
00000000
,
00000000
00000000
00000000
00000000
,
00000000
00000000
00000000
00000000
,
00000000
00000000
00000000
00000000
,
00000000
00000000
00000000
00000000
,
00000000
00000000
00000000
00000000
,
00000000
00000000
00000000
00000000
,
00000001
00000000
00001000
00000000
00000010
00010000
00001000
00000000
,
00100000
00000000
00010000
00000000
00100000
01000000
10000000
00000000
,
00010000
00000000
01000000
00000000
00001000
01000000
00010000
00000000
,
10000000
00000000
00010000
01000000
00001000
00010000
00000010
00000000
,
00001001
00000000
00000001
00000000
00000010
00001000
00000000
00010000
,
00000000
00000000
00001000
00000000
01000000
00010000
00000000
01000000
,
00000000
00100000
10000000
00010000
,
01000000
00001000
00000000
00010000
00000000
00100000
00000000
00000000
,
10010000
00000000
00010000
00000000
10000000
01000000
00000000
00010000
,
00000000
00000000
00001000
00000000
00000100
00000010
00000000
00001000
,
00000000
00000001
00000010
00000001
,
00001000
00000010
00000000
00010000
00000000
00001000
01000000
00100000
,
10010000
00000000
10000000
00000000
00100000
01000000
00000000
00100000
,
00010000
00000000
00001000
00000000
01000000
00001000
00000000
00000000
,
00010000
00000000
00000000
00000010
00000000
00000000
00000001
00000000
,
00000010
00001000
00000000
00000010
00000000
00010000
00000000
00001000
,
00011000
00000000
00010000
00001000
00100000
00010000
00000000
00100000
,
01000000
00000000
10000000
00000000
00010000
01000000
00000000
00000000
,
00001000
00010000
00000010
00000100
,
00000001
00000100
00000010
00000000
00001000
00000010
00010000
00000000
,
00011000
00000000
00001000
00000000
01000000
00100000
00000000
00010000
,
00000000
00001000
01000000
00100000
01000000
00000000
00010000
00000000
,
00010000
00000000
10000000
00000000
01000000
00100000
00010000
00000000
,
01000000
01000000
00001000
00001000
,
00011000
00000000
00010000
00000000
00000010
00000100
00000000
00001000
,
00000000
00010000
00000010
00000100
00000001
00000000
00001000
00000000
,
00001000
00000000
00000010
00000000
00010000
00001000
01000000
00000000
,
00100000
00100000
10000000
10000000
,
10010000
00000000
00010000
01000000
00001000
00010000
00000000
00001000
,
00010000
00001000
00000100
00000010
00001000
00000000
00000001
00001000
,
00001001
00000000
00000001
00000000
00000100
00000010
00001000
00000000
,
00000010
00000000
00000010
00000000
00010000
00001000
01000000
00000000
,
10010000
00000000
00010000
00000000
10000000
00100000
00000000
00010000
,
00001000
00010000
00100000
00010000
00001000
00000000
00010000
00001000
,
00011000
00000000
00010000
00000000
00000100
00000010
00000001
00000000
,
00001000
00000010
00010000
00000010
00001000
00000100
00010000
00000000
,
00001000
01000000
00010000
00000000
10000000
00000000
00010000
01000000
,
00100000
01000000
00001000
00000000
00010000
00000000
00001000
00100000
,
00010000
01000000
00001000
00000000
00010000
00000000
00000010
00000100
,
00000010
00001000
00000001
00000000
00000100
00000010
00001000
00000010
,
00010000
00000100
00001000
00000000
00000100
00010000
00001000
01000000
,
00100000
00010000
00001000
00000000
00010000
00100000
01000000
00010000
,
10000000
01000000
00100000
00000000
00001000
00010000
00001000
00000100
,
00000010
00000010
00000000
00001000
00001000
00000000
00000001
00000001
,
00000000
00000100
00000100
00000000
00000010
00010000
00001000
00010000
,
00011000
00000000
00000000
00000000
;

//---------------dance-single - ----------------
#NOTEDATA:;
#CHARTNAME:;
#STEPSTYPE:dance-single;
#DESCRIPTION:;
#CHARTSTYLE:;
#DIFFICULTY:Easy;
#METER:6;
#RADARVALUES:0.308957,0.351438,0.135169,0.000000,0.000000,192.000000,180.000000,12.000000,0.000000,0.000000,0.000000,0.000000,0.000000,0.000000,0.308957,0.351438,0.135169,0.000000,0.000000,192.000000,180.000000,12.000000,0.000000,0.000000,0.000000,0.000000,0.000000,0.000000;
#CREDIT:Kekkle;
#NOTES:
0000
0000
0000
0000
,
0000
0000
0000
0000
,
0000
0000
0000
0000
,
0000
0000
0000
0000
,
0000
0000
0000
0000
,
0000
0000
0000
0000
,
0000
0000
0000
0000
,
0001
1000
0010
0100
,
0001
1000
0100
0010
,
0001
1000
0010
0100
,
0001
0001
1000
1000
,
1001
0001
0100
0010
,
0000
1000
0010
0100
,
0001
0000
1000
1000
,
0001
0010
1000
0100
,
1001
0001
0010
0100
,
0000
1000
0100
0010
,
0001
0000
1000
1000
,
0001
0100
1000
0010
,
1001
0001
0100
0010
,
1000
1000
0001
0001
,
0010
0000
0100
0000
,
1000
0001
0100
0100
,
0110
0010
1000
0001
,
0010
0010
0100
0100
,
1000
0000
0001
0000
,
0100
0000
0010
0000
0100
0010
0100
0000
,
1001
0001
0100
0100
,
0010
1000
0001
0010
,
0010
0100
1000
0001
,
0100
1000
0010
0001
,
1001
1000
0010
0010
,
0100
0001
1000
0100
,
0100
0010
0001
1000
,
0010
0001
0100
1000
,
1001
0001
0010
0010
,
0001
1000
0001
0000
0100
0000
0010
0000
,
1001
1000
0100
0010
,
0001
0100
1000
0010
,
1001
1000
0010
0010
,
1000
0001
1000
0000
0100
0000
0010
0000
,
1001
0001
0100
0010
,
1000
0010
0001
0100
,
1000
0001
1000
0000
0001
0000
0010
0000
,
0100
0010
0100
0000
1000
0000
0001
0000
,
1000
0001
1000
0000
0001
0000
0100
0000
,
0010
0100
0010
0000
0100
0000
0100
0000
,
1001
0001
0100
0100
,
0010
0100
0010
0000
1000
0000
0001
0000
,
1000
0001
1000
0000
0100
0000
0010
0000
,
0001
0000
0000
1000
0000
0000
0010
0000
,
0000
0100
0000
0000
0001
0000
0001
0000
,
1001
0000
0000
0000
;

//---------------dance-double - ----------------
#NOTEDATA:;
#CHARTNAME:;
#STEPSTYPE:dance-double;
#DESCRIPTION:;
#CHARTSTYLE:;
#DIFFICULTY:Easy;
#METER:6;
#RADARVALUES:0.308957,0.351438,0.123905,0.000000,0.000000,192.000000,181.000000,11.000000,0.000000,0.000000,0.000000,0.000000,0.000000,0.000000,0.308957,0.351438,0.123905,0.000000,0.000000,192.000000,181.000000,11.000000,0.000000,0.000000,0.000000,0.000000,0.000000,0.000000;
#CREDIT:Kekkle;
#NOTES:
00000000
00000000
00000000
00000000
,
00000000
00000000
00000000
00000000
,
00000000
00000000
00000000
00000000
,
00000000
00000000
00000000
00000000
,
00000000
00000000
00000000
00000000
,
00000000
00000000
00000000
00000000
,
00000000
00000000
00000000
00000000
,
00000001
00001000
00000010
00010000
,
00001000
01000000
00001000
00010000
,
00000010
00000100
00000001
00001000
,
00000100
00000100
00000010
00000010
,
00001001
00001000
00000010
00010000
,
00000000
00001000
01000000
00100000
,
10000000
00000000
00010000
00010000
,
01000000
00001000
00010000
00010000
,
00011000
00001000
00100000
01000000
,
00000000
00100000
00010000
10000000
,
00100000
00000000
01000000
01000000
,
00010000
10000000
01000000
01000000
,
10010000
00010000
01000000
00001000
,
00010000
00010000
00000010
00000010
,
00001000
00000000
00000001
00000000
,
00000100
00000010
00010000
00010000
,
00011000
00001000
01000000
00010000
,
00100000
00100000
01000000
01000000
,
10000000
00000000
00010000
00000000
,
01000000
00000000
00001000
00000000
00010000
00001000
00010000
00000000
,
00011000
00001000
00000100
00000100
,
00000010
00001000
00000001
00000010
,
00000010
00000100
00001000
00000100
,
00010000
00001000
01000000
00100000
,
10010000
00010000
01000000
01000000
,
00100000
00010000
00001000
01000000
,
01000000
00001000
00010000
00000010
,
00000100
00000100
00000010
00000010
,
00001001
00000001
00000100
00000100
,
00000010
00010000
00000010
00000000
00010000
00000000
00001000
00000000
,
00011000
00010000
01000000
01000000
,
00100000
00010000
10000000
00100000
,
10010000
10000000
00100000
00100000
,
01000000
00001000
01000000
00000000
00001000
00000000
00010000
00000000
,
00011000
00001000
00000100
00000010
,
00001000
00001000
00000001
00000001
,
00001000
00000001
00001000
00000000
00000010
00000000
00010000
00000000
,
00001000
00010000
00001000
00000000
00100000
00000000
00010000
00000000
,
10000000
00010000
10000000
00000000
00100000
00000000
01000000
00000000
,
00001000
00010000
00001000
00000000
00010000
00000000
00010000
00000000
,
00000010
00000100
00000010
00000000
00000100
00000000
00000010
00000000
,
00010000
00001000
00010000
00000000
00001000
00000000
00100000
00000000
,
01000000
00100000
01000000
00000000
00100000
00000000
00010000
00000000
,
10000000
00000000
00000000
00100000
00000000
00000000
01000000
00000000
,
00000000
00001000
00000000
00000000
00010000
00000000
00010000
00000000
,
00011000
00000000
00000000
00000000
;

//---------------dance-single - ----------------
#NOTEDATA:;
#CHARTNAME:;
#STEPSTYPE:dance-single;
#DESCRIPTION:;
#CHARTSTYLE:;
#DIFFICULTY:Beginner;
#METER:2;
#RADARVALUES:0.138387,0.205006,0.101376,0.000000,0.000000,86.000000,77.000000,9.000000,0.000000,0.000000,0.000000,0.000000,0.000000,0.000000,0.138387,0.205006,0.101376,0.000000,0.000000,86.000000,77.000000,9.000000,0.000000,0.000000,0.000000,0.000000,0.000000,0.000000;
#CREDIT:Kekkle;
#NOTES:
// measure 0
0000
0000
0000
0000
,  // measure 1
0000
0000
0000
0000
,  // measure 2
0000
0000
0000
0000
,  // measure 3
0000
0000
0000
0000
,  // measure 4
0000
0000
0000
0000
,  // measure 5
0000
0000
0000
0000
,  // measure 6
0000
0000
0000
0000
,  // measure 7
0001
0000
0000
0000
,  // measure 8
1000
0000
0000
0000
,  // measure 9
0100
0000
0000
0000
,  // measure 10
0010
0000
0000
0000
,  // measure 11
1001
0000
0000
0000
,  // measure 12
1000
0000
0000
0000
,  // measure 13
0010
0000
0000
0000
,  // measure 14
0100
0000
0100
0000
,  // measure 15
0001
0000
0000
0000
,  // measure 16
1000
0000
0000
0000
,  // measure 17
0100
0000
0000
0000
,  // measure 18
0010
0000
0010
0000
,  // measure 19
1001
0000
0000
0000
,  // measure 20
0001
0000
0000
0000
,  // measure 21
0100
0000
0100
0000
,  // measure 22
0010
0000
0010
0000
,  // measure 23
1001
0000
0000
0000
,  // measure 24
1000
0000
0000
0000
,  // measure 25
0001
0000
0001
0000
,  // measure 26
1000
0000
1000
0000
,  // measure 27
1001
0000
0000
0000
,  // measure 28
0001
0000
0001
0000
,  // measure 29
0100
0000
0010
0000
,  // measure 30
1000
0000
1000
0000
,  // measure 31
1001
0000
0000
0000
,  // measure 32
0001
0000
0001
0000
,  // measure 33
0010
0000
0100
0000
,  // measure 34
0010
0000
0010
0000
,  // measure 35
1001
0000
0001
0000
,  // measure 36
0100
0000
0100
0000
,  // measure 37
1001
0000
1000
0000
,  // measure 38
0100
0000
0100
0000
,  // measure 39
1001
0000
0001
0000
,  // measure 40
0010
0000
0010
0000
,  // measure 41
1001
0000
1000
0000
,  // measure 42
0010
0000
0010
0000
,  // measure 43
1000
0000
0010
0000
,  // measure 44
0100
0000
0100
0000
,  // measure 45
0001
0000
0010
0000
,  // measure 46
0100
0000
0100
0000
,  // measure 47
1000
0000
0001
0000
,  // measure 48
0010
0000
0010
0000
,  // measure 49
0100
0000
1000
0000
,  // measure 50
0001
0000
0000
0001
0000
0000
0001
0000
,  // measure 51
0000
0001
0000
0000
0001
0000
0001
0000
,  // measure 52
1000
0000
0000
0000
;
