#TITLE:変幻自在;
#SUBTITLE:;
#ARTIST:m@sumi;
#TITLETRANSLIT:Hengen jizai;
#SUBTITLETRANSLIT:;
#ARTISTTRANSLIT:masumi;
#GENRE:;
#CREDIT:;
#BANNER:Hengen jizai.png;
#BACKGROUND:Hengen jizai-bg.png;
#LYRICSPATH:;
#CDTITLE:;
#MUSIC:Hengen jizai.ogg;
#OFFSET:-0.382879;
#SAMPLESTART:39.626022;
#SAMPLELENGTH:15.000000;
#SELECTABLE:YES;
#BPMS:0.000000=175.000000
,30.000000=180.000000
,60.000000=175.000000
,64.000000=170.000000
,90.000000=165.000000
,107.500000=162.000000
,110.500000=158.000000
,112.000000=160.000000
,167.000000=162.000000
,171.000000=165.000000
,223.500000=162.000000
,225.500000=160.000000
,226.750000=155.000000
,230.000000=160.000000
,261.500000=155.000000
,262.500000=150.000000
,264.500000=147.000000
,265.000000=145.000000
,267.000000=140.000000
,269.000000=135.000000
;
#STOPS:110.500000=0.380000,
167.500000=0.926000,
264.500000=0.204079
;
#BGCHANGES:;
#KEYSOUNDS:;
#ATTACKS:;

//---------------dance-single - ----------------
#NOTES:
     dance-single:
     :
     Hard:
     15:
     0.677035,0.817111,0.240327,0.605624,0.797885,493.000000,468.000000,25.000000,63.000000,0.000000,0.000000,0.677035,0.817111,0.240327,0.605624,0.797885,493.000000,468.000000,25.000000,63.000000,0.000000,0.000000:
0000
0000
0000
0000
,
0000
0000
0000
0000
,
0000
0000
0000
0000
,
0000
0000
0000
0000
,
2000
0000
3200
0000
0302
0000
0103
0010
,
0000
0000
0000
0000
0000
0000
0000
0000
0010
0000
0000
0001
0000
0000
1000
0000
,
0002
0000
0203
0000
2300
0000
3100
0010
,
0000
0000
2000
3002
,
1003
0000
1000
0100
0000
0100
0010
0000
0010
0100
0000
0100
,
2000
3002
0023
0032
,
1003
0000
0000
0000
1000
0000
0010
0000
0000
0000
0010
0000
0100
0000
0001
0000
0100
0000
0001
0000
0000
1000
0000
0000
,
0020
0000
2030
3002
0000
0023
0000
0000
,
0032
0000
0000
0000
1003
0000
2000
0000
0000
0000
0000
0000
3000
0000
0100
1000
,
0100
0010
0001
0010
0100
0010
0001
1000
,
0002
0000
0000
0000
0103
0000
0200
0000
0000
0000
0000
0000
0300
0000
0001
0100
,
0001
0000
0000
1000
0000
0000
0010
0000
1000
0000
0000
0001
0000
0000
0010
0000
,
0100
0000
1000
0000
0001
0010
0000
0001
0000
1000
0000
0001
0010
0100
1000
0000
,
0001
0000
1000
0010
0000
0100
0000
0010
0000
1000
0010
0100
0002
0000
0000
0100
,
0000
0000
1003
0000
1000
0000
0001
0000
0101
0000
0000
1001
0000
0000
1100
0000
,
0100
0000
0010
0000
0001
0000
0010
0000
1000
0010
0000
0001
0000
1000
0000
0001
,
0100
0010
1000
0000
0010
0000
0001
0010
0000
1000
0000
0001
0000
1000
0100
0010
,
0002
0000
0000
0010
0000
0000
1003
0000
1000
0000
0001
0000
0011
0000
0000
1001
,
0000
0000
1010
0000
1000
0000
0001
0000
0100
0001
0000
0101
0000
0100
0010
0000
,
0100
0000
0010
1000
0000
1010
0000
1000
0001
0000
1000
0000
0100
1000
0000
0001
,
0000
0001
1000
0100
0010
0000
0001
0000
1000
0000
0010
0000
0200
0000
0300
0000
,
0001
0010
0000
0011
0000
0001
1000
0000
0010
0000
1000
0100
0000
1100
0000
0100
,
1000
0001
0010
0000
0100
0000
0100
1000
0010
0000
0100
0000
0001
0000
1001
0000
,
1000
0100
0110
1100
0022
0000
0033
0000
,
2000
0000
0000
3001
0000
0001
0100
0000
0001
0000
0100
0000
0010
0000
1000
0000
,
0100
0000
0020
0000
0000
0000
0032
0000
0000
1003
0000
1000
0010
0000
0100
0000
,
0010
1000
0001
0010
0001
0100
0020
0000
,
0130
0000
0001
0000
1000
0000
0010
0000
1000
0100
0000
0010
0000
0010
0001
0000
,
1000
0000
0001
0000
0200
0000
0000
0000
0300
0000
0001
0010
0000
0001
0000
1000
,
0200
0000
0000
0000
1300
0000
0100
0000
0001
0000
0100
0000
1000
0001
0000
0011
,
0000
0010
0001
0000
0100
0000
0001
1000
0000
1010
0000
0010
1000
0000
0100
0000
,
0010
0100
0000
0110
0000
0010
0001
1000
0001
0000
1000
0010
0000
0100
0000
0100
,
0020
0000
0000
0030
1000
0001
0000
0101
0000
0100
0001
0000
0010
0000
0001
1000
,
0000
1100
0000
0100
1000
0001
1000
0000
0001
0100
0000
0110
0000
0010
1000
0000
,
0001
0000
0010
0100
0000
0110
0000
0010
0001
0000
1000
0000
0010
0000
0100
0001
,
0000
2001
0000
0000
0000
0000
0000
0000
3100
0000
1000
0100
1000
0001
0020
0000
,
0000
0000
0000
0000
0130
0000
0100
1000
0000
1002
0000
0000
0000
0000
0000
0000
,
0103
0000
0100
0001
0100
0010
2000
0000
0000
0000
3001
0000
0020
0000
0200
0000
,
0000
0000
0000
0000
0000
0000
0000
0000
0330
0000
0000
0000
0100
1000
0000
1000
,
0000
0100
1000
0000
0000
0100
1000
0100
1000
0000
0100
0000
1000
0100
1000
0000
,
0100
1000
0000
1000
0100
1000
0001
0000
0001
0100
0000
0100
0000
0001
0100
0000
,
0000
0100
0001
0000
0001
0100
0001
0000
0100
0000
0010
0000
1000
0000
0100
0000
,
0010
0000
0001
1000
0001
0010
0000
0010
0000
0001
0010
0000
0000
0010
0001
0010
,
0001
0000
1000
0010
0000
1000
0000
1000
0010
0000
1000
0010
1000
0010
1000
0000
,
0100
0000
0100
1000
0100
0000
1000
0000
1000
0001
1000
0000
0001
0000
0100
0001
,
0000
0100
0000
0001
0000
1000
0000
0100
0000
0010
0100
0010
0002
0000
0000
0010
,
0000
0000
2003
0000
0000
0000
0000
0000
0000
0000
3001
0000
0000
0001
0200
0000
,
0000
1300
0000
0000
1000
0200
0000
0000
0302
0000
0000
0010
0000
0000
2003
0000
,
0000
0000
0100
0000
0000
0000
3001
0000
0000
0001
0020
0000
0000
1030
0000
0000
,
1000
0020
0000
0000
0031
0000
1000
0000
0100
0000
1000
0000
0001
0000
0100
0000
,
0001
0000
1000
0000
0000
0001
0020
0000
0000
0031
0000
0000
1000
0020
0000
0000
,
0130
0000
0001
0100
0001
0000
1000
0000
0001
0000
0010
0000
0100
0000
2000
0000
,
0000
0000
0000
3001
0000
0000
0002
0000
,
0000
0000
0203
0000
0000
0000
0000
0000
0320
0000
0000
1030
0000
1000
0001
0000
,
0100
0001
1000
0100
0010
0002
0000
2003
,
0000
3001
0000
0001
0010
0000
0100
0000
0010
0000
0001
0000
1000
0000
0010
0000
,
1000
0001
0200
0000
0310
1000
0001
0010
,
0001
0100
0000
0010
0000
0010
1000
0000
0001
0000
1000
0000
0200
0000
0000
0000
,
0300
0000
0010
0001
0000
1000
0000
0010
0200
0000
0000
0000
0300
0000
0001
1000
,
0000
0100
0000
0100
0010
0100
0000
0210
0000
0000
0000
0000
0000
0000
1300
0000
,
1000
0001
0010
0100
0020
0000
0000
0000
0000
0000
0031
0000
0100
0010
0000
0210
,
0000
0000
0000
0000
0000
0000
0301
0000
0001
0100
0010
1000
0200
0000
0000
0000
,
0000
1300
0002
0000
0100
0000
0010
0000
,
0100
2000
0000
0000
,
3003
0000
0000
0000
;

//---------------dance-single - ----------------
#NOTES:
     dance-single:
     :
     Medium:
     11:
     0.383150,0.457582,0.067292,0.644076,0.129776,279.000000,272.000000,7.000000,67.000000,0.000000,0.000000,0.383150,0.457582,0.067292,0.644076,0.129776,279.000000,272.000000,7.000000,67.000000,0.000000,0.000000:
0000
0000
0000
0000
,
0000
0000
0000
0000
,
0000
0000
0000
0000
,
0000
0000
0000
0000
,
2000
0000
0000
0000
0100
0000
0000
3001
,
0000
0000
0000
0000
0000
0000
0000
0000
0001
0000
0000
0100
0000
0000
0100
0000
,
0002
0000
0000
0000
0010
0000
0000
1003
,
0000
0000
0002
2003
,
3200
1000
0320
0001
,
0230
2300
3002
0203
,
0320
1000
0230
0001
,
0310
0000
1000
0001
0000
1001
0000
0000
,
0100
0000
0010
0020
0000
0000
0030
0000
,
1000
0001
0001
1000
,
0100
0000
0010
0020
0000
0000
0000
0000
,
0031
0010
0100
1000
,
0100
0000
1000
0000
0010
0000
0100
0100
,
0000
0000
0001
0000
0000
0000
0010
0000
0000
0000
0100
0000
0100
0000
0000
1000
,
0000
0000
0001
0000
1000
0000
0000
0000
0001
0000
0000
0100
0000
0000
0100
0000
,
0001
0100
0010
1000
,
0100
0100
0000
0010
0000
0001
0000
0100
,
0100
0000
0000
0001
0000
0000
1000
0000
0001
0000
0000
0000
1000
0000
0000
0010
,
0000
0000
0010
0000
1000
0000
0000
0000
0001
0000
0000
0201
0000
0000
0000
0000
,
0301
0000
1000
0000
0000
2100
0000
0000
0000
0000
3100
0000
0020
0000
0000
0000
,
0230
0000
0310
0001
1000
0001
1000
0000
,
0001
0000
0000
0021
0000
0000
0000
0000
0031
0000
1000
0000
0000
2010
0000
0000
,
0000
3001
0200
0000
0320
0000
0130
0001
,
1000
0001
1000
0100
0020
0000
0030
0000
,
0100
0000
0000
0100
0000
0000
1000
0000
0100
0000
0000
0000
1000
0000
0000
0000
,
0001
0000
2000
0000
0000
0000
3010
0000
0000
0010
0000
0000
0100
0000
0010
0000
,
0000
2000
0000
3002
0000
1003
0200
0000
,
0310
0000
0001
0000
1000
0000
0000
0000
0001
0000
0000
0100
0000
0000
0100
0000
,
0010
0000
2000
0000
0000
3001
0100
0010
,
2000
0000
0000
0000
0000
0000
0000
0000
3000
0000
0000
0000
0002
0000
0000
0003
,
0000
0000
0001
0000
0010
0000
0200
0000
0000
0300
0000
0000
0100
0000
1000
0000
,
0002
0000
0000
0000
0000
0000
1003
0000
0000
0000
1000
0000
0000
0010
0000
0000
,
0010
0000
0000
0000
0200
0000
0000
0300
0000
0000
0001
0000
1000
0000
0020
0000
,
0000
0030
0000
0000
1000
0000
0100
0000
0002
0000
0000
0000
0103
0000
0000
0000
,
1000
0002
0000
0103
0000
0100
0010
2000
,
0000
3001
0000
0000
0000
0000
0000
0000
0001
0000
0100
0000
0001
0000
0100
0000
,
0000
0000
0000
0000
0100
0000
0002
0000
0000
1003
0000
0000
0000
0000
0000
0000
,
1000
0100
1000
0100
0000
0000
0200
0020
,
0000
0000
0000
0000
0330
0000
0100
1000
,
0000
0100
0000
1000
0000
0001
0100
0000
,
0001
0000
0100
0000
0010
1000
0000
0010
,
0000
1000
0000
0001
0010
0000
0001
0000
,
0010
0000
0100
1000
0000
0010
0000
1000
,
0000
0001
0100
0000
0001
0000
0010
0000
,
0100
1000
0000
0001
0000
0100
0000
0010
,
1000
0001
0010
0002
,
0000
2003
0000
0000
0000
3020
0000
0130
,
0000
0002
0000
0000
0000
0103
0000
0000
0020
0000
0000
0000
0000
0000
2030
0000
,
0000
0000
3002
0000
0000
0000
0023
0000
0000
0000
0130
0000
0000
2000
0000
0000
,
0000
3100
0000
0000
0020
0000
0000
0000
0000
0000
0000
0000
0032
0000
0000
0013
,
0000
0000
2000
0000
0000
0000
3010
0000
0000
0002
0000
0000
0000
1003
0000
0000
,
0020
0000
0130
0002
0000
2003
0000
3200
,
0000
0000
0000
0310
0000
0000
1001
0000
,
0000
0000
0110
0000
0000
0000
0000
0000
0001
0000
0000
0100
0000
0000
0100
0000
,
0001
0000
1000
0000
1000
0020
0000
1030
,
0000
0010
0000
0000
0100
0000
0001
0000
0000
0000
0020
0000
0000
0000
0230
0000
,
0000
1300
0002
0000
0013
0001
1000
0000
,
0010
0000
0000
1000
0000
0000
1000
0000
0001
0000
0000
0000
0200
0000
0000
0000
,
0000
0301
1000
0010
0200
0000
0000
0310
,
1000
0000
0001
0000
0010
0000
0000
0002
0000
0000
0000
0000
0000
0000
1003
0000
,
1000
0000
0100
0000
2000
0000
0000
0000
3000
0000
0001
0000
1000
0000
0000
0020
,
0000
0000
0000
0130
0100
0001
1000
0000
,
0000
0100
0020
0000
0000
0000
0000
0000
,
0000
0000
0000
0000
,
0030
0000
0000
0000
;

//---------------dance-single - ----------------
#NOTES:
     dance-single:
     :
     Easy:
     7:
     0.267793,0.290916,0.067292,0.384523,0.052872,195.000000,188.000000,7.000000,40.000000,0.000000,0.000000,0.267793,0.290916,0.067292,0.384523,0.052872,195.000000,188.000000,7.000000,40.000000,0.000000,0.000000:
0000
0000
0000
0000
,
0000
0000
0000
0000
,
0000
0000
0000
0000
,
0000
0000
0000
0000
,
1000
0000
0000
0000
2000
0000
0000
3000
,
0000
0000
0100
0010
,
0001
0000
0000
0000
0002
0000
0000
0003
,
0000
0000
0001
1000
,
0020
0000
0230
0000
,
0310
1000
0001
0010
,
0200
0000
0320
0032
,
1003
0000
0000
1000
0000
0001
0000
0000
,
2000
0000
0000
0010
0000
0000
3000
0000
,
1000
0100
1000
0000
,
0002
0000
0000
0010
0000
0000
0003
0000
,
0001
0100
0001
1000
,
0001
0000
0000
0000
0000
0000
0000
0001
0000
0000
0000
0000
0000
0000
0010
0000
,
0000
0000
0000
0000
0000
0010
0000
0000
0000
0000
0000
0000
0001
0000
0000
0000
,
0000
0000
1000
0000
0100
0000
0000
0100
,
0000
0000
0000
0000
1000
0000
0000
0000
0000
0000
0000
1000
0000
0000
0000
0000
,
0000
0000
0010
0000
0000
0000
0000
0000
0000
0010
0000
0000
0000
0000
0000
0000
,
1000
0000
0001
0100
,
0000
0100
0000
0000
0001
0000
0000
0000
,
0001
0010
0000
0000
0000
0010
0100
0000
,
0000
0000
0100
2000
0000
0001
0000
3000
,
0001
0000
0000
0000
0001
0100
0000
0000
,
0000
0100
0010
0000
0100
0000
0010
1000
,
0000
0002
0000
0003
0000
0000
0000
0000
,
1000
1000
0100
1000
,
0002
0003
0000
0001
0000
0001
0000
0100
,
0000
0010
0000
0200
0300
0000
0002
0000
,
0003
1000
0001
0010
,
0100
2000
3000
0001
,
2000
0000
3000
0002
,
0003
0000
1000
0020
0000
0030
0000
1000
,
0200
0000
0300
0000
0000
2000
0000
0000
,
3001
0000
2000
0000
3000
0000
0001
0020
,
0000
0030
0000
0001
0200
0000
0300
0000
,
0010
0200
0000
0000
0000
0300
0000
1001
,
0000
0000
0000
0000
1000
0100
0000
0100
,
0000
0000
0000
1001
0000
0000
0000
0000
,
0001
0100
0000
0100
0000
0000
0000
0220
,
0000
0000
0330
0001
,
0100
0010
1000
0010
,
0100
0001
0010
0100
,
1000
0100
0010
0001
,
1000
0010
0100
0010
,
1000
0001
1000
0100
,
0010
0100
1000
0001
,
0100
0010
1000
0200
,
0000
0320
0000
0000
0000
0031
0000
1000
,
0000
0100
0000
0000
0000
1000
0000
0000
0002
0000
0000
0000
0000
0000
0203
0000
,
0000
0000
0310
0000
0000
0000
1000
0000
0000
0000
0001
0000
0000
0100
0000
0000
,
0000
0001
0000
0000
0020
0000
0000
0000
0000
0000
0000
0000
0130
0000
0000
1000
,
0000
0000
0001
0000
0000
0000
1000
0000
0000
0001
0000
0000
0000
0010
0000
0000
,
0200
0000
0000
0310
0000
0000
0000
1100
,
0000
0000
0000
0101
0000
0000
0002
0000
,
0000
2003
0000
0000
3001
0000
0001
0000
,
0100
0000
0001
0000
2000
3000
0000
0100
,
0000
0100
0000
0010
0000
0001
0000
0200
,
0300
0002
0003
1000
,
0001
0010
0100
2000
,
3000
0001
2000
3000
,
0001
0000
1001
0000
0000
0000
0000
0001
,
0100
0100
0000
1001
,
0000
0000
0000
1000
0100
0000
0100
0000
,
0000
1000
0002
0000
0000
0000
0000
0000
,
0000
0003
0000
0000
;

//---------------dance-single - ----------------
#NOTES:
     dance-single:
     :
     Beginner:
     3:
     0.118103,0.222903,0.105744,0.000000,0.000000,86.000000,75.000000,11.000000,0.000000,0.000000,0.000000,0.118103,0.222903,0.105744,0.000000,0.000000,86.000000,75.000000,11.000000,0.000000,0.000000,0.000000:
0000
0000
0000
0000
,
0000
0000
0000
0000
,
0000
0000
0000
0000
,
0000
0000
0000
0000
,
1000
0000
1000
0000
,
0000
0000
0000
0000
,
0001
0000
0001
0000
,
0000
0000
0000
0000
,
1000
0000
0000
0000
,
0100
0000
0000
0000
,
0010
0000
0000
0000
,
0001
0000
0000
0000
,
1001
0000
0000
0000
,
0000
0000
0000
0000
,
0110
0000
0000
0000
,
0000
0000
0000
0000
,
1000
0000
0000
0000
0000
0000
0000
1000
,
0000
0000
0000
0001
,
0000
0000
0001
0000
,
0000
0100
0000
0000
,
0000
0100
0000
0000
0000
0000
0000
0000
,
0010
0000
0000
0010
,
0000
0000
1000
0000
,
0000
0100
0000
0000
0000
0000
1000
0000
,
0000
0000
0000
0010
0000
0000
0000
0000
,
0100
0000
0000
0000
0000
0001
0000
0000
,
0000
0000
0010
0000
0000
0000
0000
0001
,
0000
0000
0000
0000
,
0001
0000
0000
0001
,
0000
0000
0000
0100
0000
0000
0000
0000
,
0000
0100
0000
0000
0000
0000
0010
0000
,
0000
0000
0010
0000
,
0000
1000
0000
0000
,
1000
0000
0000
0001
,
0000
0000
0000
0010
0000
0000
0000
0000
,
0100
0000
0000
0000
0000
1000
0000
0000
,
0000
0000
0001
0000
0000
0000
0000
0100
,
0000
0000
0010
0000
,
0000
1000
0000
0000
0000
0000
0000
0001
,
0000
0000
0000
0000
0000
0001
0000
0001
,
0000
0000
0000
1000
0000
0000
0000
0000
,
0000
1000
0000
1000
0000
0000
0000
1001
,
0000
0000
0000
1001
,
0000
0000
0000
0000
,
0000
0000
0110
0000
,
0000
0000
0000
0000
,
0000
0011
0000
0000
,
0000
0000
0000
0000
,
1010
0000
0000
0000
0000
0000
0000
1001
,
0000
0000
0000
0100
,
0000
0000
0000
0000
,
0000
0000
0010
0000
,
0000
0000
0000
0000
,
0000
1000
0000
0000
,
0000
0000
0000
0000
,
0001
0000
0000
0000
0000
0000
0000
1000
,
0000
0000
0000
0001
0000
0000
0000
0000
,
0000
0000
1000
0000
,
0000
0000
1000
0000
0000
0000
0000
0100
,
0000
0000
0000
0000
0000
0100
0000
0000
,
0000
0010
0000
0000
,
0010
0000
0000
0001
,
0000
0000
1000
0000
,
0000
1001
0000
0000
,
0100
0100
0000
0110
,
0000
0000
1000
0001
,
0000
1001
0000
0000
;
