#TITLE:Hello summer;
#SUBTITLE:;
#ARTIST:BEMANI Sound Team "ビーチパラソルズ";
#TITLETRANSLIT:;
#SUBTITLETRANSLIT:;
#ARTISTTRANSLIT:;
#GENRE:;
#CREDIT:;
#MUSIC:Hello summer.ogg;
#BANNER:Hello summer.png;
#BACKGROUND:Hello summer-bg.png;
#CDTITLE:;
#SAMPLESTART:57.841;
#SAMPLELENGTH:15.000;
#SELECTABLE:YES;
#OFFSET:0.000;
#BPMS:0.000=141.000;
#STOPS:;
#BGCHANGES:;
#FGCHANGES:;

//--------------- dance-single - Chrononical ----------------
#NOTES:
     dance-single:
     Chrononical:
     Hard:
     15:
     0,0,0,0,0:
0000
0000
0000
0000
,
0000
0000
0000
0000
,
0000
0000
0000
0000
,
0000
0000
0000
0000
,
0000
0000
0000
0000
,
1000
0010
0000
0010
1000
0000
0001
0010
,
0000
0000
0100
0000
1000
0000
0000
0000
0001
0000
1000
0001
1000
0000
0000
0000
,
0001
0010
0000
0010
0001
0000
1001
1001
,
0000
0100
0010
0100
0001
0000
1001
0000
,
0001
0000
1000
0010
0000
1000
0010
0000
0100
0000
0001
0000
1000
0000
0001
1000
,
0001
1000
0001
0000
1010
0000
0000
0000
0101
0000
0000
0000
0011
0000
0000
0000
,
1100
0000
1000
0100
0000
1000
0100
0000
0010
0000
0001
0000
1000
0000
0001
1000
,
0001
0100
1000
0100
0001
0000
1001
0000
,
1000
0000
0100
0010
0000
0100
0010
0000
0001
0000
1000
0000
0001
0000
1000
0100
,
1000
0100
1000
0000
1100
0000
0000
0000
1010
0000
0000
0000
1001
0000
0000
0000
,
0101
0000
0001
0100
0000
0001
0100
0000
0001
0000
0010
0000
0001
0000
1000
0001
,
1000
0010
0001
0010
1000
0100
0010
0001
,
1000
0000
0001
0000
1000
0000
0000
0010
0100
0010
0100
0000
0001
0000
1000
0100
,
1000
0000
0001
0000
0002
0000
0000
0000
0003
0000
1000
0100
1000
0100
0000
1000
,
0001
0000
1000
0000
0001
0000
0000
1000
0010
1000
0010
0000
0100
0000
0001
0000
,
0100
0000
0000
0001
0100
0000
0000
0010
1000
0000
0010
0100
0001
0000
1000
0010
,
1000
0000
0001
0000
1000
0000
0000
0001
0010
0001
0010
0001
0100
0001
0100
0001
,
1000
0000
0000
0001
0010
0000
0000
0010
0001
0000
0000
0000
1001
0000
0000
0000
,
1000
0000
0000
0000
0010
0000
0000
1000
0100
0000
0000
0000
1100
0000
0000
0000
,
1001
0000
1000
0001
1000
0001
0000
1000
0001
0000
1000
0010
0100
0000
0000
0000
,
0001
0100
1000
0100
0001
0010
0100
1000
,
0001
0000
0000
0001
0010
0000
0000
0010
0001
0000
0000
0001
1000
0000
0001
0000
,
1000
0010
0001
0010
1000
0010
0100
0001
,
0101
0011
1010
1001
,
0001
1000
0100
0010
0100
1000
0001
0100
,
0001
0000
0000
0001
1000
0000
0000
0010
1000
0000
0000
0010
0100
0000
0100
0000
,
0002
0000
0000
0010
0023
0000
0000
0000
,
0030
0001
0011
0000
0001
0010
0100
1000
,
0001
0100
0010
0100
0010
0100
0010
1000
0000
0100
0010
0000
0001
0000
0010
0100
,
1000
0100
0010
0100
0010
0001
0100
1000
,
0100
0000
1000
0000
0100
0000
0001
0000
0100
0010
1000
0000
0001
0000
0100
0010
,
1000
0000
0100
0000
0001
0000
0100
0000
1000
0010
0100
0000
0010
0000
0100
0000
,
0010
0000
1000
0000
0001
0000
1000
0100
1000
0000
0010
0100
0001
0000
0010
0100
,
0010
0000
0100
0000
1000
0000
0100
0000
0001
0100
0001
0000
0100
0000
1000
0000
,
0001
0000
0010
0000
1000
0000
0001
0000
0100
1000
0100
0000
1000
0000
0010
1000
,
0010
0000
1000
0000
0010
0000
0001
0000
1000
0100
0010
0000
1000
0000
0010
0000
,
1000
0001
1000
1001
,
1000
0000
0001
0010
0000
0001
0010
0000
0001
0000
0100
0000
0010
0000
1000
0100
,
1000
0100
1000
0000
1100
0000
0000
0000
1010
0000
0000
0000
1100
0000
0000
0000
,
1001
0000
0001
0010
0000
0001
0010
0000
0001
0000
0100
0000
0010
0000
1000
0010
,
1000
0100
0001
0100
1000
0000
1001
0000
,
1000
0000
0010
0100
0000
0010
0100
0000
0010
0000
1000
0000
0010
0000
1000
0100
,
1000
0100
1000
0000
1100
0000
0000
0000
1010
0000
0000
0000
0110
0000
0000
0000
,
1001
0000
0001
1000
0000
0001
1000
0000
0010
0000
0100
0000
0010
0000
1000
0100
,
1000
0010
0001
0010
1000
0010
0100
0001
,
2000
0000
0100
0100
0000
0000
0000
0001
,
3002
0100
0010
0100
,
2003
0000
0001
0001
0000
0000
0000
0010
,
3010
0110
1001
0110
,
0001
0100
1000
0100
0001
0010
0100
0010
,
0001
0000
0000
1000
0010
0000
0000
0010
1000
0000
0000
0001
0100
0000
0100
0000
,
0020
0000
0000
1000
2030
0000
0000
0000
,
3000
0100
1100
0000
1000
0010
0100
0010
,
1010
1000
0001
0010
0001
0010
0001
1000
,
0001
0000
0010
0000
0100
0000
1000
0000
0100
0010
0100
0000
1000
0000
0010
0100
,
0001
1000
0100
0010
0100
0010
0001
1000
,
0010
0000
0100
0000
0010
0000
1000
0010
0100
0000
0010
0100
0001
0000
0010
0001
,
0100
0010
1000
0010
0100
0010
1000
0010
,
0001
0000
1000
0000
0100
0000
0001
0000
1000
0010
0100
0000
0010
0000
1000
0100
,
0010
0000
0100
0000
1000
0000
0100
0000
1000
0001
0010
0000
0001
0000
0010
0000
,
0001
0000
1000
0000
0001
0000
1000
0000
0010
0100
0010
0000
1000
0001
1000
0000
,
2002
0000
0000
0000
,
0000
0000
0000
0000
,
3003
0000
0000
0000
;
