#TITLE:Hands Up;
#SUBTITLE:;
#ARTIST:Trevor & Simon;
#TITLETRANSLIT:;
#SUBTITLETRANSLIT:;
#ARTISTTRANSLIT:;
#GENRE:;
#CREDIT:;
#MUSIC:Hands Up.ogg;
#BANNER:Hands Up.png;
#BACKGROUND:Hands Up-bg.png;
#CDTITLE:cdtitle.png;
#SAMPLESTART:13.615;
#SAMPLELENGTH:15.000;
#SELECTABLE:YES;
#OFFSET:1.695;
#BPMS:0.000=141.087;
#STOPS:;
#LASTBEATHINT:1.634258;
#BGCHANGES:4.000=Hands Up.avi=1.000=0=0=1,
99999.000=-nosongbg-=1.000=0=0=0=StretchNoLoop====
;
#FGCHANGES:;

//--------------- dance-single - RaverAce ----------------
#NOTES:
     dance-single:
     RaverAce:
     Beginner:
     2:
     0.098039,0.170588,0.107843,0,0,70,59,11,0,0,0,0.098039,0.170588,0.107843,0,0,70,59,11,0,0,0:
0000
0000
0000
0000
,
0000
0000
0000
0000
,
0000
0000
0000
0000
,
0000
0000
0000
0000
,
0000
0000
0000
0000
,
0001
0000
0000
0000
,
0001
0000
0000
0000
,
1000
0000
0000
0000
,
1000
0000
0000
0000
,
1001
0000
0000
0000
,
0100
0000
0000
0000
,
0010
0000
0000
0000
,
0100
0000
0000
0000
,
1000
0000
0000
0000
,
0001
0000
0000
0000
,
0100
0000
0000
0000
,
0110
0000
0000
0000
,
1001
0000
0000
0000
,
1000
0000
0000
0000
,
0100
0000
0000
0000
,
0010
0000
0000
0000
,
0100
0000
0000
0000
,
1000
0000
0000
0000
,
0001
0000
0000
0000
,
1000
0000
0000
0000
,
1001
0000
0000
0000
,
0000
0000
0000
0000
,
1001
0000
0000
0000
,
0000
0000
0000
0000
,
1001
0000
0000
0000
,
0000
0000
0000
0000
,
1001
0000
0000
0000
,
0000
0000
0000
0000
,
0010
0000
0010
0000
,
0010
0000
0000
0000
,
0100
0000
0100
0000
,
0100
0000
0000
0000
,
0010
0000
0010
0000
,
0010
0000
0000
0000
,
0100
0000
0100
0000
,
0100
0000
0100
0000
,
0010
0000
0000
0000
,
1001
0000
0000
0000
,
0100
0000
0000
0000
,
0010
0000
0000
0000
,
0001
0000
0000
0000
,
0100
0000
0000
0000
,
0010
0000
0000
0000
,
1000
0000
0000
0000
,
0010
0000
0000
0000
,
0110
0000
0000
0000
,
0100
0000
0000
0000
,
0110
0000
0000
0000
,
0010
0000
0000
0000
,
1000
0000
0001
0000
,
1000
0000
0001
0000
,
1000
0000
0001
0000
,
1000
0000
0001
0000
,
1001
0000
0000
0000
;

//--------------- dance-single - RaverAce ----------------
#NOTES:
     dance-single:
     RaverAce:
     Easy:
     4:
     0.161064,0.227451,0.147059,0.127451,0,115,100,15,13,0,0,0.161064,0.227451,0.147059,0.127451,0,115,100,15,13,0,0:
0000
0000
0000
0000
,
0000
0000
0000
0000
,
0000
0000
0000
0000
,
0000
0000
0000
0000
,
0000
0000
0000
0000
,
0001
0000
0010
0000
,
0100
0000
1000
0000
,
0010
0000
0100
0000
,
0220
0000
0000
0330
,
1001
0000
1000
0000
,
0001
0000
0010
0000
,
0100
0000
1000
0000
,
0010
0000
0100
0000
,
0001
0000
1000
0000
,
0100
0000
0010
0000
,
0001
0000
2000
0000
,
0002
0000
0000
3003
,
1001
0000
0001
0000
,
1000
0000
0010
0000
,
0100
0000
0001
0000
,
0010
0000
0100
0000
,
1000
0000
0001
0000
,
0100
0000
0010
0000
,
1000
0000
0001
0000
,
1000
0000
0001
1000
,
2001
0000
0000
0000
,
0200
0000
0000
3300
,
1002
0000
0000
0000
,
0200
0000
0000
0303
,
2001
0000
0000
0000
,
0020
0000
0000
3030
,
1002
0000
0000
0000
,
0020
0000
0000
0033
,
1001
0000
1000
0000
,
0010
0000
0100
0000
,
0110
0000
0010
0000
,
1000
0000
0001
0000
,
1001
0000
1000
0000
,
0100
0000
0010
0000
,
0110
0000
0100
0000
,
1000
0001
0010
0100
,
2000
0000
0000
3001
,
1001
0000
1000
0000
,
0010
0000
0100
0000
,
0001
0000
0010
0000
,
0100
0000
1000
0000
,
0100
0000
0001
0000
,
0100
0000
1000
0000
,
0010
0000
0100
0000
,
0001
0000
1000
0000
,
1001
0000
0001
0000
,
0100
0000
0010
0000
,
0110
0000
0100
0000
,
0001
0000
1000
0000
,
0001
0000
1000
0000
,
0100
0000
0010
0000
,
0001
0000
1000
0000
,
0010
0000
0100
0000
,
0110
0000
0000
0000
;

//--------------- dance-single - RaverAce ----------------
#NOTES:
     dance-single:
     RaverAce:
     Medium:
     7:
     0.256303,0.341176,0.176471,0.284314,0,183,165,18,29,0,0,0.256303,0.341176,0.176471,0.284314,0,183,165,18,29,0,0:
0000
0000
0000
0000
,
0000
0000
0000
0000
,
0000
0000
0000
0000
,
0000
0000
0000
0000
,
0000
0000
0000
0000
,
0002
0000
2003
0000
,
3020
0000
0230
0000
,
0302
0000
0203
0000
,
2300
0000
3100
0001
,
1001
1000
0100
0000
,
0100
1000
0010
0000
,
0100
0001
0010
0000
,
0010
0001
0100
0000
,
1000
0100
0001
0000
,
0001
1000
0100
0000
,
1000
0001
0010
0100
,
2200
0000
0000
3300
,
1001
0001
0100
0000
,
0100
0001
0010
0000
,
0100
1000
0010
0000
,
0010
1000
0100
0000
,
0001
0100
1000
0000
,
1000
0001
0100
0000
,
0001
1000
0010
0100
,
0001
1000
0100
0010
,
1002
0000
0100
0000
,
0020
0000
0000
0033
,
2001
0000
0100
0000
,
0020
0000
0000
3030
,
2001
0000
0010
0000
,
0200
0000
0000
3300
,
1002
0000
0010
0000
,
0200
0000
0000
0303
,
0102
0000
0100
0000
,
1003
0000
0100
1000
0200
0000
0000
0000
,
2300
0000
0100
0000
,
3001
0000
0100
0001
0200
0000
0000
0000
,
0310
0000
1000
0010
2000
0000
0000
0000
,
3010
0000
0100
0010
0200
0000
0000
0000
,
0301
0000
0010
0001
0020
0000
0230
0000
,
2300
0000
3001
1000
0002
0000
0203
0000
,
0020
0000
0330
0110
,
1001
0001
1000
0100
,
0001
0100
1000
0010
,
0001
0010
1000
0010
,
0100
0001
1000
1000
,
0001
1000
0001
0100
,
1000
0100
0001
0010
,
1000
0010
0001
0010
,
0100
1000
0001
0001
,
1001
1000
0010
0100
,
0101
0001
0011
0000
,
1001
0001
0010
0100
,
1100
1000
1010
0000
,
1001
0001
0010
1000
,
0010
0001
0100
1000
,
0100
0001
1000
0100
,
0010
0001
1000
0010
,
0110
0000
0000
0000
;

//--------------- dance-single - RaverAce ----------------
#NOTES:
     dance-single:
     RaverAce:
     Hard:
     14:
     0.687675,0.710784,0.264706,0.421569,0.745098,491,464,27,43,0,0,0.687675,0.710784,0.264706,0.421569,0.745098,491,464,27,43,0,0:
0000
0000
0000
0000
,
0000
0000
0000
0000
,
0000
0000
0000
0000
,
0000
0000
0000
0000
,
0000
0000
0000
0000
,
0001
0000
0000
0200
0000
0000
1300
0000
0100
0000
0000
0002
0000
0000
0013
0000
,
0100
0000
0000
2000
0000
0000
3010
0000
0002
0000
0000
0023
0000
0000
1030
0000
,
0002
1000
1000
2003
,
3010
0000
0000
0020
0000
0000
1030
0000
0001
0000
0010
0001
0010
0000
0100
0000
,
1100
0000
1000
0001
0000
0100
0010
0000
1000
0000
0010
0100
0000
0010
1000
0000
,
0001
0000
1000
0100
0000
0010
0100
0000
1000
0000
0001
0100
0000
0010
0100
0010
,
1000
0000
0100
0010
0000
0100
1000
0000
0001
0000
0100
0010
0000
0100
0001
0000
,
1000
0000
0001
0010
0000
0100
1000
0000
0001
0000
1000
0010
0000
0010
0100
0001
,
0100
0000
0001
1000
0000
0100
0010
0000
0001
0000
0010
0100
0000
0010
0001
0000
,
1000
0000
0001
0100
0000
0010
0100
0000
0001
0000
1000
0100
0000
0010
0100
0010
,
0001
0000
0100
0010
0000
0100
0001
0000
1000
0000
0100
0010
0000
0100
2000
0000
,
0001
0000
0000
0000
0000
0000
0001
0000
0000
0000
0000
0000
0100
0000
0000
0000
0000
0000
3100
0000
0000
0000
0000
0000
1000
0000
0100
0000
1000
0000
0100
0000
0000
0000
0000
0000
1000
0000
0000
0100
0000
0000
0010
0000
0000
0001
0000
0000
,
0100
0000
0001
1000
0000
0100
0010
0000
0001
0000
0010
0100
0000
0010
0001
0000
,
1000
0000
0001
0100
0000
0010
0100
0000
0001
0000
1000
0100
0000
0010
0100
0010
,
0001
0000
0100
0010
0000
0100
0001
0000
1000
0000
0100
0010
0000
0100
1000
0000
,
0001
0000
1000
0010
0000
0100
0001
0000
1000
0000
0001
0010
0000
0010
0100
1000
,
0100
0000
1000
0001
0000
0100
0010
0000
1000
0000
0010
0100
0000
0010
1000
0000
,
0001
0000
1000
0100
0000
0010
0100
0000
1000
0000
0001
0100
0000
0010
0100
0010
,
1000
0000
0100
0010
0000
0100
1000
0000
0001
0000
0100
0010
0000
0100
0001
0000
,
1000
0000
0001
0010
0000
0010
0100
0000
1000
0000
1000
0001
0100
0000
0010
0000
,
0210
0000
0000
0000
0001
0000
0000
0000
0000
0000
0000
0000
0301
0000
0001
1000
,
0100
0010
0001
0010
0120
0000
0031
0000
,
0210
0000
0000
0000
1000
0000
0000
0000
0000
0000
0000
0000
1300
0000
1000
0001
,
0100
0010
1000
0010
0120
0000
2030
0000
,
3002
0000
0000
0203
0000
0000
1300
0000
0200
0000
0000
0302
0000
0000
1003
0100
,
0010
0001
0010
0100
1000
0001
0012
0000
,
2003
0000
0000
3200
0000
0000
0301
0000
0200
0000
0000
2300
0000
0000
3010
0000
,
0200
0000
0000
0302
0000
0000
1003
0000
0100
0000
0010
0100
0000
0010
0100
1000
,
0001
0000
0010
0000
1000
0000
0010
0000
0021
0000
0000
0031
0000
1000
0010
0000
,
0120
0000
0000
0000
1030
0000
0010
0000
1010
0000
0000
0000
1000
0000
0001
1000
,
0010
0000
0100
0000
0001
0000
1000
0000
1200
0000
0000
1300
0000
0001
0100
0000
,
0110
0000
0000
0000
0010
0000
0100
0000
0201
0000
0000
0000
0301
0000
0100
0001
,
1000
0000
0010
0000
0001
0000
0010
0000
1020
0000
0000
1030
0000
0001
0010
0000
,
0120
0000
0000
0000
0031
0000
0010
0000
0011
0000
0000
0000
0001
0000
1000
0001
,
0010
0100
1000
0001
0201
0000
0302
0000
,
1003
0000
0000
0000
0000
0000
1000
0000
0000
0000
0000
0000
0001
0000
0000
0000
0000
0000
0001
0000
0000
0000
0000
0000
0100
0000
0001
0000
0100
0000
0001
0000
0000
0000
0000
0000
0100
0000
0000
0001
0000
0000
0010
0000
0000
0001
0000
0000
,
2000
0000
0000
0000
0000
3001
0101
0000
,
2001
0000
0100
0000
0100
0000
3100
1000
0000
0001
1000
0000
0010
0000
0100
0001
,
0000
0010
0100
0000
1000
0000
0100
0010
0000
0010
0001
0000
1000
0000
0010
0000
,
0200
0000
0010
0000
0010
0000
0310
1000
0000
0010
0100
0000
0001
0000
1000
0100
,
0000
0010
0100
0000
1000
0000
0001
0100
0000
0100
0010
0000
1000
0000
0100
0010
,
0002
0000
0100
0000
0100
0000
0103
0001
0000
1000
0001
0000
0010
0000
0100
1000
,
0000
0010
0100
0000
0001
0000
0100
0010
0000
0010
1000
0000
0001
0000
0010
0000
,
0200
0000
0010
0000
0010
0000
0310
0001
0000
0010
0100
0000
1000
0000
0001
0100
,
0000
0010
0100
0000
0001
0000
1000
0100
0000
0100
0010
0000
0001
0000
0010
0100
,
1001
0000
1000
0000
0100
0000
0001
0000
0200
0000
0000
1300
0000
0001
0100
0000
,
0110
0000
0000
0000
1010
0000
1000
0000
2010
0000
0000
3000
0001
0000
0100
0010
,
1000
0000
0001
0000
0100
0000
1000
0000
0200
0000
0000
0301
0000
1000
0100
0000
,
0110
0000
0000
0000
0011
0000
0001
0000
0012
0000
0000
0000
0013
0000
0100
0010
,
0001
0000
1000
0001
0000
1000
0010
0000
1000
0000
0001
0010
0000
0001
1000
0000
,
0010
0000
0100
0010
0000
1000
0010
0000
0100
0000
0001
0100
0000
0001
1000
0100
,
0010
0000
0100
1000
0000
0100
0010
0000
0001
0000
0010
0100
0000
1000
0100
0000
,
1000
0000
0001
0100
0000
0010
1000
0000
0001
0000
0100
0001
0010
0000
0100
0000
,
1100
0000
0000
0000
;
