#VERSION:0.83;
#TITLE:Halfmoon Beach de aimashou;
#SUBTITLE:;
#ARTIST:Sana&Togo;
#TITLETRANSLIT:;
#SUBTITLETRANSLIT:;
#ARTISTTRANSLIT:;
#GENRE:;
#ORIGIN:;
#CREDIT:;
#BANNER:Halfmoon Beach de aimashou-bn.png;
#BACKGROUND:Halfmoon Beach de aimashou-bg.png;
#PREVIEWVID:;
#JACKET:Halfmoon Beach de Aimashou-jacket.png;
#CDIMAGE:;
#DISCIMAGE:;
#LYRICSPATH:;
#CDTITLE:;
#MUSIC:Halfmoon Beach de aimashou.ogg;
#OFFSET:0.573000;
#SAMPLESTART:33.027000;
#SAMPLELENGTH:20.000000;
#SELECTABLE:YES;
#DISPLAYBPM:130.000000:150.000000;
#BPMS:0.000=150.000,
306.000=140.000,
307.000=135.000,
308.000=130.000;
#STOPS:;
#DELAYS:;
#WARPS:;
#TIMESIGNATURES:0.000=4=4;
#TICKCOUNTS:0.000=4;
#COMBOS:0.000=1;
#SPEEDS:0.000=1.000=0.000=0;
#SCROLLS:0.000=1.000;
#FAKES:;
#LABELS:0.000=Song Start;
#BGCHANGES:;
#KEYSOUNDS:;
#ATTACKS:
;

//---------------dance-single - ----------------
#NOTEDATA:;
#CHARTNAME:;
#STEPSTYPE:dance-single;
#DESCRIPTION:;
#CHARTSTYLE:;
#DIFFICULTY:Hard;
#METER:12;
#RADARVALUES:0.552804,0.583837,0.317945,0.403248,0.104689,499.000000,458.000000,41.000000,52.000000,0.000000,0.000000,0.000000,0.000000,0.000000,0.552804,0.583837,0.317945,0.403248,0.104689,499.000000,458.000000,41.000000,52.000000,0.000000,0.000000,0.000000,0.000000,0.000000;
#CREDIT:;
#DISPLAYBPM:130.000000:150.000000;
#NOTES:
// measure 0
0000
0000
0000
0000
,  // measure 1
0000
0000
0000
0000
,  // measure 2
0000
0000
0000
0000
,  // measure 3
0000
0000
0000
0000
,  // measure 4
0000
0000
0000
0000
,  // measure 5
0001
0000
0100
0010
0000
1010
0000
0101
,  // measure 6
0000
0001
1000
0100
1000
0001
0100
0000
,  // measure 7
0010
0100
0010
1000
0000
0100
0010
0001
,  // measure 8
1000
0001
1000
0010
0000
0100
0010
0100
,  // measure 9
0110
0000
0001
0010
0001
1000
0010
1000
,  // measure 10
0100
0010
0001
1000
0000
0100
1000
0001
,  // measure 11
0100
0000
1001
0001
0010
0001
0100
0010
,  // measure 12
1000
0001
1000
0100
0010
0001
1000
0000
,  // measure 13
0100
0000
1000
0001
0000
0011
0000
0010
,  // measure 14
0001
0100
0010
0100
0001
1000
0100
0000
,  // measure 15
1100
0000
0010
0100
0000
0101
0000
1100
,  // measure 16
0000
1000
0010
0100
0000
0001
0010
0100
,  // measure 17
1001
0000
1000
0010
0100
0001
0010
0100
,  // measure 18
0010
0001
1000
0001
0000
0100
0010
1000
,  // measure 19
0001
0000
0110
0100
0001
0010
0001
0100
,  // measure 20
0010
1000
0001
1000
0100
0010
0001
0000
,  // measure 21
1001
1001
0001
0100
0010
1000
0100
0020
,  // measure 22
0000
0032
0000
2003
0000
3010
0100
0000
,  // measure 23
0110
0110
0001
1000
0001
0010
0100
2000
,  // measure 24
0000
3020
0000
0230
0000
0301
1000
0000
,  // measure 25
1010
0000
1000
0001
1000
0010
0100
0001
,  // measure 26
0010
0000
0100
0000
1000
0000
0000
0000
0001
0000
0000
0100
0000
0000
0010
0000
,  // measure 27
2000
0000
3100
0010
0002
0000
0103
0010
,  // measure 28
2000
0000
3001
0011
0000
1100
0000
0101
,  // measure 29
1001
0000
0001
1000
0001
0010
0100
1000
,  // measure 30
0010
0000
0100
0000
0001
0000
0000
0000
1000
0000
0000
0001
0000
0000
0010
0000
,  // measure 31
0110
0000
1000
0020
0000
0230
0000
0301
,  // measure 32
1000
0001
0010
0200
0000
2300
0000
3001
,  // measure 33
0011
0000
0010
0001
0100
0010
1000
0001
,  // measure 34
0010
0000
0100
0000
1000
0000
0000
0000
0010
0000
0000
1000
0000
0000
0001
0000
,  // measure 35
1001
0000
0100
0010
1000
0001
0010
0100
,  // measure 36
1000
0001
1000
0010
1000
0200
0301
0000
,  // measure 37
1000
0000
0001
1000
0010
0100
0001
0010
,  // measure 38
0100
0000
1000
0010
1000
0001
0010
0100
,  // measure 39
1000
0000
0010
0100
0001
0010
0100
1000
,  // measure 40
0001
0000
0000
1000
0000
0000
0100
0000
0000
0000
1000
0000
0001
0000
0000
0000
,  // measure 41
0100
0000
0001
1000
0001
0010
0100
0000
,  // measure 42
1000
0000
0000
0010
0000
0000
0100
0000
0000
0000
0001
0000
1000
0000
0001
0000
,  // measure 43
0100
0000
0010
1000
0001
1000
0100
0000
,  // measure 44
0020
0000
0000
0032
0000
0000
2003
0000
3020
0000
0000
0230
0000
0000
0302
0000
,  // measure 45
2003
0000
0000
3200
0000
0000
0320
0000
0032
0000
0000
2003
0000
0000
3002
0000
,  // measure 46
1003
0010
0000
0100
0000
0000
0001
0000
0010
0100
0000
1000
0000
0000
0001
0000
,  // measure 47
0010
0000
0000
0001
0000
0000
0100
0000
0001
0000
0000
1000
0000
0000
0010
0000
,  // measure 48
0100
0010
0200
0000
0000
0000
0000
0000
0301
0000
0000
1000
0000
0000
0001
0010
,  // measure 49
0002
0000
0000
2003
0000
0000
3200
0000
0320
0000
0000
0230
0000
0000
2300
0000
,  // measure 50
3020
0000
0000
2030
0000
0000
3002
0000
0203
0000
0000
0302
0000
0000
0023
0000
,  // measure 51
0031
0000
0100
0010
1000
0001
0010
0100
,  // measure 52
2000
0000
0000
0000
0001
0001
3001
0000
,  // measure 53
1001
1001
1000
0001
0100
0010
0100
0002
,  // measure 54
0000
0023
0000
0230
0000
1300
0001
0000
,  // measure 55
0110
0110
0010
1000
0001
0010
0100
2000
,  // measure 56
0000
3020
0000
0230
0000
0301
1000
0000
,  // measure 57
0101
0000
1000
0001
1000
0010
0100
0001
,  // measure 58
0010
0000
0000
0000
0100
0000
1000
0000
0010
0000
0000
1000
0000
0000
0001
0000
,  // measure 59
0020
0000
0031
1000
0020
0000
0130
0001
,  // measure 60
2000
0000
3001
0101
0000
0110
0000
1010
,  // measure 61
1001
0000
0001
0010
0100
0010
0001
1000
,  // measure 62
0010
0000
0000
0000
1000
0000
0001
0000
1000
0000
0000
0010
0000
0000
0100
0000
,  // measure 63
0110
0000
0100
0001
0010
0001
1000
0010
,  // measure 64
1000
0100
0010
0011
0000
0101
0000
1100
,  // measure 65
1001
0000
1000
0001
0010
0100
0010
0001
,  // measure 66
0100
0000
0010
0000
1000
0000
0001
0000
1000
0000
0000
0010
0000
0000
0100
0000
,  // measure 67
0110
0000
0010
0001
0100
0001
0010
0100
,  // measure 68
1000
0010
1000
0001
1000
0100
0010
0001
,  // measure 69
1001
0000
0010
0001
1000
0001
0100
0010
,  // measure 70
1000
0100
0010
0002
0100
0100
0103
0000
,  // measure 71
0010
0000
1000
0001
1000
0010
0100
0001
,  // measure 72
0010
0000
0000
0100
0000
0000
1000
0000
0000
0010
0000
0000
1000
0000
0001
0000
1000
0000
0001
0000
0000
0000
0000
0000
,  // measure 73
0010
0000
0001
0100
0000
0101
0000
1010
,  // measure 74
0000
1000
0001
0010
0001
0000
0000
0000
,  // measure 75
1000
0010
0100
0001
0000
0010
0000
0100
,  // measure 76
1000
0001
1000
0010
0100
0001
1000
0000
,  // measure 77
0220
0000
0000
0000
,  // measure 78
0000
0000
0000
0000
,  // measure 79
0000
0330
0000
0000
;

//---------------dance-single - ----------------
#NOTEDATA:;
#CHARTNAME:;
#STEPSTYPE:dance-single;
#DESCRIPTION:;
#CHARTSTYLE:;
#DIFFICULTY:Medium;
#METER:10;
#RADARVALUES:0.415434,0.460924,0.162850,0.302436,0.042651,375.000000,354.000000,21.000000,39.000000,0.000000,0.000000,0.000000,0.000000,0.000000,0.415434,0.460924,0.162850,0.302436,0.042651,375.000000,354.000000,21.000000,39.000000,0.000000,0.000000,0.000000,0.000000,0.000000;
#CREDIT:;
#DISPLAYBPM:130.000000:150.000000;
#NOTES:
0000
0000
0000
0000
,
0000
0000
0000
0000
,
0000
0000
0000
0000
,
0000
0000
0000
0000
,
0000
0000
0000
0000
,
0001
0000
0010
0001
0000
0100
0000
0010
,
0000
1000
0001
1000
0000
0000
0000
0000
,
0010
0100
0010
1000
0000
0100
0000
1000
,
0000
0001
0100
0001
0000
1000
0001
1000
,
0010
0000
0100
0001
1000
0001
0100
0000
,
0001
0010
0100
0000
1000
0001
1000
0000
,
0001
0000
0010
0100
0010
0001
1000
0000
,
0001
0100
0001
0000
1000
0010
0100
0000
,
0001
0000
0010
0001
0000
0100
0000
0010
,
1000
0001
1000
0100
0000
0000
0000
0000
,
1000
0000
0010
0100
0000
0001
0000
0010
,
0000
0100
1000
0001
0000
1000
0010
0100
,
0001
0000
1000
0010
1000
0001
0100
0000
,
0010
1000
0100
0000
1000
0001
0010
0000
,
0100
0000
0010
0001
0100
0010
1000
0000
,
0001
0010
0100
1000
0000
0000
0000
0000
,
1001
1001
0000
0100
0010
0000
0000
2000
,
0000
3002
0000
0023
0000
0130
1000
0000
,
0110
0110
0000
0001
1000
0000
0000
0020
,
0000
0230
0000
0302
0000
1003
0100
0000
,
0001
0000
1000
0010
1000
0100
0010
0001
,
0000
0000
0000
0000
0000
0000
0000
0000
0100
0000
0000
0010
0000
0000
1000
0000
,
0002
0013
0200
1300
,
0020
0000
0130
0002
0000
2003
0000
3100
,
0020
0000
0100
0000
1000
0000
0031
1000
,
0001
0000
0000
0000
0100
0000
0000
0000
0010
0000
0000
1000
0000
0000
0001
0000
,
0200
0001
0010
1000
,
0301
0000
1000
0020
0000
2030
0000
3001
,
0020
0000
1000
0000
0100
0000
0031
0100
,
0010
0000
0000
0000
1000
0000
0000
0000
0001
0000
0000
1000
0000
0000
0100
0000
,
2000
0010
0100
0001
,
0010
0000
3100
0000
1000
0002
0103
0000
,
0010
0000
0110
0000
0000
0101
0000
1010
,
0000
0000
0000
1000
0010
1000
0100
0010
,
0001
0000
0000
0010
0001
0100
0010
1000
,
0100
0000
0000
0100
0000
0000
0100
0000
0000
0000
0000
0000
0000
0000
0000
0000
,
1000
0000
0010
0100
0001
1000
0100
0000
,
0010
0000
0000
0010
0000
0000
0010
0000
0000
0000
0001
0000
0000
0000
1000
0000
,
0001
0000
0000
1001
0000
0000
0000
0000
,
0010
0000
0000
1000
0000
0000
0100
0000
0010
0000
0000
0001
0000
0000
0100
0000
,
0001
0101
1000
1100
,
0001
0100
1000
0000
0001
0010
1000
0000
,
0001
0011
1000
1010
,
0001
0000
2000
0000
0000
0000
0000
0000
0100
0000
0000
0100
0000
0000
3100
0000
,
1000
1010
0001
0011
,
1000
1100
0001
0101
,
0010
0000
0100
0000
0001
1000
0000
0001
,
0200
0000
0010
0310
,
1001
1001
0000
0010
0100
0000
0000
0002
,
0000
0023
0000
0230
0000
1300
0010
0000
,
0110
0110
0000
1000
0001
0000
0000
0020
,
0000
0032
0000
2003
0000
3001
0100
0000
,
0010
0000
1000
0001
0010
0001
0100
0010
,
1000
0000
0000
0000
0000
0000
0000
0000
0100
0000
0000
0010
0000
0000
0001
0000
,
0200
0310
2000
3001
,
0020
0000
0031
2000
0000
3002
0000
0103
,
0020
0000
0100
0000
0001
0000
1030
0100
,
1000
0000
0000
0000
0001
0000
0000
0000
0010
0000
0000
0100
0000
0000
0010
0000
,
0002
1000
0100
0010
,
0100
0000
1003
0020
0000
2030
0000
3001
,
0200
0000
1000
0000
0001
0000
0310
1000
,
0100
0000
0000
0000
0010
0000
0000
0000
0001
0000
0000
0100
0000
0000
0010
0000
,
2000
0100
0010
0001
,
0010
0000
0100
0000
3001
1000
0001
1000
,
0010
0000
1000
0100
0000
0010
0000
0100
,
0000
1000
0001
1000
0000
0010
0100
0000
,
0001
0000
1000
0001
0000
0010
0000
0100
,
1000
0001
1000
0001
0100
0010
1000
0000
,
0001
0000
0010
0001
0000
0100
0000
0010
,
0000
1000
0100
1000
0000
0000
0000
0000
,
0001
0010
0001
0100
0000
0010
0000
1000
,
0100
1000
0001
1000
0010
0100
0001
0000
,
0220
0000
0000
0000
,
0000
0000
0000
0000
,
0000
0330
0000
0000
;

//---------------dance-single - ----------------
#NOTEDATA:;
#CHARTNAME:;
#STEPSTYPE:dance-single;
#DESCRIPTION:;
#CHARTSTYLE:;
#DIFFICULTY:Easy;
#METER:7;
#RADARVALUES:0.310191,0.338011,0.155095,0.124076,0.000000,280.000000,260.000000,20.000000,16.000000,0.000000,0.000000,0.000000,0.000000,0.000000,0.310191,0.338011,0.155095,0.124076,0.000000,280.000000,260.000000,20.000000,16.000000,0.000000,0.000000,0.000000,0.000000,0.000000;
#CREDIT:;
#DISPLAYBPM:130.000000:150.000000;
#NOTES:
0000
0000
0000
0000
,
0000
0000
0000
0000
,
0000
0000
0000
0000
,
0000
0000
0000
0000
,
0000
0000
0000
0000
,
0001
1000
0100
0010
,
0001
0100
1000
0000
,
0010
0100
0001
0100
,
0010
1000
0100
0001
,
1001
0010
1000
0001
,
0010
0100
1000
0010
,
1000
0001
1000
0100
,
0010
0001
1000
0010
,
1000
0001
0010
0100
,
0010
0001
1000
0000
,
0001
0100
0001
0010
,
0100
1000
0010
0100
,
1001
0010
1000
0100
,
0010
0001
0100
0001
,
0010
0100
1000
0010
,
1000
0001
0010
0100
,
1000
1000
0000
0000
0000
0000
0000
0001
,
0000
0100
0000
0010
0000
1000
0000
0000
,
0001
0001
0000
0000
0000
0000
0000
0010
,
0000
0001
0000
1000
0000
0010
0100
0000
,
0110
0010
1000
0100
,
0010
0001
1000
0001
,
0202
0303
2200
3300
,
2002
3000
0100
1003
,
1001
0001
0100
0010
,
1000
0100
1000
0001
,
0110
0010
1000
0100
,
1000
0001
0010
0100
,
1100
0001
1000
0010
,
1000
0100
0010
0001
,
0101
0010
0100
0001
,
0010
0000
0100
0000
1000
0001
0000
0000
,
0000
0000
0010
0000
0000
0001
0000
1000
,
0000
0000
0001
1000
,
0100
0000
1000
0010
,
1000
0001
0100
0000
,
0000
0001
0010
0100
,
1000
0010
1000
0001
,
0100
0000
0000
0010
0000
0000
0000
0000
,
1000
0001
1000
0001
,
0010
0010
0100
0100
,
1000
0001
1000
0001
,
0100
0010
1000
0001
,
0010
0000
0001
1000
,
0001
0001
0100
0100
,
0010
0010
1000
1000
,
0001
1000
0010
0100
,
2002
0000
0000
3003
,
0010
0010
0000
0000
0000
0000
0000
1000
,
0000
0001
0000
0100
0000
0010
0000
0000
,
0100
0100
0000
0000
0000
0000
0000
0001
,
0000
0010
0000
0001
0000
1000
0100
0000
,
0110
0010
0001
0100
,
0001
1000
0010
0100
,
2020
3030
0022
0033
,
0220
0030
1000
0310
,
0101
1000
0010
1000
,
0100
0010
0001
1000
,
1010
0010
1000
0100
,
1000
0010
0100
0001
,
0011
0001
0100
0010
,
1000
0001
1000
0100
,
1100
1000
0001
1000
,
0010
0100
0001
1000
,
0001
0010
0001
1000
,
0010
0100
0010
0000
,
1000
0001
1000
0100
,
0010
0100
1000
0000
,
0001
0010
0001
0100
,
0010
1000
0001
0000
,
1000
0001
1000
0010
,
0100
0001
1000
0100
,
0220
0000
0000
0000
,
0000
0000
0000
0000
,
0000
0330
0000
0000
;

//---------------dance-single - ----------------
#NOTEDATA:;
#CHARTNAME:;
#STEPSTYPE:dance-single;
#DESCRIPTION:;
#CHARTSTYLE:;
#DIFFICULTY:Beginner;
#METER:4;
#RADARVALUES:0.139586,0.215098,0.038774,0.077548,0.000000,126.000000,121.000000,5.000000,10.000000,0.000000,0.000000,0.000000,0.000000,0.000000,0.139586,0.215098,0.038774,0.077548,0.000000,126.000000,121.000000,5.000000,10.000000,0.000000,0.000000,0.000000,0.000000,0.000000;
#CREDIT:;
#DISPLAYBPM:130.000000:150.000000;
#NOTES:
0000
0000
0000
0000
,
0000
0000
0000
0000
,
0000
0000
0000
0000
,
0000
0000
0000
0000
,
0000
0000
0000
0000
,
0001
0000
1000
0000
,
0010
0010
0000
0000
,
0100
0000
0001
0000
,
1000
0000
0100
0000
,
1000
0000
0001
0000
,
0100
0000
0000
0000
,
0001
0000
1000
0000
,
0010
0000
0000
0000
,
1000
0000
0100
0000
,
1000
1000
0000
0000
,
0001
0000
0010
0000
,
0001
0000
0100
0000
,
0010
0000
0000
0000
,
1000
0000
0000
0000
,
0001
0000
0000
0000
,
0100
0000
0000
0000
,
1001
0000
0000
0000
,
0001
0001
0001
0000
,
0110
0000
0000
0000
,
1000
1000
1000
0000
,
0001
0000
1000
0000
,
0010
0000
1000
0000
,
0100
0000
0100
0000
,
0100
0000
1000
0000
,
0002
0000
0000
0000
,
0003
0000
1000
0000
,
0020
0000
0000
0000
,
0030
0000
1000
0000
,
0200
0000
0000
0000
,
0300
0000
0100
0000
,
2000
0000
0000
0000
,
3000
0000
0000
0000
,
0001
0000
0010
0000
,
0100
0000
1000
0000
,
0010
0000
0100
0000
,
0001
0001
0000
0000
,
1000
0000
0001
0000
,
0010
0000
0100
0000
,
1000
0000
0010
0000
,
0100
0100
0100
0000
,
0001
0000
1000
0000
,
0001
0000
1000
0000
,
0010
0000
0100
0000
,
0010
0000
0100
0000
,
0001
0000
0010
0000
,
0100
0000
1000
0000
,
0001
0000
0000
0000
,
0100
0000
0000
0000
,
1001
0000
0000
0000
,
0010
0010
0010
0000
,
0110
0000
0000
0000
,
0100
0100
0100
0000
,
0001
0000
0010
0000
,
0001
0000
1000
0000
,
0100
0000
0100
0000
,
0100
0000
1000
0000
,
0020
0000
0000
0000
,
0030
0000
1000
0000
,
0200
0000
0000
0000
,
0300
0000
0010
0000
,
0002
0000
0000
0000
,
0003
0000
0001
0000
,
2000
0000
0000
0000
,
3000
0000
0000
0000
,
0010
0000
1000
0000
,
0100
0100
0000
0000
,
0010
0000
0001
0000
,
1000
1000
0000
0000
,
0001
0000
1000
0000
,
0010
0010
0000
0000
,
0100
0000
0001
0000
,
1000
1000
1000
0000
,
0220
0000
0000
0000
,
0000
0000
0000
0000
,
0000
0330
0000
0000
;
