#TITLE:НУМЛ;
#SUBTITLE:;
#ARTIST:Zutt;
#TITLETRANSLIT:HYMN;
#SUBTITLETRANSLIT:;
#ARTISTTRANSLIT:;
#GENRE:;
#CREDIT:;
#MUSIC:HYMN.ogg;
#BANNER:HYMN.png;
#BACKGROUND:;
#CDTITLE:;
#SAMPLESTART:103.272;
#SAMPLELENGTH:15.000;
#SELECTABLE:YES;
#OFFSET:0.910;
#BPMS:0.000=158.000
,32.000=200.000
,220.000=158.000
,273.000=163.000
,276.000=200.000
,400.000=192.000
,406.000=185.000
,407.000=190.000
;
#STOPS:;
#BGCHANGES:;
#FGCHANGES:;

//--------------- dance-single - ----------------
#NOTES:
     dance-single:
     :
     Beginner:
     9:
     0.407445,0.955106,0.021127,0,0.341549,405,402,3,0,0,0,0.407445,0.955106,0.021127,0,0.341549,405,402,3,0,0,0:
0000
0000
0000
0000
,
0000
0000
0000
0000
,
0000
0000
0000
0000
,
0000
0000
0000
0000
,
0000
0000
0000
0000
,
1000
0100
0010
0000
,
0001
0100
0001
0010
,
0100
0100
0200
0000
,
0000
0000
0300
0000
,
0010
0001
0010
0001
,
1000
0010
0100
0000
,
0010
1000
0010
1000
,
0001
0010
0100
0000
,
2002
0000
0000
0000
,
0000
0000
0000
0000
,
0000
0000
0000
0000
,
0000
0000
3003
0000
,
0001
0010
0100
1000
,
0100
0010
0001
0100
,
0100
0010
0010
0100
,
0010
0000
0001
0100
0000
0100
0000
0100
,
0010
0010
0100
0001
,
0100
0010
1000
0100
,
0100
0010
0010
0100
,
0010
0000
0001
1000
0000
1000
0000
1000
,
0100
0010
0002
0000
,
0013
0100
1000
1000
,
0001
0100
0020
0000
,
1030
0000
1000
0010
0000
0010
0000
0010
,
0100
0001
2000
0000
,
3001
0100
0010
0010
,
1000
0100
0020
0000
,
0000
0000
0030
0000
,
0001
0100
0001
0000
,
1000
0100
0001
0100
,
1000
0010
1000
0000
,
0001
0100
1000
0100
,
0001
0010
0001
0000
,
0100
0010
0100
0010
,
1000
0100
0100
0010
,
0001
0100
0010
0000
,
1000
0010
0010
0100
,
0001
0010
0100
0000
,
0001
0000
0000
0001
0000
0000
0001
0000
,
0010
0000
0000
0000
0100
0000
0000
0100
,
0000
0100
0010
0001
,
1000
0000
0000
1000
0000
0000
1000
0000
,
0010
0000
0000
0000
0100
0000
0000
0100
,
0000
0100
0010
0000
,
1000
0000
1000
0010
0000
0000
1000
0000
,
0100
0000
1000
0000
0001
0000
0001
0100
,
0000
0001
0010
0001
,
0100
0000
0100
0010
0000
0000
0100
0000
,
0001
0000
1000
0000
0100
0000
0100
0010
,
0000
0100
1000
0001
,
0000
0000
1000
1000
,
0100
0000
0010
0010
,
0010
0000
0001
0001
,
0100
0000
0010
0010
,
0010
0000
2000
0000
,
0000
0000
0000
3000
0000
0002
0000
0000
,
0000
0000
0000
0000
0000
0003
0000
1000
,
0000
0100
0100
0010
,
0010
0000
0000
2002
0000
0000
0000
3003
,
0000
0100
0000
0000
0220
0000
0000
0000
,
0000
0330
0000
0010
0000
0000
1000
0000
,
0100
0010
0002
0000
,
1000
0000
1003
0000
1010
0000
0000
0101
,
0000
2002
0000
3003
,
0002
0000
0000
0000
,
0013
0000
0000
0000
,
2000
0000
0000
0000
,
3010
0000
0000
0000
,
0110
0000
0000
0001
0000
0001
0000
0001
,
0010
0000
0000
0100
0000
0100
0000
0100
,
1000
0000
0000
0001
0000
0001
0000
0001
,
0010
0000
0000
0110
0000
0000
1000
0000
,
1000
0000
1000
0010
0000
0200
0000
0000
,
0301
0000
0001
0010
0000
0200
0000
0000
,
1300
0000
1000
0010
0000
0200
0000
0000
,
0010
0010
0310
0000
,
1000
0100
1000
0100
,
0010
0010
0010
0001
,
1000
0010
1000
0010
,
0100
0100
0100
0000
,
1001
0000
0000
0010
0000
0010
0000
0010
,
1000
0000
0000
0001
0000
0001
0000
0001
,
0010
0000
0000
0100
0000
0100
0000
0100
,
1000
0001
1001
0000
,
1000
0010
1000
0100
,
0010
0100
1000
0000
,
0001
0010
0001
0100
,
0010
0100
0001
0000
,
0100
0010
1000
0100
,
0001
0100
1000
0001
,
0100
0010
0001
0010
,
1000
0100
0100
0010
,
2002
0000
3003
0000
,
0002
0000
2003
0000
,
3020
0000
2030
0000
,
3200
0000
0320
0000
,
0032
0000
1003
1000
,
0001
0100
0010
0000
,
1000
0100
0010
0010
,
0010
0000
2002
0000
,
0000
0000
0000
3003
,
1000
0010
0100
0000
,
0001
0100
0010
0010
,
0010
0000
2002
0000
,
0000
0000
0000
0000
,
0000
0000
0000
0000
,
0000
0000
0000
0000
,
3003
0000
0000
0000
;

//--------------- dance-single - ----------------
#NOTES:
     dance-single:
     :
     Easy:
     11:
     0,0,0,0,0:
0000
0000
0000
0000
,
0000
0000
0000
0000
,
0000
0000
0000
0000
,
0000
0000
0000
0000
,
0000
0000
0000
0000
,
0001
0010
0200
0000
,
1300
1000
0100
0010
,
0001
1000
2002
0000
,
0000
0000
3003
0000
,
0110
0010
1000
0100
,
1000
0010
0100
0001
,
0110
0100
0001
1000
,
0010
1000
0100
0100
,
0010
0000
0001
0000
0100
0000
0001
0000
0010
0000
0001
0000
,
0100
0000
0000
0000
0010
0000
1000
0000
0100
0000
1000
0000
,
0010
0000
1000
0000
0100
0000
0000
0000
0010
0000
0001
0000
,
1000
0000
0001
0000
0010
0000
0100
0000
0010
0000
0100
0000
,
1000
0000
0001
0100
0001
0000
0010
0000
,
0110
0000
1000
0001
0100
0001
1000
0000
,
1000
0010
0000
0001
0000
0010
0000
1000
,
0100
0000
0100
0010
0000
0110
0000
0010
,
0001
0000
1000
0100
1000
0000
0010
0000
,
0110
0000
0001
1000
0100
1000
0001
0000
,
0001
0010
0000
1000
0000
0010
0000
0001
,
0100
0010
0100
0010
0000
1000
0010
0100
,
0010
0100
2002
3003
,
1000
0000
0000
0100
0000
0000
0010
0000
0010
0000
0010
0000
,
0001
0101
1010
1000
,
0001
0100
0001
0010
0000
0100
1000
0001
,
0100
0010
2002
3003
,
0001
0000
0000
0010
0000
0000
0100
0000
0100
0000
0100
0000
,
1000
1010
0101
0100
,
0010
0000
1000
0001
1000
0001
1000
0000
,
0100
0000
0010
0001
0010
0000
0100
0000
,
1000
0000
0001
0010
0001
0000
0100
0000
,
0010
0000
1000
0100
1000
0000
0001
0000
,
0010
0000
0100
1000
0100
0000
0010
0000
,
0001
0000
1000
0010
1000
0000
0001
0000
,
0100
0000
0010
1000
0010
0000
0100
0000
,
0001
0000
0001
0010
0100
0000
0100
0000
,
1000
0000
1000
0010
0100
0000
0100
0000
,
0001
0010
0001
0010
0001
0100
0001
0100
,
0001
1000
0100
0000
0220
0000
0330
0000
,
1001
0000
0000
1100
0000
0001
0100
0010
,
0100
0000
0010
0000
1001
0000
0000
0011
,
0000
1000
0100
0000
0010
0000
0110
0000
,
1001
0000
0000
0101
0000
1000
0100
0010
,
0100
0000
0010
0000
1001
0000
0000
1010
,
0000
0001
0010
0000
0100
0000
0110
0000
,
1000
0100
0010
0001
0000
0001
0010
0000
,
0100
0000
1001
0000
0001
0100
0010
1000
,
0000
1000
0100
0000
0010
0000
0001
0000
,
0010
0001
1000
0010
0000
0010
0100
0000
,
0001
0000
1001
0000
0100
1000
0010
0100
,
0000
0100
0010
1000
0010
1000
0010
0100
,
0000
0000
1001
0001
,
0010
0010
0001
0100
,
0010
1000
1001
0100
,
0010
0010
0001
0101
,
1100
0000
0000
0000
0000
0000
0000
0000
1000
0000
0000
0020
0000
0000
0100
0000
,
0000
1000
0000
0000
0100
0000
0000
1030
0000
0000
0001
0000
0000
0020
0000
0000
,
0100
0000
0000
0001
0000
0000
0100
0000
0000
0031
0000
0000
0000
0000
0100
0000
,
0000
0200
0000
0000
0010
0000
0000
1000
0000
0000
0001
0000
0000
0310
0000
0000
,
1000
0000
0000
0002
0000
0000
0100
0000
0000
1000
0000
0000
0010
0000
0000
0103
,
0000
0000
0010
0000
0000
2000
0000
0000
0100
0000
0000
0001
0000
0000
0010
0000
,
0000
3100
0000
0000
0000
0000
0010
0000
0000
0020
0000
0000
0100
0000
0000
1000
,
0000
0000
0001
0000
0000
0130
0000
0000
0010
0000
0000
0200
0000
0000
0000
0000
,
0000
0000
0000
0000
0000
0000
0000
0000
1300
0000
0000
0010
0000
0000
0100
0000
,
0000
0002
0000
0000
2000
0000
0000
0000
0000
0000
0000
0000
3003
0000
0000
0000
,
0020
0000
0000
0000
,
2030
0000
0000
0100
0000
0010
0000
3100
,
0020
0000
0000
0000
,
0032
0000
0000
0100
0000
0010
0000
0103
,
0010
0000
0000
1000
0000
1100
0000
0010
,
0001
0000
0000
1000
0000
1010
0000
0100
,
0001
0000
0000
0001
0000
0011
0000
1000
,
0100
1000
0000
0010
0000
0110
0000
0000
,
1000
0100
0000
0011
0000
0101
0000
0000
,
0001
0100
0000
1010
0000
1100
0000
0000
,
0100
0010
0000
0110
0000
1001
0000
0000
,
1000
0100
0010
0000
0001
0100
0010
0000
,
0010
0000
1000
0000
0100
0000
1000
0001
,
0100
0000
0001
0000
0010
0000
0001
1000
,
0100
0000
1000
0000
0010
0000
1000
0001
,
0100
0010
0000
0110
0000
0110
0000
0010
,
1000
0100
0000
1100
0000
0011
0000
0001
,
0100
0010
0000
1010
0000
0101
0000
0001
,
1000
0100
0000
0110
0000
1001
0000
0001
,
0100
0010
0220
0330
,
1000
1000
0010
1000
,
0001
0001
0100
0001
,
0010
0010
0100
0010
,
0001
0001
1000
0100
,
1000
0010
0100
0000
0010
0000
1000
0000
,
0100
1000
0010
0000
0100
0000
0010
0000
,
0100
0001
0010
0000
0001
0000
0100
0000
,
0010
0100
0010
0100
0001
1000
0001
1000
,
0200
0000
0000
0300
,
1000
0010
1000
0000
0001
0010
0001
0000
,
1000
0100
1000
0000
0001
0010
0001
0000
,
1000
0010
1000
0000
0001
0100
0001
0000
,
1000
0100
1000
0000
0001
0100
0010
0100
,
0001
0010
0200
0000
,
1300
0000
0000
0010
0000
0000
0100
0000
0100
0000
0100
0000
,
0010
2000
0002
0000
,
0000
0000
0000
3003
,
1000
0010
0200
0000
,
0301
0000
0000
0010
0000
0000
0100
0000
0100
0000
0100
0000
,
0010
0002
2000
0000
,
0000
0000
0000
0000
,
0000
0000
0000
0000
,
0000
0000
0000
0000
,
3003
0000
0000
0000
;

//--------------- dance-single - ----------------
#NOTES:
     dance-single:
     :
     Medium:
     15:
     0,0,0,0,0:
0000
0000
0000
0000
,
0000
0000
0000
0000
,
0000
0000
0000
0000
,
0000
0000
0000
0000
,
0000
0000
0000
0000
,
1000
0100
0020
0000
,
0031
0100
0010
1000
,
1001
0200
0020
0000
,
0000
0000
0330
0000
,
0011
1010
1001
0001
,
0100
0010
1000
0100
,
1100
0101
1001
0001
,
0100
0010
1000
0100
,
0010
0000
0001
0000
1000
0000
1001
0000
0100
0000
0010
0000
,
0110
0000
0001
0000
0100
0000
0101
0000
0010
0000
1000
0000
,
0100
0000
1000
0000
1100
0000
0010
0000
0001
0000
1001
0000
,
0100
0000
0010
0000
1000
0000
0100
0000
0110
0000
0010
0000
,
0002
0000
0103
0001
0010
0001
0100
0010
,
1000
0100
1000
0010
0001
0010
1000
0000
,
0200
0010
0000
1000
0000
0001
0000
0310
,
0100
1000
0010
0100
0000
0110
0000
0001
,
1000
0100
1000
0010
1000
0100
0010
0001
,
0100
0001
0010
1000
0010
0001
0100
0000
,
0020
1000
0000
0100
0000
0001
0000
0130
,
0001
0010
0100
1000
0000
1000
0100
0010
,
0001
0101
1010
1000
,
0100
0000
0000
0010
0000
0000
0100
0000
0000
0010
0000
0000
0100
0000
0000
0000
1000
0000
0000
0000
0001
0000
0000
0000
,
0100
0010
0100
0001
0010
1000
0010
0001
,
0100
0000
0010
0000
1000
0000
0001
0000
0000
0000
0100
0000
0010
0100
0010
0000
,
1000
1100
0011
0001
,
0100
0000
0000
0010
0000
0000
0100
0000
0000
0010
0000
0000
0100
0000
0000
0000
0001
0000
0000
0000
1000
0000
0000
0000
,
0100
0010
0100
1000
0010
0001
0010
1000
,
0100
0000
0010
0000
0001
0000
1000
0000
0010
0100
0010
0100
0010
0000
0000
0000
,
1001
0000
0001
0010
0100
0010
0100
1000
,
0010
0000
0001
0000
0010
0000
1000
0000
0001
0000
0100
0001
0100
0000
0010
0000
,
1000
0000
0100
1000
0010
1000
0100
0010
,
0100
0000
0010
0000
0001
0000
0100
0000
0010
0000
1000
0001
1000
0000
0000
0000
,
1001
0000
1000
0010
0100
0010
0100
0001
,
0010
0000
1000
0000
0010
0000
0001
0000
1000
0000
0100
1000
0100
0000
0010
0000
,
0001
0000
0100
0001
0010
0001
0100
0010
,
0100
0000
0010
0000
1000
0000
0100
0000
0010
0000
0001
1000
0001
0000
0100
0000
,
0010
1000
0100
1000
0010
1000
0100
0010
,
0001
1000
0001
1000
0001
0000
0100
0000
0220
0000
0000
0000
0330
0000
0000
0000
,
1000
0100
0010
0002
0000
0013
0100
1000
,
0010
0000
0100
0010
0100
0000
0001
0000
1000
0000
0001
0000
0100
0000
0020
0000
,
0000
0000
0130
0000
0001
1000
0100
0000
0010
0000
0010
0000
0100
0000
0010
0000
,
0001
0100
0010
2000
0000
3010
0100
0001
,
0010
0000
0100
0010
0100
0000
1000
0000
0001
0000
1000
0000
0100
0000
0020
0000
,
0000
0000
0130
0000
1000
0001
0100
0000
0010
0000
0010
0000
0010
0000
0000
0000
,
0100
0001
0100
0001
1000
0010
1000
0100
,
0010
0000
0001
1000
0010
0000
0100
0000
0001
0000
0010
0000
1000
0000
0010
0000
,
0001
0000
1000
0000
0010
0000
0100
0000
0010
0000
0100
0001
1000
0000
0000
0000
,
0010
1000
0010
1000
0001
0100
0001
0010
,
0100
0000
1000
0001
0100
0000
0010
0000
1000
0000
0100
0000
0001
0000
0100
0000
,
1000
0000
0001
0000
0100
0001
0100
0000
0010
0100
0010
0000
1000
0010
1000
0000
,
0000
0000
1001
0001
,
0010
0100
1000
0001
,
0100
0010
0110
1000
,
1100
0010
0011
1010
,
1001
0000
0000
0000
0000
0000
0000
0000
0001
0010
0001
0100
0000
0010
1000
0000
,
0010
1000
0000
0001
0100
0000
0010
1000
0000
0000
1000
0100
1000
0010
0000
0100
,
0001
0000
1000
0010
0000
1000
0100
0000
0010
0001
0010
0000
0000
0000
0100
1000
,
0010
1000
0000
0000
0100
0000
0001
0000
0100
0000
1000
0000
0010
0000
0100
0000
,
0001
1000
0001
0010
0000
0100
1000
0000
0010
1000
0000
0001
0100
0000
0001
0010
,
0000
0000
0100
1000
0010
1000
0000
0100
0001
0000
0100
1000
0000
0010
0100
0000
,
0001
1000
0001
0000
0000
0000
0010
0001
1000
0001
0000
0000
0100
0010
0000
1000
,
0100
0000
0010
0001
0000
0100
0001
0100
0010
0000
0000
0020
0000
0000
0000
0000
,
0130
0000
0000
0000
0001
0000
0000
0000
0100
0000
0000
0000
0010
0000
0000
0000
1000
0000
0000
0000
0100
0000
0000
0000
0010
0000
0000
0000
0000
0000
0000
0000
0000
0011
0000
0000
0000
0000
0000
0000
0000
0000
0101
0000
0000
0000
0000
0000
,
0000
1010
0000
0000
2200
0000
0000
0000
0000
0000
0000
0000
3300
0000
0000
0000
,
0002
0000
0000
0000
,
0103
0010
0000
1010
0000
0101
0000
0010
,
2000
0000
0000
0000
,
3100
0000
0010
0000
0000
0000
0001
0000
0010
0001
1000
0000
0100
1000
0001
0000
,
1001
0000
0000
1010
0000
1100
0000
1000
,
0010
1000
0000
0011
0000
0101
0000
0001
,
0010
0001
0000
1100
0000
0011
0000
0001
,
0100
0010
0000
0110
0000
1001
0000
1000
,
0100
0020
0000
1000
0000
0001
0000
0130
,
1000
0020
0000
0001
0000
1000
0000
0130
,
0001
0020
0000
1000
0000
0001
0000
0130
,
0010
0001
0100
0010
1000
0001
1000
0000
,
1001
0000
0000
0001
0010
0000
0000
0010
1000
0000
0000
1000
0010
0000
0000
0010
,
0001
0000
0000
0001
0100
0000
0000
0100
1000
0000
0000
1000
0100
0000
0000
0100
,
0001
0000
0000
0001
0010
0000
0000
0010
0100
0000
0000
0100
1000
0000
0000
1000
,
0100
0100
0010
0110
0000
1001
0000
1000
,
0200
0010
0010
0010
0000
0001
0000
1300
,
0020
0100
0100
0100
0000
0001
0000
1030
,
0200
0010
0010
0010
0000
0001
0000
1300
,
0010
0010
0100
0100
,
0010
0000
0010
1000
0000
1000
0001
0100
0001
0100
0000
0000
,
0001
0000
0001
0010
0000
0010
0100
1000
0100
1000
0000
0000
,
0001
0000
0001
0100
0000
0100
0010
1000
0010
1000
0000
0000
,
0100
0000
0100
1000
0000
1000
0001
0100
0001
0100
0000
0000
,
0010
0000
0010
0100
0000
0100
0001
1000
0001
1000
0001
1000
,
0100
0000
0100
0010
0000
0010
0100
1000
0001
1000
0001
1000
,
0010
0000
0010
0100
0000
0100
0001
0010
0001
0010
0001
0100
,
0010
0000
0010
1000
0000
1000
0100
1000
0100
1000
0010
0100
,
0002
0000
0000
0000
,
1003
0100
0010
0000
0010
0100
1000
0000
,
0001
0100
0010
0000
0010
0100
0001
0000
,
1000
0001
0010
0000
0001
1000
0100
0000
,
1000
0001
0100
0000
0001
0010
0001
0100
,
0020
2030
3002
0000
,
0023
0000
0000
0230
0000
0000
1300
0000
0001
0000
0001
0000
,
0100
0010
2002
0000
,
0000
0000
0000
3003
,
0020
0032
2003
0000
,
3020
0000
0000
0230
0000
0000
0301
0000
1000
0000
1000
0000
,
0100
0010
2002
0000
,
0000
0000
0000
0000
,
0000
0000
0000
0000
,
0000
0000
0000
0000
,
3003
0000
0000
0000
;

//--------------- dance-single - ----------------
#NOTES:
     dance-single:
     :
     Hard:
     18:
     0,0,0,0,0:
0000
0000
0000
0000
,
0000
0000
0000
0000
,
0000
0000
0000
0000
,
0000
0000
0000
0000
,
0000
0000
0000
0000
,
0002
0100
0010
0000
,
2003
0100
0001
3010
,
0220
0000
0000
0000
,
0000
0000
0330
0000
,
2100
0010
3001
0100
,
0001
0010
0100
0100
,
0012
0100
1003
0010
,
1000
0100
0010
0010
,
0001
0000
0100
0000
0001
0000
1000
0100
0010
0000
0100
0000
,
1000
0010
0100
0000
0010
0000
1000
0001
0100
0000
0010
0000
,
0100
0001
1000
0000
0100
0010
0001
0000
0100
0000
0001
0010
,
0100
0000
1000
0000
0010
0100
0010
0100
0001
1000
0100
0010
,
0002
0000
0103
0010
1000
0100
1000
0001
,
0100
0001
1000
0100
0010
0001
0200
0000
,
0310
1000
0001
0010
0001
1000
0001
0100
,
1000
0001
0010
1000
0000
0110
0000
0001
,
1000
0100
0010
0001
0100
0001
1000
0100
,
1000
0001
0100
0010
1000
0100
0020
0000
,
0031
0100
0001
1000
0001
0100
0001
0010
,
1000
0001
0100
1000
0000
1000
0100
0010
,
0001
0000
1000
0000
0001
0000
1000
0000
0010
0100
0010
0000
0001
0000
0010
0000
,
1000
0000
0000
0001
0000
0000
1000
0000
0000
0001
0000
0000
0010
0000
0000
0000
0110
0000
0000
0000
1000
0000
0000
0000
,
0001
0100
0001
0010
0001
0100
0001
1000
,
0100
0000
0001
0000
1000
0000
0020
0000
0000
0000
0031
0000
1000
0100
1000
0100
,
1000
0000
0001
0000
1000
0000
0001
0000
0010
0100
0010
0000
1000
0000
0010
0000
,
0001
0000
0000
1000
0000
0000
0001
0000
0000
1000
0000
0000
0010
0000
0000
0000
0110
0000
0000
0000
0001
0000
0000
0000
,
1000
0100
1000
0010
1000
0100
1000
0001
,
0100
0000
0010
0000
1000
0001
1000
0001
1000
0001
1000
0001
1000
0000
0000
0000
,
0010
0000
1000
0100
1000
0000
0010
0000
0000
0000
0100
0000
0001
0000
0010
0100
,
0010
0000
0001
0000
1000
0000
0010
0000
0100
0000
0001
1000
0001
0000
0010
0000
,
0100
0000
1000
0000
0010
0000
0100
0001
0100
0000
0010
0000
0000
0000
1000
0000
,
0100
0000
1000
0010
1000
0000
0100
0000
0010
0000
0001
0000
1000
0000
0010
0100
,
0010
0000
1000
0000
0000
0000
0001
0000
0100
0000
0010
1000
0010
0000
0100
0000
,
0001
0000
1000
0000
0100
0000
1000
0001
1000
0000
0100
0000
0010
0000
0001
0000
,
1000
0000
0010
1000
0100
0000
1000
0000
0000
0000
0100
0000
0010
0000
0001
0100
,
0010
0000
0100
0000
0010
0000
1000
0000
0010
0000
0100
0001
1000
0000
0010
0000
,
0100
0001
0010
0001
0100
0010
1000
0100
,
0010
0001
1000
0001
1000
0010
0100
0001
1000
0001
1000
0100
0010
0000
0000
0000
,
0001
0000
1000
0100
1000
0000
0001
0000
1000
0100
1000
0000
0010
0000
0100
0001
,
1000
0000
0100
0000
0010
0000
0100
0000
0010
0000
0001
1000
0001
0000
0010
0000
,
0001
1000
0001
0000
0100
0010
1000
0000
0001
0100
0010
0000
1000
0000
0000
0000
,
0100
0000
0010
0001
0010
0000
0100
0000
0010
0001
0010
0000
0100
0000
1000
0001
,
0100
0000
0010
0000
0100
0000
0010
0000
1000
0000
0001
0010
0001
0000
1000
0000
,
0001
0010
0001
0000
1000
0100
0010
0000
0001
0100
0010
0000
0100
0000
0000
0000
,
0010
0000
1000
0100
0010
0000
0100
0000
1000
0010
0100
0000
0010
0000
1000
0001
,
1000
0000
0100
0010
0100
0000
0010
0000
0001
0000
0100
0001
0010
0000
0100
0000
,
0010
0001
0100
0000
0010
1000
0001
0000
0001
1000
0100
0000
0100
0010
0001
0000
,
0100
0000
0010
1000
0001
0000
0100
0000
0001
1000
0010
0000
1000
0000
0100
1000
,
0100
0000
0010
0001
0010
0000
0100
0000
1000
0000
0010
0100
0001
0000
0010
0000
,
0100
1000
0010
0000
0100
0010
0100
0010
1000
0100
0010
0001
0100
0010
0100
0000
,
0000
0000
1001
1000
,
0100
0001
1000
0010
,
0001
0100
0110
1000
,
0010
0001
1000
0100
,
0001
0000
0000
0000
0000
0000
0000
0000
1000
0001
1000
0001
0000
0000
0010
0001
,
1000
0100
0010
0001
1000
0001
0010
0100
0000
0000
1000
0001
1000
0001
0000
0100
,
0010
1000
0001
0100
0010
1000
0001
0100
0001
1000
0100
0000
0000
0000
1000
0001
,
1000
0001
0000
0000
0010
0001
0100
0001
0010
0001
0100
0010
1000
0100
1000
0000
,
0010
0100
0010
0100
0000
0000
0001
0100
0010
1000
0010
0001
0010
1000
0001
0100
,
0000
0000
0010
0100
0010
0100
0000
0010
1000
0100
0001
0100
0010
1000
0010
0001
,
1000
0100
0010
0000
0000
0000
0100
0010
0100
0010
0000
0000
0001
0100
1000
0100
,
0001
0010
1000
0010
0001
1000
0010
0100
0020
0000
0000
0230
0000
0000
0000
0000
,
0301
0000
0000
0000
0010
0000
0000
0000
0100
0000
0000
0000
0010
0000
0000
0000
0100
0000
0000
0000
1000
0000
0000
0000
1100
0000
0000
0000
0000
0000
0000
0000
0000
0011
0000
0000
0000
0000
0000
0000
0000
0000
0101
0000
0000
0000
0000
0000
,
0000
1010
0000
0000
2002
0000
0000
0000
0000
0000
0000
0000
0003
0000
0000
0000
,
3020
0000
0000
0000
,
0130
0001
0000
0101
0000
1010
0000
1000
,
0200
0000
0000
0000
,
0310
0000
0001
0000
0000
0000
1000
0000
0010
0100
0010
0100
0001
1000
0001
1000
,
0200
0000
0000
0001
0000
1000
0000
0310
,
0002
0000
0000
0100
0000
1000
0000
0103
,
0020
0000
0000
0001
0000
1000
0000
0130
,
0001
0000
1000
0000
0000
0000
1001
0000
0000
0000
0110
0000
0000
0000
0001
0100
,
0010
0000
0100
0000
0000
0000
0110
0000
0000
0000
1001
0000
0000
0000
1000
0100
,
0010
0000
0100
0000
0000
0000
0110
0000
0000
0000
0001
0000
1000
0001
1000
0001
,
1000
0010
0000
1010
0000
0101
0000
0010
,
1000
0100
0010
0000
0001
0100
0010
0000
1000
0100
0010
0000
0100
0000
0000
0000
,
0010
0000
0001
0100
0001
0000
0010
0000
1000
0000
0001
0000
0100
0000
1000
0000
,
0010
0000
0100
1000
0100
0000
0010
0000
0001
0000
1000
0000
0100
0000
0001
0000
,
0010
0000
0100
0010
0100
0000
0010
0000
1000
0000
0010
0000
0001
0000
1000
0000
,
1100
0000
0011
0000
0000
0000
0110
0000
0000
0000
1001
0000
0000
0000
0100
1000
,
0010
0000
0100
0000
0010
0000
1000
0000
0000
0000
1001
0000
0000
0000
0010
0001
,
0100
0000
0010
0000
0100
0000
0001
0000
0000
0000
1000
0000
0100
0010
0100
0010
,
0100
1000
0001
0011
0000
1100
0000
0001
,
0100
0010
1000
0000
1001
0000
0110
0000
,
1000
0000
1000
0010
0100
0010
0100
0001
0010
0100
1000
0100
,
0010
0000
0010
0001
1000
0001
1000
0010
0100
0001
0100
0010
,
1000
0000
1000
0100
0010
0100
0010
0001
1000
0100
0010
0001
,
0100
0000
0100
0001
1000
0001
1000
0100
0010
0001
0100
0010
,
1000
0100
1000
0010
0100
0001
1000
0100
0010
0001
0100
0001
,
1000
0010
0100
0010
0100
0001
0010
0100
0010
0001
0100
0010
,
1000
0100
0001
0100
1000
0010
0100
0001
1000
0010
0001
0010
,
0100
0001
1000
0100
0001
1000
0010
0001
0100
0010
1000
0001
,
0200
0000
0000
0000
,
0310
1000
0001
0000
0001
1000
0100
0000
,
0010
0001
1000
0000
1000
0001
0100
0000
,
0001
0010
0100
0000
1000
0010
0100
0000
,
0001
0010
0100
0000
1000
0010
1000
0100
,
0020
0032
2003
0000
,
3020
0000
0000
0230
0000
0000
0302
0000
0010
0000
1000
0000
,
0103
0010
2002
0000
,
0000
0000
0000
3003
,
0020
2030
3002
0000
,
0023
0000
0000
0230
0000
0000
2300
0000
0010
0000
0001
0000
,
3100
0010
2002
0000
,
0000
0000
0000
0000
,
0000
0000
0000
0000
,
0000
0000
0000
0000
,
3003
0000
0000
0000
;
