#TITLE:Green Green Dance;
#SUBTITLE:;
#ARTIST:Mutsuhiko Izumi;
#TITLETRANSLIT:;
#SUBTITLETRANSLIT:;
#ARTISTTRANSLIT:;
#GENRE:;
#CREDIT:;
#BANNER:Green Green Dance.png;
#BACKGROUND:Green Green Dance-bg.png;
#LYRICSPATH:;
#CDTITLE:;
#MUSIC:Green Green Dance.ogg;
#OFFSET:0.701000;
#SAMPLESTART:12.390000;
#SAMPLELENGTH:15.000000;
#SELECTABLE:YES;
#BPMS:0.000000=165.000000
;
#STOPS:
;
#BGCHANGES:;
#KEYSOUNDS:;
#ATTACKS:;

//---------------dance-single - ----------------
#NOTES:
     dance-single:
     vonafroa:
     Challenge:
     15:
     0.700050,0.920869,0.456271,0.584027,0.264637,537.000000,487.000000,50.000000,64.000000,0.000000,0.000000,0.700050,0.920869,0.456271,0.584027,0.264637,537.000000,487.000000,50.000000,64.000000,0.000000,0.000000:
// measure 0
0000
0000
0000
0000
,  // measure 1
0000
0000
0000
0000
,  // measure 2
0000
0000
0000
0000
,  // measure 3
0000
0000
0000
0000
,  // measure 4
0000
0000
0000
0000
,  // measure 5
1000
0000
1000
0000
0010
0000
1000
0000
1000
0000
0100
0000
0010
0000
0100
1000
,  // measure 6
0001
0001
0010
0001
0001
0100
0010
1000
,  // measure 7
1001
1001
1001
0000
0100
0010
0100
0010
,  // measure 8
0011
1010
0011
0000
,  // measure 9
0100
0100
0002
0000
0103
0100
0001
2000
,  // measure 10
0000
3001
0001
0100
0010
0010
1000
0000
,  // measure 11
0100
0100
2000
0000
3100
0100
1000
0002
,  // measure 12
0000
0103
0001
0010
1000
0010
0001
1000
,  // measure 13
0100
0100
2000
0000
3100
0100
1000
0002
,  // measure 14
0000
1003
1000
0100
0010
0010
0001
0000
,  // measure 15
1001
1001
1001
0000
0001
0100
0010
1000
,  // measure 16
1010
0011
1010
0000
,  // measure 17
2000
0000
0001
0000
3001
0001
1000
0001
,  // measure 18
0100
0100
0100
0010
0000
0100
0001
0010
,  // measure 19
0100
0000
0100
1000
0100
1000
0100
0000
0000
0000
0100
0000
0010
0000
0001
0000
,  // measure 20
0100
0000
0100
0001
0010
0000
0000
0000
0100
0000
0100
1000
0010
0000
0000
0000
,  // measure 21
2000
0000
0001
0000
3001
0001
1000
0001
,  // measure 22
0100
0100
0100
0020
0000
0130
0001
1000
,  // measure 23
0100
0010
0100
0010
0001
1000
0001
1000
,  // measure 24
0010
0100
0010
0100
0001
1000
0001
1000
0001
0000
0000
0000
0110
0000
0000
0000
,  // measure 25
0100
0100
2000
0000
3100
0100
1000
0002
,  // measure 26
0000
0000
0103
0001
1000
0000
0100
0000
0010
0000
0010
0000
0001
0000
0000
0000
,  // measure 27
0100
0100
0002
0000
0103
0100
0001
2000
,  // measure 28
0000
3100
1000
0010
0001
0010
1000
0001
,  // measure 29
0100
0100
0002
0000
0103
0100
0001
2000
,  // measure 30
0000
0000
3100
1000
0001
0000
0100
0000
0010
0000
0010
0000
1000
0000
0000
0000
,  // measure 31
1001
1001
1001
0000
1000
0100
0010
0001
,  // measure 32
0011
1010
0011
0000
,  // measure 33
0200
0000
0000
0000
0000
0000
0301
1000
0001
1000
0100
0000
0001
0000
0100
0000
,  // measure 34
2000
0000
3010
0100
0002
0000
0013
0000
,  // measure 35
0200
0000
0000
0000
0000
0000
2300
0000
0000
0000
3010
0100
0010
0000
1000
0000
,  // measure 36
0001
0000
0010
0100
0010
0000
0002
0000
0010
0000
0010
0000
0013
0000
0000
0000
,  // measure 37
0200
0000
0000
0000
0000
0000
1300
0001
1000
0001
0100
0000
1000
0000
0100
0000
,  // measure 38
0002
0000
0013
0100
2000
0000
3010
0000
,  // measure 39
2000
0000
3100
0010
0002
0000
0103
0010
,  // measure 40
1010
0011
1010
0000
,  // measure 41
1000
0010
0100
1000
0001
0010
1000
0100
,  // measure 42
0100
1000
0010
0001
1000
0100
0001
2000
,  // measure 43
0000
0000
3010
0000
0100
0000
0001
1000
0010
0000
1000
0000
0100
0000
0002
0000
,  // measure 44
0000
0000
0103
0000
0001
0100
1000
0000
1000
0000
0100
1000
0010
0100
0001
1000
,  // measure 45
0001
0010
0100
0001
1000
0010
0001
0100
,  // measure 46
0100
0001
0010
0000
1000
0000
0001
0000
0000
0000
0100
0000
1000
0000
0100
0000
,  // measure 47
0110
0110
0110
0000
1000
1000
0010
0010
,  // measure 48
0101
1100
0101
0000
,  // measure 49
2000
0000
0000
3200
0000
0000
0302
0000
2003
0000
0000
3020
0000
0000
0032
0000
,  // measure 50
0203
0000
0000
0320
0000
0000
2030
0000
3200
0000
0000
0320
0000
0031
0100
0000
,  // measure 51
0002
0000
0000
0000
0000
0000
0013
0001
2000
0000
0000
0000
0000
0000
3000
0000
,  // measure 52
2000
0000
0000
0000
0000
0000
3010
1000
0002
0000
0000
0000
0000
0000
0003
0000
,  // measure 53
0002
0000
0000
0203
0000
0000
2300
0000
3002
0000
0000
0023
0000
0000
2030
0000
,  // measure 54
3200
0000
0000
0302
0000
0103
1000
0000
0010
0000
0200
0000
0300
0000
0000
0000
,  // measure 55
0001
0010
0001
0000
0100
0000
0010
0000
1000
0100
1000
0000
0001
0000
0010
0000
,  // measure 56
0100
1000
0100
1000
0100
1000
0100
1000
0001
0100
0001
0100
0001
0100
0001
1000
,  // measure 57
0100
0100
2000
0000
3100
0100
1000
0002
,  // measure 58
0000
0000
0103
0001
1000
0000
0100
0000
0010
0000
0010
0000
0001
0000
0000
0000
,  // measure 59
0100
0100
0002
0000
0103
0100
0001
2000
,  // measure 60
0000
0000
3100
0000
1000
0000
0010
0000
0001
0000
0010
1000
0100
1000
0001
0000
,  // measure 61
0100
0100
0002
0000
0103
0100
0001
2000
,  // measure 62
0000
0000
3100
1000
0001
0000
0100
0000
0010
0000
0010
0000
1000
0000
0000
0000
,  // measure 63
1001
1001
1001
0000
1000
0100
0010
0001
,  // measure 64
0011
0000
1010
0000
0011
0001
0001
0100
,  // measure 65
0010
1000
0200
0300
1000
0020
0030
0010
,  // measure 66
1000
0100
0001
0000
0100
0000
2000
0000
0000
0000
3001
0100
0010
0000
1000
0000
,  // measure 67
0010
0000
0100
0001
0010
0000
0100
0000
0010
0000
0100
1000
0010
0000
0100
0000
,  // measure 68
0010
0000
0100
0001
0010
0000
0200
0000
0010
0000
0010
0000
1000
0000
1300
0000
,  // measure 69
1100
0000
0000
0000
0101
0000
0000
0000
1100
0000
0100
1000
0010
0000
0100
0000
,  // measure 70
0001
0000
0010
0100
1000
0000
0010
0000
1000
0000
0010
0100
0001
0000
0010
0000
,  // measure 71
0110
0110
0110
0000
1001
1001
0110
0110
,  // measure 72
1001
1001
1001
0000
,  // measure 73
0100
0000
0000
0000
0100
0000
0000
0000
0100
0000
0000
0000
0100
0010
0100
0010
,  // measure 74
0110
1001
0220
0330
;
