#VERSION:0.83;
#TITLE:Green Eyes;
#SUBTITLE:;
#ARTIST:Persona;
#TITLETRANSLIT:;
#SUBTITLETRANSLIT:;
#ARTISTTRANSLIT:;
#GENRE:;
#ORIGIN:;
#CREDIT:;
#BANNER:Green Eyes.png;
#BACKGROUND:Green Eyes-bg.png;
#PREVIEWVID:;
#JACKET:Green Eyes-jacket.png;
#CDIMAGE:;
#DISCIMAGE:;
#LYRICSPATH:;
#CDTITLE:;
#MUSIC:Green Eyes.ogg;
#OFFSET:-0.516024;
#SAMPLESTART:76.051971;
#SAMPLELENGTH:15.000000;
#SELECTABLE:YES;
#BPMS:0.000=162.000;
#STOPS:;
#DELAYS:;
#WARPS:;
#TIMESIGNATURES:0.000=4=4;
#TICKCOUNTS:0.000=4;
#COMBOS:0.000=1;
#SPEEDS:0.000=1.000=0.000=0;
#SCROLLS:0.000=1.000;
#FAKES:;
#LABELS:0.000=Song Start;
#BGCHANGES:;
#KEYSOUNDS:;
#ATTACKS:
;

//---------------dance-single - ----------------
#NOTEDATA:;
#CHARTNAME:;
#STEPSTYPE:dance-single;
#DESCRIPTION:;
#CHARTSTYLE:;
#DIFFICULTY:Hard;
#METER:15;
#RADARVALUES:0.758134,0.883762,0.401512,0.253127,0.488797,608.000000,562.000000,46.000000,29.000000,0.000000,0.000000,0.000000,0.000000,0.000000,0.758134,0.883762,0.401512,0.253127,0.488797,608.000000,562.000000,46.000000,29.000000,0.000000,0.000000,0.000000,0.000000,0.000000;
#CREDIT:;
#NOTES:
// measure 0
0000
0000
0000
0000
,  // measure 1
0000
0000
0000
0000
,  // measure 2
0000
0000
0000
0000
,  // measure 3
0000
0000
0000
0000
,  // measure 4
0000
0000
0000
0000
,  // measure 5
1000
0000
0100
0000
0110
0000
0000
0000
0001
0010
0001
0000
0100
0000
0001
0000
,  // measure 6
1000
0000
0010
0000
0110
0000
0000
0000
0010
1000
0010
0000
0100
0000
0001
0000
,  // measure 7
1000
0000
0100
0000
0110
0000
0000
0000
0001
1000
0001
0000
0100
0000
1000
0000
,  // measure 8
0100
0000
0010
0000
0110
0000
0000
0000
0010
1000
0001
0000
0100
0001
1000
0000
,  // measure 9
0001
0000
0100
0000
0110
0000
0000
0000
1000
0010
1000
0000
0100
0000
1000
0000
,  // measure 10
0001
0000
0010
0000
0110
0000
0000
0000
0010
0000
0100
1000
0000
1000
0001
0100
,  // measure 11
0001
0100
0110
0000
1000
0100
0110
0000
,  // measure 12
0010
0001
0010
0001
0010
0000
0100
1000
0010
1000
0010
1000
0010
0000
0010
0100
,  // measure 13
0001
0000
1000
0000
0001
0000
0010
0100
1000
0000
0100
0010
0001
0000
1000
0000
,  // measure 14
0100
0010
0100
0000
0200
0000
0300
0000
1000
0100
1000
0100
0010
0001
0010
0001
,  // measure 15
1000
0000
0010
0000
0100
0010
0000
0000
0100
0001
1000
0000
0010
1000
0001
0000
,  // measure 16
0100
0000
0100
0010
2000
0000
3000
0000
0001
0100
0001
0100
0010
1000
0010
1000
,  // measure 17
0001
0000
1000
0000
0100
0000
1000
0100
0010
0000
0001
0010
0100
0000
0010
0000
,  // measure 18
0100
1000
0000
0000
0001
0100
0000
0000
0010
1000
0010
1000
0001
0010
0001
0010
,  // measure 19
0100
1000
0001
0010
0001
0100
0010
1000
,  // measure 20
2002
0000
3003
0000
0010
0010
0010
0010
,  // measure 21
0220
0000
0000
0330
,  // measure 22
1001
0001
0100
0010
1000
0001
0100
0001
,  // measure 23
0010
0100
1000
0010
0001
0010
1000
0001
,  // measure 24
0010
0010
0100
0100
1000
0010
0100
0001
,  // measure 25
1001
1000
0100
1000
0010
0100
0100
0001
,  // measure 26
1000
0100
0001
0100
1000
0001
0100
0010
,  // measure 27
1010
1000
1000
0001
0011
0001
0001
1000
,  // measure 28
2002
0000
3003
0000
0100
0100
0100
0100
,  // measure 29
1000
0000
0000
1000
0100
0000
0000
0000
0010
0000
0000
0010
0100
0000
0000
0000
,  // measure 30
0001
0000
0000
0001
0100
0000
0000
0000
1001
0000
1000
0000
0010
0000
0100
0000
,  // measure 31
0001
0000
0000
0001
0100
0000
0000
0000
0010
0000
0000
0010
0100
0000
0000
0000
,  // measure 32
1000
0000
0000
1000
0100
0000
0000
0000
1001
0000
0000
0000
0110
0000
0000
0000
,  // measure 33
1001
0000
0000
1000
0010
0000
0000
0000
0100
0000
0000
0100
0010
0000
0000
0000
,  // measure 34
1000
0000
0000
1000
0001
0000
0000
0000
0101
0000
0100
0000
0001
0000
1000
0000
,  // measure 35
0001
0000
0000
0001
0010
0000
0000
0000
0100
0000
0000
0100
0020
0000
0000
0000
,  // measure 36
0000
0000
0000
0030
,  // measure 37
0011
0000
0000
1000
0100
0000
0000
0000
1010
0000
0000
0001
0100
0000
0000
0000
,  // measure 38
0010
1000
0010
0000
1000
0100
1000
0000
0100
0010
0100
0000
1000
0100
1000
0000
,  // measure 39
1100
0000
0000
0001
0010
0000
0000
0000
0101
0000
0000
1000
0010
0000
0000
0000
,  // measure 40
0100
0001
0100
0000
0001
0010
0001
0000
0010
0100
0010
0000
0001
0010
0001
0010
,  // measure 41
0200
1000
0010
0001
,  // measure 42
0020
0000
0000
0330
,  // measure 43
1001
0001
0100
0010
1000
0100
0010
0001
,  // measure 44
1000
0010
0100
0001
1000
0100
1000
0010
,  // measure 45
0100
0001
1000
0010
1000
0100
0010
0001
,  // measure 46
1000
0010
1000
0001
0010
0100
1000
0001
,  // measure 47
1000
0100
1000
0010
0100
0001
0001
0100
,  // measure 48
0010
1000
0001
0100
0010
1000
1000
0010
,  // measure 49
1000
0001
0100
0001
1000
0100
1000
0001
,  // measure 50
0010
0100
0010
0100
0010
0000
0011
0000
0000
0000
1010
0000
1000
0000
0001
0000
,  // measure 51
1001
0000
0000
0000
0102
0000
0000
1003
0000
0000
1000
0000
0010
0000
0100
0000
,  // measure 52
1001
0000
0000
0000
2100
0000
0000
3001
0000
0001
0010
0000
0100
0000
0010
0000
,  // measure 53
1001
0000
0000
0000
2010
0000
0000
3001
0000
0000
0001
0000
0010
0000
0100
0000
,  // measure 54
1001
0000
0000
0000
0012
0000
0000
1003
0000
1000
0001
0000
0100
0000
0001
0000
,  // measure 55
0110
0000
0000
0000
0201
0000
0000
0310
0000
0000
0010
0000
1000
0000
0100
0000
,  // measure 56
0110
0000
0000
0000
1200
0000
0000
0310
0000
0010
0001
0000
1000
0000
0010
0000
,  // measure 57
0110
0000
0000
0000
2010
0000
0000
3001
0000
0000
0001
0000
1000
0000
0100
1000
,  // measure 58
0001
0000
0010
0000
0100
0000
0010
0001
0000
0001
1000
0000
0010
0000
0100
0000
,  // measure 59
0010
0100
0001
0000
0100
0010
1000
0000
0010
1000
0001
0000
0100
0001
1000
0000
,  // measure 60
0010
0100
0001
0000
0100
0010
1000
0000
0010
1000
0001
0000
0020
0000
0031
0000
,  // measure 61
1000
0100
0010
0000
0001
0010
0100
0000
1000
0001
0010
0000
0001
1000
0100
0000
,  // measure 62
1000
0100
0010
0000
0001
0010
0100
0000
0010
0001
0010
0001
1000
0010
1000
0010
,  // measure 63
0100
0000
0100
0000
0010
0000
0010
0000
1000
0010
1000
0010
1000
0001
1000
0001
,  // measure 64
0010
0000
0010
0000
0100
0000
0100
0000
0010
0001
0010
0001
1000
0001
1000
0001
,  // measure 65
0100
0000
0100
0000
0100
0010
0100
0010
1000
0000
1000
0000
0001
1000
0001
1000
,  // measure 66
0001
0000
0010
0000
0100
0000
1000
0000
0100
1000
0001
0010
0100
1000
0001
0010
,  // measure 67
0002
0100
1000
0023
0000
1000
0100
0032
,  // measure 68
0000
0010
1000
0203
0000
0001
0010
1000
,  // measure 69
0000
1000
0010
0302
0000
0100
1000
0023
,  // measure 70
0000
0100
0001
0230
0000
1000
0010
2300
,  // measure 71
0000
3001
0010
0100
2000
0001
0001
3100
,  // measure 72
0000
0100
1000
0001
0200
0010
0010
0301
,  // measure 73
0000
0000
0100
0000
0010
0000
0100
0000
0001
0000
0001
0000
0100
0010
0100
0000
,  // measure 74
1000
0000
1000
0000
0100
0010
0100
0000
0110
0000
1010
0000
0110
0000
0101
0000
,  // measure 75
1001
0000
0000
0000
;

//---------------dance-single - ----------------
#NOTEDATA:;
#CHARTNAME:;
#STEPSTYPE:dance-single;
#DESCRIPTION:;
#CHARTSTYLE:;
#DIFFICULTY:Medium;
#METER:11;
#RADARVALUES:0.448895,0.490979,0.436426,0.366598,0.034914,360.000000,310.000000,50.000000,42.000000,0.000000,0.000000,0.000000,0.000000,0.000000,0.448895,0.490979,0.436426,0.366598,0.034914,360.000000,310.000000,50.000000,42.000000,0.000000,0.000000,0.000000,0.000000,0.000000;
#CREDIT:;
#NOTES:
0000
0000
0000
0000
,
0000
0000
0000
0000
,
0000
0000
0000
0000
,
0000
0000
0000
0000
,
0000
0000
0000
0000
,
1000
0000
1000
0000
0001
0010
0001
0000
,
1000
0000
1000
0000
0001
0100
0001
0000
,
1000
0000
1000
0000
0100
0010
0100
0000
,
1000
0000
1000
0000
0001
0010
1000
0010
,
0001
0000
0001
0000
1000
0100
1000
0000
,
0001
0000
0001
0000
1000
0010
1000
0000
,
0001
0000
0001
0000
0100
0010
0100
0010
,
2000
0000
0000
3000
,
0001
2100
3001
0102
,
1003
2100
3010
0012
,
0103
1200
0310
0021
,
0130
1020
0130
0201
,
0310
2010
3001
2100
,
3001
0102
1003
0012
,
1003
2001
3010
0210
,
0302
0100
0010
0103
,
1001
0000
0000
0000
,
1000
0000
0001
0100
0001
0000
1000
0000
,
0010
0000
0100
0000
0001
0000
0010
0001
,
0010
0100
0010
0001
,
1000
0010
1000
0000
0001
0000
0010
0000
,
0100
0000
1000
0001
1000
0000
0010
0000
,
1000
0000
0001
0000
0010
0100
0010
0000
,
0001
1000
0001
0000
0100
0010
0100
0000
,
0010
0102
0013
2100
,
3010
0012
0103
2010
,
3100
0201
0310
1002
,
0013
2100
3010
1002
,
0103
2001
0010
0001
,
3100
1002
0100
1000
,
0013
0210
1300
0120
,
0032
0000
0000
0003
,
1000
0000
1100
0000
0001
0010
0001
0000
,
0010
0000
0101
0000
1000
0010
1000
0000
,
0100
0000
0011
0000
1000
0100
1000
0000
,
0001
0000
1010
0000
0100
0001
0100
0000
,
1010
1100
0101
0021
,
0200
0000
0000
0330
,
1000
0100
0001
0100
,
1000
0010
0001
0010
,
1000
0100
0001
0010
,
1000
0010
0001
0100
,
1000
0010
0001
0010
,
1000
0100
0001
0100
,
1000
0010
0001
0100
,
2000
0000
3000
0000
,
0001
0000
0000
0000
0100
0000
0000
0010
0000
0000
0100
0000
0001
0000
0000
0000
,
1000
0000
0000
0000
0100
0000
0000
0010
0000
0000
0100
0000
1000
0000
0001
0000
,
1000
0000
0000
0000
0010
0000
0000
0100
0000
0000
0010
0000
1000
0000
0000
0000
,
0001
0000
0000
0000
0010
0000
0000
0100
0000
0000
0010
0000
0001
0000
1000
0000
,
0001
0000
0000
0000
0100
0000
0000
1000
0000
0000
0100
0000
0001
0000
0000
0000
,
1000
0000
0000
0000
0010
0000
0000
0001
0000
0000
0010
0000
1000
0000
0001
0000
,
1000
0000
0000
0000
0100
0000
0000
0001
0000
0000
0100
0000
1000
0000
0000
0000
,
0001
0000
0000
0000
0010
0000
0000
1000
0000
0000
0010
0000
0100
0000
0010
0000
,
0001
0011
1000
1100
,
0001
0000
0011
0000
1000
0000
0100
1000
,
0010
1010
0001
0101
,
1000
0000
1010
0000
0010
0100
0001
0100
,
0010
0000
0010
0000
1000
0010
1000
0001
,
0100
0000
0100
0000
0001
0010
0001
1000
,
0100
1000
0001
0100
,
0020
1030
0200
0301
,
1000
1200
0310
0210
,
1300
1002
0103
0201
,
0310
0120
1030
2001
,
3100
1200
0310
0012
,
1003
0000
0001
0000
1000
0001
0100
0000
,
0001
0000
1000
0000
0001
1000
0010
0000
,
1000
0000
0001
0000
0010
0001
0010
0000
,
0100
1000
0100
0000
0010
0100
0010
0000
,
1001
0000
0000
0000
;

//---------------dance-single - ----------------
#NOTEDATA:;
#CHARTNAME:;
#STEPSTYPE:dance-single;
#DESCRIPTION:;
#CHARTSTYLE:;
#DIFFICULTY:Easy;
#METER:6;
#RADARVALUES:0.307992,0.327319,0.270584,0.209484,0.000000,247.000000,216.000000,31.000000,24.000000,0.000000,0.000000,0.000000,0.000000,0.000000,0.307992,0.327319,0.270584,0.209484,0.000000,247.000000,216.000000,31.000000,24.000000,0.000000,0.000000,0.000000,0.000000,0.000000;
#CREDIT:;
#NOTES:
0000
0000
0000
0000
,
0000
0000
0000
0000
,
0000
0000
0000
0000
,
0000
0000
0000
0000
,
0000
0000
0000
0000
,
1000
0100
1000
1000
,
0001
0100
0001
0001
,
1000
0100
0010
0100
,
1000
0001
0100
0010
,
1000
0010
1000
1000
,
0001
0010
0001
0001
,
1000
0010
0100
0001
,
1001
0000
0000
0000
,
0002
0003
0200
0300
,
0020
0030
0200
0300
,
0002
0003
0020
0030
,
0200
0300
0010
0100
,
2000
3000
0020
0030
,
0200
0300
0020
0030
,
2000
3000
0200
0300
,
0020
0000
0030
0000
,
1001
0000
0000
0000
,
0001
0100
0010
1000
,
0001
1000
0010
0100
,
0001
1000
0100
0010
,
0001
1000
0001
0010
,
0100
1000
0001
0100
,
0010
0100
0001
1000
,
0100
0100
0200
0300
,
1000
1000
2000
3000
,
0001
0001
0002
0003
,
0010
0010
0100
0100
,
1000
0001
1000
0001
,
0100
0100
0200
0300
,
0010
0010
0020
0030
,
1000
1000
0001
0002
,
0000
0000
0000
0003
,
1000
0100
1000
0001
,
0100
0001
1000
0010
,
1000
0001
0010
0001
,
1000
0001
0010
0100
,
1000
0010
0100
0001
,
2000
0000
0000
3000
,
1100
0000
0110
0000
,
0011
0000
0110
0000
,
1001
0000
1010
0000
,
1001
0000
0101
0000
,
0110
0000
1001
0000
,
0011
0000
0110
0000
,
1100
0000
1001
0000
,
0220
0000
0330
0000
,
1000
0010
0100
0001
,
1000
0010
0100
0001
,
0001
0010
0100
1000
,
0001
1000
0100
0010
,
0001
1000
0010
0100
,
0001
1000
0010
0100
,
0100
0001
0010
0100
,
1000
0010
1000
0001
,
1000
0100
1000
0100
,
1000
0100
0010
0010
,
0001
0100
0001
0100
,
0001
0100
0010
0010
,
1000
0100
0010
0010
,
0001
0100
0010
0010
,
1000
0010
0001
0010
,
0100
0100
0200
0300
,
0000
0101
0000
1010
,
0000
0011
0000
1100
,
0000
0101
0000
0011
,
0000
1100
0000
1010
,
0000
0011
0000
1100
,
0000
1010
0000
0101
,
0000
1001
0001
0100
,
0010
0100
0010
1000
,
1001
0000
0000
0000
;

//---------------dance-single - ----------------
#NOTEDATA:;
#CHARTNAME:;
#STEPSTYPE:dance-single;
#DESCRIPTION:;
#CHARTSTYLE:;
#DIFFICULTY:Beginner;
#METER:3;
#RADARVALUES:0.150879,0.261856,0.008729,0.000000,0.000000,121.000000,120.000000,1.000000,0.000000,0.000000,0.000000,0.000000,0.000000,0.000000,0.150879,0.261856,0.008729,0.000000,0.000000,121.000000,120.000000,1.000000,0.000000,0.000000,0.000000,0.000000,0.000000,0.000000;
#CREDIT:;
#NOTES:
0000
0000
0000
0000
,
0000
0000
0000
0000
,
0000
0000
0000
0000
,
0000
0000
0000
0000
,
0000
0000
0000
0000
,
1000
0000
0000
0000
,
0001
0000
0000
0000
,
1000
0000
0000
0000
,
0001
0000
0000
0000
,
0100
0000
0000
0000
,
0010
0000
0000
0000
,
0100
0000
0000
0000
,
0010
0000
0000
0000
,
1000
0000
0000
0000
,
0100
0000
0000
0000
,
1000
0000
0000
0000
,
0001
0000
0000
0000
,
0100
0000
0000
0000
,
0001
0000
0000
0000
,
1000
0000
0000
0000
,
0001
0000
0000
0000
,
0010
0000
0000
0000
,
0001
0001
0000
0000
,
1000
1000
0000
0000
,
0001
0001
0000
0000
,
0100
0100
0000
0000
,
0010
0010
0000
0000
,
0100
0100
0000
0000
,
1001
0000
0000
0000
,
0000
1000
0000
1000
,
0000
1000
0000
1000
,
0000
0001
0000
0001
,
0000
0001
0000
0001
,
0000
0010
0000
0010
,
0000
0010
0000
0010
,
0000
0100
0000
0100
,
0000
0000
0000
0000
,
0000
1000
0000
1000
,
0000
0010
0000
0010
,
0100
0000
0100
0000
,
0001
0000
0001
0000
,
1000
0000
1000
0000
,
0000
0000
0000
0000
,
0001
0000
0000
0000
,
0100
0000
0000
0000
,
0010
0000
0000
0000
,
1000
0000
0000
0000
,
0001
0000
0000
0000
,
0010
0000
0000
0000
,
0100
0000
0000
0000
,
1000
0000
0000
0000
,
0001
0000
0010
0000
,
0001
0001
0001
0000
,
1000
0000
0010
0000
,
1000
1000
1000
0000
,
0001
0000
0100
0000
,
0001
0001
0001
0000
,
1000
0000
0100
0000
,
1000
1000
1000
0000
,
0001
0000
0010
0000
,
0100
0000
0010
0001
,
1000
0000
0010
0000
,
0100
0000
0010
1000
,
0001
0001
0001
0000
,
1000
1000
1000
0000
,
0001
1000
0001
1000
,
0001
0000
0000
0000
,
1000
0000
0100
0000
,
1000
0000
0100
0000
,
0010
0000
0001
0000
,
0010
0000
0001
0000
,
0100
0000
0001
0000
,
1000
0000
0010
0000
,
0100
0000
0010
0000
,
0010
0000
0010
0000
,
0010
0000
0000
0000
;
