#TITLE:Gothique Resonance;
#SUBTITLE:But The 18 Is The PIU S20 With No Gimmicks?;
#ARTIST:P4koo;
#TITLETRANSLIT:;
#SUBTITLETRANSLIT:;
#ARTISTTRANSLIT:;
#GENRE:;
#CREDIT:;
#MUSIC:Gothique Resonance.ogg;
#BANNER:Gothique Resonance.png;
#BACKGROUND:Gothique Resonance-bg.png;
#CDTITLE:;
#SAMPLESTART:0.000;
#SAMPLELENGTH:0.000;
#SELECTABLE:YES;
#OFFSET:-0.437;
#BPMS:0.000=174.000;
#STOPS:;
#BGCHANGES:;
#FGCHANGES:;

//--------------- dance-single - Maractus (X-Scale) ----------------
#NOTES:
     dance-single:
     Maractus (X-Scale):
     Hard:
     14:
     0,0,0,0,0:
0000
0000
0000
0000
,
0000
0000
0000
0000
,
0000
0000
0000
0000
,
0000
0000
0000
0000
,
0000
0000
0000
0000
,
0000
0000
0000
0000
,
0000
0000
0000
0000
,
0000
0000
0000
0000
,
0000
0000
0000
1001
,
0001
0100
0010
1000
,
0010
0100
0001
1000
,
0100
0010
0001
0010
,
0100
0000
1000
0000
0001
0100
0001
0000
,
1000
0010
0100
0001
,
0100
0010
1000
0001
,
0010
0100
1000
0100
,
0010
0000
0001
0010
0001
1000
0010
1000
,
0000
0001
1000
0000
0001
0010
0000
0001
,
1000
0000
0004
0000
1003
0100
0000
1000
,
0001
0000
0100
0001
0000
1000
0002
0000
,
0000
0000
0003
0000
0100
0001
0000
1000
,
0001
0000
1000
0100
0000
1000
0001
0000
,
4000
0000
3001
0010
0000
0001
1000
0000
,
0010
0000
1000
0000
0000
0000
0001
0000
1000
0000
0004
4000
0000
0000
0000
0000
,
0000
0000
0000
0000
3003
0000
0000
0000
0001
0000
1000
0000
0010
0100
0010
0000
,
1000
0100
0010
0001
2000
0000
0000
0000
0000
0000
0000
0000
0000
0000
0000
0000
,
3002
0203
0320
2030
,
3200
0000
0320
0000
0000
0230
0000
0000
,
0000
0000
0310
0100
2000
0000
0000
0000
0000
0000
0000
0000
3200
0000
0000
0000
,
0320
0032
0000
0000
,
0203
0320
0230
0320
,
2030
0000
3200
0000
0000
0302
0000
0000
,
0203
0000
0000
0000
1300
0000
0001
0000
0010
0100
0000
0100
1000
0000
0010
0100
,
0001
2000
3000
0000
0001
0010
0100
1000
,
0001
0000
0100
0000
0001
0000
0000
0100
0000
0000
1000
0000
0000
0100
0000
0000
,
0001
0010
0100
1000
0001
0100
0010
1000
,
0100
0000
1000
0000
0001
0000
0000
0100
0000
0000
1000
0000
0000
0100
0000
0000
,
0001
0100
0010
1000
0001
0010
0100
1000
,
0010
0000
1000
0000
0001
0000
0000
0010
0000
0000
1000
0000
0000
0010
0000
0000
,
0001
0100
0010
1000
0001
0010
0100
1000
,
0001
0000
0010
0000
0001
0000
0000
0010
0000
0000
1000
0000
0000
0010
0000
0000
,
0001
0100
0010
1000
0001
0010
0100
1000
,
0010
0000
1000
0000
0001
0000
0000
0010
0000
0000
1000
0000
0000
0010
0000
0000
,
0001
0100
0010
1000
0001
0010
0100
1000
,
0001
0000
0010
0000
0001
0000
0000
0010
0000
0000
1000
0000
0000
0010
0000
0000
,
0001
0010
0100
1000
0001
0100
0010
1000
,
0100
0000
1000
0000
0001
0000
0000
0100
0000
0000
1000
0000
0000
0100
0000
0000
,
0001
0010
0100
1000
0001
0100
0010
1000
,
0001
0000
0100
0000
0001
0000
0000
0100
0000
0000
1000
0000
0000
0100
0000
0000
,
0001
0010
0100
1000
0002
0000
0000
0000
2003
0000
0000
0000
0000
0000
0000
0000
,
0000
0000
3010
0100
0001
0000
0010
0000
0100
0000
1000
0000
0000
0000
1000
0000
,
0010
0100
0002
0000
0103
0020
0000
0000
,
0000
0000
0130
0010
2000
0000
0000
0000
0000
0000
0000
0000
3200
0000
0000
0000
,
0320
0000
0032
0000
1003
0001
0000
0001
,
0010
0100
1000
0000
1000
0010
0000
0010
,
0100
0001
2000
0000
0000
3020
0000
0000
,
0130
0000
0001
0010
0200
0000
0000
0000
0000
0000
0000
0000
0000
0000
0000
0000
,
1300
0001
0010
0100
1000
0000
0000
0000
1000
0000
0002
0000
0000
0000
0003
0000
,
0000
0000
0100
0010
1000
0000
0100
0000
0010
0000
0001
0000
0000
0000
0001
0000
,
0100
0010
1000
0000
1000
0200
0000
0000
,
0000
0000
0310
0001
2000
0000
0000
0000
0000
0000
0000
0000
3200
0000
0000
0000
,
0320
0030
1001
0000
1000
0100
0000
1000
,
0010
0100
0001
0000
0010
0001
0000
1000
,
0100
0010
0001
0100
0010
1000
0100
0010
,
0001
0100
0001
0000
1000
0100
1000
0000
0001
1000
0001
0000
0100
0010
0100
0000
,
0001
0100
0010
1000
0002
0000
0003
0000
1000
0000
0100
0000
0001
0000
0100
0000
,
1000
0000
0100
0000
0010
0000
0001
0000
0001
0100
0000
0100
0010
0000
0010
1000
,
0000
1000
0001
0000
0100
0000
1000
0000
0100
0000
0001
0000
0010
0000
1000
0000
,
0010
0000
0001
0000
1000
0100
0000
0100
0010
0000
0010
0001
0000
0001
1000
0000
,
0001
1000
0010
0001
0010
1000
0100
0001
,
0100
0000
1000
0000
0001
0010
0000
0010
0100
0000
0100
1000
0000
1000
0001
0000
,
1000
0100
0001
0100
1000
0001
0010
0100
,
1000
0010
0000
0010
0100
0000
0100
0001
0000
0001
1000
0000
0010
0000
0001
0000
,
0010
0000
2000
0000
0000
3000
0000
0000
0001
0000
0100
0000
1000
0000
0100
0000
,
0001
0000
0100
0000
0010
0000
1000
0000
1000
0100
0000
0100
0010
0000
0010
0001
,
0000
0001
1000
0000
0100
0000
0001
0000
0100
0000
1000
0000
0010
0000
0001
0000
,
0010
0000
1000
0000
0001
0100
0000
0100
0010
0000
0010
1000
0000
1000
0001
0000
,
1000
0001
0010
1000
0010
0001
0100
1000
,
0100
0000
0001
0000
1000
0010
0000
0010
0100
0000
0100
0001
0000
0001
1000
0000
,
0001
0100
1000
0100
0001
1000
0010
0100
,
0001
0010
0000
0010
0100
0000
0100
1000
0000
1000
0001
0000
0010
0000
1000
0000
,
0001
0100
1000
0000
0000
0000
0000
0000
;

//--------------- dance-single - Maractus (X-Scale) ----------------
#NOTES:
     dance-single:
     Maractus (X-Scale):
     Challenge:
     18:
     0,0,0,0,0:
0000
0000
0000
0000
,
0000
0000
0000
0000
,
0000
0000
0000
0000
,
0000
0000
0000
0000
,
0000
0000
0000
0000
,
0000
0000
0000
0000
,
0000
0000
0000
0000
,
0000
0000
0000
0000
,
0000
0000
0000
1001
,
0001
0100
0010
1000
,
0010
0100
0001
1000
,
0100
0010
0001
0010
,
0100
0000
1000
0000
0001
0100
0001
0000
,
1000
0010
0100
0001
,
0100
0010
1000
0001
,
0010
0100
1000
0100
,
0010
0000
0000
0000
0001
0010
0001
1000
0010
1000
0100
0010
0001
0000
0011
0000
,
0000
1000
1010
0000
0001
0101
0000
1000
,
1100
0000
0001
0100
0001
1000
0100
0010
0001
0000
0101
0000
0000
0000
1000
0000
,
1100
0000
0001
0011
0000
1000
1010
0000
,
0000
0000
0000
0000
0001
0011
0000
1000
,
1010
0000
0000
0000
0001
0000
0101
0000
0000
0000
1000
0000
1100
0000
0001
0010
,
0001
1000
0010
0100
0001
0000
0011
0000
0000
0000
1000
0000
1010
0000
0000
0000
,
0001
0000
0101
0000
0000
0000
1000
0000
1100
0000
0001
0100
0001
1000
0100
1000
,
0001
0010
0100
1000
0001
0000
0000
0001
0100
0000
0010
0000
1000
0001
1000
0000
,
0001
0100
1000
0100
0002
0000
0000
0000
0000
0000
0000
0000
0000
0000
0000
0000
,
2003
3200
0320
0032
,
0203
0000
0320
0000
0000
0230
0000
0000
,
0000
0000
0310
0100
0002
0000
0000
0000
0000
0000
0000
0000
0203
0000
0000
0000
,
0320
2030
0000
0000
,
3200
0320
0230
0320
,
0032
0000
0203
0000
0000
2300
0000
0000
,
3200
0000
0000
0000
0301
0000
1000
0000
0010
0100
0000
0100
0001
0000
0010
0100
,
1000
0000
0002
0000
0003
0000
0000
0000
1000
0100
1000
0000
1100
0000
1000
0100
,
0001
0000
0100
0000
0010
0001
0000
0001
0100
0000
0100
0010
0000
0010
1000
0000
,
1010
0000
1001
0000
0001
0100
0001
0000
0101
0000
0001
0100
1000
0000
0001
0000
,
0110
0000
1010
0000
1000
0010
0000
0010
0100
0000
0100
0001
0000
0001
0010
0000
,
0110
0000
1100
0000
1000
0010
1000
0000
1010
0000
1000
0010
0001
0000
0110
0000
,
1000
0100
0001
0000
0110
0000
1000
0100
0000
0100
0010
0000
0010
0001
0000
0001
,
1000
0000
1010
0000
1001
0000
0001
0010
0001
0000
0011
0000
0001
0010
1000
0000
,
0001
0000
0110
0000
1100
0000
1000
0100
0000
0100
0010
0000
0010
0001
0000
0001
,
0100
0000
1001
0000
0001
0100
0001
0000
0101
0000
0001
0100
1000
0000
0110
0000
,
0001
0010
1000
0000
0110
0000
0001
0010
0000
0010
0100
0000
0100
1000
0000
1000
,
0001
0000
0101
0000
1001
0000
1000
0100
1000
0000
1100
0000
1000
0100
0001
0000
,
1000
0000
0110
0000
0011
0000
0001
0010
0000
0010
0100
0000
0100
1000
0000
1000
,
0010
0000
1001
0000
0001
0010
0001
0000
0011
0000
0001
0010
1000
0000
0110
0000
,
0001
0100
1000
0000
0110
0000
0001
0100
0000
0100
0010
0000
0010
1000
0000
1000
,
0001
0100
1001
0001
0101
1000
1100
0001
,
0011
0000
1000
0000
1010
0000
0001
0000
1000
0100
0010
0001
1000
0100
0001
0100
,
1000
0001
0100
0010
1000
0000
0000
0000
0002
0000
0000
0000
0000
0000
0000
0000
,
0000
0000
0013
0100
1000
0000
0010
0000
0100
0000
0001
0000
0000
0000
0001
0000
,
0010
0100
2000
0000
3100
0020
0000
0000
,
0000
0000
0130
0010
0002
0000
0000
0000
0000
0000
0000
0000
0203
0000
0000
0000
,
0320
0000
2030
0000
3001
1000
0000
1000
,
0010
0100
0001
0000
0001
0010
0000
0010
,
0100
1000
0002
0000
0000
0023
0000
0000
,
0130
0000
1000
0010
0200
0000
0000
0000
0000
0000
0000
0000
0000
0000
0000
0000
,
0301
1000
0010
0100
0001
0000
0000
0000
0001
0000
2000
0000
0000
0000
3000
0000
,
0000
0000
0100
0010
0001
0000
0100
0000
0010
0000
1000
0000
0000
0000
1000
0000
,
0100
0010
0001
0000
0001
0200
0000
0000
,
0000
0000
0310
1000
0002
0000
0000
0000
0000
0000
0000
0000
0203
0000
0000
0000
,
0320
0030
1001
0000
0001
0100
0000
0001
,
0010
0110
1001
0000
1000
0100
0000
1000
,
0010
0110
1001
0100
0010
1001
0110
1001
,
1000
0100
0010
0001
1000
0010
0100
0001
1000
0100
0010
0001
0100
0010
1000
0001
,
0010
0100
2000
0000
0000
0000
3000
0000
0001
0010
0100
0001
0100
0010
0001
0010
,
0100
0001
0100
0010
0001
0100
0010
0001
0010
0100
0001
0100
0010
0001
0010
0100
,
0001
0010
0100
0001
0100
0010
0001
0100
0010
0001
0010
0100
0001
0010
0100
0001
,
0100
0010
0001
0100
0010
0001
0010
0100
0001
0100
0010
0001
0010
0100
0001
0010
,
0100
0001
0100
0010
0001
0100
0010
0001
0010
0100
0001
0010
0100
0001
0100
0010
,
0001
0010
0100
0001
0100
0010
0001
0100
0010
0001
0010
0100
0001
0100
0010
0001
,
0010
0100
0001
0010
0100
0001
0100
0010
0001
0010
0100
0001
0100
0010
0001
0100
,
0010
0001
0010
0100
0001
0100
0010
0001
0010
0100
0001
0010
0100
0001
0100
0010
,
0001
1000
0100
0010
0002
0000
0003
0000
1000
0010
0100
1000
0100
0010
1000
0010
,
0100
1000
0100
0010
1000
0100
0010
1000
0010
0100
1000
0100
0010
1000
0010
0100
,
1000
0010
0100
1000
0100
0010
1000
0100
0010
1000
0010
0100
1000
0010
0100
1000
,
0100
0010
1000
0100
0010
1000
0010
0100
1000
0100
0010
1000
0010
0100
1000
0010
,
0100
1000
0100
0010
1000
0100
0010
0001
1000
0010
0001
0010
1000
0001
0100
0010
,
1000
0100
0001
0100
1000
0001
0010
0100
1000
0001
0100
1000
0100
0001
1000
0010
,
0100
0001
0010
1000
0010
0001
1000
0010
1000
0100
1000
0001
0100
1000
0001
0010
,
1000
0001
0010
0001
0100
0001
1000
0100
0001
1000
0010
0001
1000
0100
0001
1000
,
0010
0001
1000
0100
0001
0000
0000
0000
0000
0000
0000
0000
0000
0000
0000
0000
;
