#TITLE:GREEN EYES;
#SUBTITLE:;
#ARTIST:SLAKE;
#TITLETRANSLIT:;
#SUBTITLETRANSLIT:;
#ARTISTTRANSLIT:;
#GENRE:;
#CREDIT:;
#MUSIC:GREEN EYES [peterrw9000].ogg;
#BANNER:GREEN EYES [peterrw9000].png;
#BACKGROUND:GREEN EYES [peterrw9000]-bg.png;
#CDTITLE:;
#SAMPLESTART:25.667;
#SAMPLELENGTH:22.588;
#SELECTABLE:YES;
#OFFSET:-0.259;
#BPMS:0.000=170.000
,274.000=85.000
;
#STOPS:5.000=0.044
,5.125=0.044
,5.250=0.044
,5.375=0.044
,5.500=0.044
,5.625=0.044
,5.750=0.044
,5.875=0.044
,6.000=0.044
,6.125=0.044
,7.750=0.044
,7.875=0.044
,8.000=0.044
,8.125=0.044
,8.250=0.044
,8.375=0.044
,8.500=0.044
,8.625=0.044
,8.750=0.044
,8.875=0.044
,10.500=0.044
,10.625=0.044
,10.750=0.044
,10.875=0.044
,11.000=0.044
,11.125=0.044
,11.250=0.044
,11.375=0.044
,11.500=0.044
,11.625=0.044
,13.250=0.044
,13.375=0.044
,13.500=0.044
,13.625=0.044
,13.750=0.044
,13.875=0.044
,14.000=0.044
,14.125=0.044
,14.250=0.044
,14.375=0.044
,16.000=0.044
,16.125=0.044
,16.250=0.044
,16.375=0.044
,16.500=0.044
,16.625=0.044
,16.750=0.044
,16.875=0.044
,17.000=0.044
,17.125=0.044
,18.750=0.044
,18.875=0.044
,19.000=0.044
,19.125=0.044
,19.250=0.044
,19.375=0.044
,19.500=0.044
,19.625=0.044
,19.750=0.044
,19.875=0.044
,21.500=0.044
,21.625=0.044
,21.750=0.044
,21.875=0.044
,22.000=0.044
,22.125=0.044
,22.250=0.044
,22.375=0.044
,22.500=0.044
,22.625=0.044
,24.250=0.044
,24.375=0.044
,24.500=0.044
,24.625=0.044
,24.750=0.044
,24.875=0.044
,25.000=0.044
,25.125=0.044
,25.250=0.044
,25.375=0.044
,27.000=0.044
,27.125=0.044
,27.250=0.044
,27.375=0.044
,27.500=0.044
,27.625=0.044
,27.750=0.044
,27.875=0.044
,28.000=0.044
,28.125=0.044
,29.750=0.044
,29.875=0.044
,30.000=0.044
,30.125=0.044
,30.250=0.044
,30.375=0.044
,30.500=0.044
,30.625=0.044
,30.750=0.044
,30.875=0.044
,32.500=0.044
,32.625=0.044
,32.750=0.044
,32.875=0.044
,33.000=0.044
,33.125=0.044
,33.250=0.044
,33.375=0.044
,33.500=0.044
,33.625=0.044
,35.250=0.044
,35.375=0.044
,35.500=0.044
,35.625=0.044
,35.750=0.044
,35.875=0.044
,36.000=0.044
,36.125=0.044
,36.250=0.044
,36.375=0.044
,38.000=0.044
,38.125=0.044
,38.250=0.044
,38.375=0.044
,38.500=0.044
,38.625=0.044
,38.750=0.044
,38.875=0.044
,39.000=0.044
,39.125=0.044
,40.750=0.044
,40.875=0.044
,41.000=0.044
,41.125=0.044
,41.250=0.044
,41.375=0.044
,41.500=0.044
,41.625=0.044
,41.750=0.044
,41.875=0.044
,43.500=0.044
,43.625=0.044
,43.750=0.044
,43.875=0.044
,44.000=0.044
,44.125=0.044
,44.250=0.044
,44.375=0.044
,44.500=0.044
,44.625=0.044
,46.250=0.044
,46.375=0.044
,46.500=0.044
,46.625=0.044
,46.750=0.044
,46.875=0.044
,47.000=0.044
,47.125=0.044
,47.250=0.044
,47.375=0.044
,47.938=1.425
,113.000=0.044
,113.125=0.044
,113.250=0.044
,113.375=0.044
,113.500=0.044
,113.625=0.044
,113.750=0.044
,113.875=0.044
,114.000=0.044
,114.125=0.044
,115.750=0.044
,115.875=0.044
,116.000=0.044
,116.125=0.044
,116.250=0.044
,116.375=0.044
,116.500=0.044
,116.625=0.044
,116.750=0.044
,116.875=0.044
,118.500=0.044
,118.625=0.044
,118.750=0.044
,118.875=0.044
,119.000=0.044
,119.125=0.044
,119.250=0.044
,119.375=0.044
,119.500=0.044
,119.625=0.044
,121.250=0.044
,121.375=0.044
,121.500=0.044
,121.625=0.044
,121.750=0.044
,121.875=0.044
,122.000=0.044
,122.125=0.044
,122.250=0.044
,122.375=0.044
,124.000=0.044
,124.125=0.044
,124.250=0.044
,124.375=0.044
,124.500=0.044
,124.625=0.044
,124.750=0.044
,124.875=0.044
,125.000=0.044
,125.125=0.044
,126.750=0.044
,126.875=0.044
,127.000=0.044
,127.125=0.044
,127.250=0.044
,127.375=0.044
,127.500=0.044
,127.625=0.044
,127.750=0.044
,127.875=0.044
,129.500=0.044
,129.625=0.044
,129.750=0.044
,129.875=0.044
,130.000=0.044
,130.125=0.044
,130.250=0.044
,130.375=0.044
,130.500=0.044
,130.625=0.044
,132.250=0.044
,132.375=0.044
,132.500=0.044
,132.625=0.044
,132.750=0.044
,132.875=0.044
,133.000=0.044
,133.125=0.044
,133.250=0.044
,133.375=0.044
,135.000=0.044
,135.125=0.044
,135.250=0.044
,135.375=0.044
,135.500=0.044
,135.625=0.044
,135.750=0.044
,135.875=0.044
,136.000=0.044
,136.125=0.044
,137.750=0.044
,137.875=0.044
,138.000=0.044
,138.125=0.044
,138.250=0.044
,138.375=0.044
,138.500=0.044
,138.625=0.044
,138.750=0.044
,138.875=0.044
,140.500=0.044
,140.625=0.044
,140.750=0.044
,140.875=0.044
,141.000=0.044
,141.125=0.044
,141.250=0.044
,141.375=0.044
,141.500=0.044
,141.625=0.044
,143.250=0.044
,143.375=0.044
,143.500=0.044
,143.625=0.044
,143.750=0.044
,143.875=0.044
,144.000=0.044
,144.125=0.044
,144.250=0.044
,144.375=0.044
,273.000=0.530
,273.250=0.825
,273.500=0.700
,273.750=1.125
;
#DISPLAYBPM:170.000;
#BGCHANGES:-1.000=GREEN EYES [peterrw9000].avi=1.000=1=0=0=StretchNoLoop==CrossFade==,
99999.000=-nosongbg-=1.000=0=0=0=StretchNoLoop====
;
#FGCHANGES:;

//--------------- dance-single - ----------------
#NOTES:
     dance-single:
     :
     Beginner:
     4:
     0,0,0,0,0:
0000
0000
0000
0000
,
0000
0000
0000
0000
,
0000
0000
0000
0000
,
0000
0000
0000
0000
,
0000
0000
0000
0000
,
0000
0000
0000
0000
,
0000
0000
0000
0000
,
0000
0000
0000
0000
,
0000
0000
0000
0000
,
0000
0000
0000
0000
,
0000
0000
0000
0000
,
0000
0000
0000
0000
,
1000
0000
0100
0000
,
0000
0000
0010
0000
,
0001
0000
0100
0000
,
0010
0000
1000
0000
,
0001
0000
0010
0000
,
0100
0000
0000
0000
,
1000
0000
0010
0000
,
0100
0000
0001
0000
,
1000
0000
0100
0000
,
0000
0000
0001
0000
,
0100
0000
1000
0000
,
0010
0000
0100
0000
,
0001
0000
0010
0000
,
1000
0000
0000
0010
,
0001
0000
0100
0000
,
0010
0000
0000
1000
,
0000
0000
0000
0000
,
0000
0000
0000
0000
,
0000
0000
0000
0000
,
0000
0000
0000
0000
,
0000
0000
0000
0000
,
0000
0000
0000
0000
,
0000
0000
0000
0000
,
0000
0000
0000
0000
,
0000
1000
0000
0100
,
0000
0010
0000
1000
,
0000
0010
0000
0001
,
0000
0100
0000
0010
,
0000
1000
0000
0100
,
0000
0001
0000
0100
,
0000
0010
0000
0001
,
0000
0100
0000
0010
,
1000
0001
0000
0010
,
0000
0100
0000
0001
,
0000
0100
0000
1000
,
0000
0010
0000
0100
,
0000
0001
0000
0010
,
0000
1000
0000
0010
,
0000
0100
0000
1000
,
0000
0010
0000
0100
,
0001
1000
0000
0010
,
0000
0100
0000
1000
,
0000
0100
0000
0001
,
0000
1000
0000
0010
,
0000
0001
0000
0010
,
0000
0100
0000
0001
,
0000
0010
0000
0100
,
0000
0010
0000
0001
,
0000
1000
0000
0010
,
0000
0001
0000
0010
,
0000
0100
0000
0001
,
0000
1000
0000
0010
,
0000
0100
0000
1000
,
0000
0100
0000
0001
,
0000
0100
0000
0010
,
0000
0100
0000
0001
,
0000
0000
0000
0000
0000
0000
0000
0000
2000
3000
0200
0300
0020
0030
0002
0003
2002
0000
0000
0000
0000
0000
0000
0000
0000
0000
0000
0000
3003
0000
0000
0000
;

//--------------- dance-single - ----------------
#NOTES:
     dance-single:
     :
     Easy:
     8:
     0,0,0,0,0:
0000
0000
0000
0000
,
0000
0000
0000
0000
,
0000
0000
0000
0000
,
0000
0000
0000
0000
,
0000
0000
0000
0000
,
0000
0000
0000
0000
,
0000
0000
0000
2000
,
0000
3000
0000
0000
0000
0000
0000
0000
0000
0000
0000
0000
0000
0000
0200
0000
0000
0000
0000
0000
0000
0000
0000
0300
0000
0000
0000
0000
0000
0000
0000
0000
,
0000
0000
0000
0000
0020
0000
0000
0000
0000
0000
0000
0000
0000
0030
0000
0000
0000
0000
0000
0000
0000
0000
0000
0000
0000
0000
0002
0000
0000
0000
0000
0000
,
0000
0000
0000
0003
0000
0000
0000
0000
0000
0000
0000
0000
0000
0000
0000
0000
2000
0000
0000
0000
0000
0000
0000
0000
0000
3000
0000
0000
0000
0000
0000
0000
,
0000
0000
0000
0000
0000
0000
0020
0000
0000
0000
0000
0000
0000
0000
0000
0030
0000
0000
0000
0000
0000
0000
0000
0000
0000
0000
0000
0000
0200
0000
0000
0000
,
0000
0000
0000
0000
0000
0300
0000
0000
0000
0000
0000
0000
0000
0000
0000
0000
0000
0000
0002
0000
0000
0000
0000
0000
0000
0000
0000
0003
0000
0000
0000
0000
,
1001
1000
0100
0010
,
0001
0100
1000
0100
,
0001
0010
0001
0100
,
0010
1000
0100
1000
,
0010
0100
1000
0100
,
0001
0010
0100
1000
,
0010
0100
0001
1000
,
0100
0010
0001
1000
,
1001
0001
0100
0010
,
1000
0100
0001
0100
,
1000
0010
1000
0100
,
0010
0001
0100
0001
,
0010
0100
0001
0100
,
1000
0010
0100
0001
,
0010
0001
1000
0010
,
0100
0001
0010
0100
,
0000
0000
0000
0000
0000
0000
0000
0000
2000
0000
0000
0000
0000
0000
0000
0000
0000
3000
0000
0000
0000
0000
0000
0000
0000
0000
0000
0000
0000
0000
0020
0000
,
0000
0000
0000
0000
0000
0000
0000
0030
0000
0000
0000
0000
0000
0000
0000
0000
0000
0000
0000
0000
0200
0000
0000
0000
0000
0000
0000
0000
0000
0300
0000
0000
,
0000
0000
0000
0000
0000
0000
0000
0000
0000
0000
0002
0000
0000
0000
0000
0000
0000
0000
0000
0003
0000
0000
0000
0000
0000
0000
0000
0000
0000
0000
0000
0000
,
2000
0000
0000
0000
0000
0000
0000
0000
0000
3000
0000
0000
0000
0000
0000
0000
0000
0000
0000
0000
0000
0000
0200
0000
0000
0000
0000
0000
0000
0000
0000
0300
,
0000
0000
0000
0000
0000
0000
0000
0000
0000
0000
0000
0000
0020
0000
0000
0000
0000
0000
0000
0000
0000
0030
0000
0000
0000
0000
0000
0000
0000
0000
0000
0000
,
0000
0000
0002
0000
0000
0000
0000
0000
0000
0000
0000
0003
0000
0000
0000
0000
0000
0000
0000
0000
0000
0000
0000
0000
2000
0000
0000
0000
0000
0000
0000
0000
,
0000
3000
0000
0000
0000
0000
0000
0000
0000
0000
0000
0000
0000
0000
2000
0000
0000
0000
0000
0000
0000
0000
0000
3000
0000
0000
0000
0000
0000
0000
0000
0000
,
0000
0000
0000
0000
2000
0000
0000
0000
0000
0000
0000
0000
0000
3000
0000
0000
0000
0000
0000
0000
0000
0000
0000
0000
0000
0000
2000
0000
0000
0000
0000
0000
,
0000
0000
0000
3000
0000
0000
0000
0000
1001
0000
0000
0000
0000
0000
0000
0000
0100
0000
0000
0000
0000
0000
0000
0000
0010
0000
0000
0000
0000
0000
0000
0000
,
0001
0000
1000
0010
0000
0010
0001
0000
,
1000
1001
0010
0100
,
1000
0010
0100
0001
,
2000
0001
3001
0100
,
0010
2000
0100
3002
,
0100
0003
1001
0000
1000
0000
0010
0000
,
0100
0000
0001
0010
0001
0000
1000
0010
,
1000
1001
1000
0100
,
0010
0000
0001
0100
0000
0100
1000
0000
,
0001
1001
0001
0010
,
0100
1000
0010
0100
,
0002
1000
0103
0010
,
1000
0100
0001
0100
,
1000
1001
0010
0100
,
0001
0000
1000
0100
1000
0000
0001
0100
,
0001
1001
0100
0010
,
0100
1000
0010
0001
,
1000
0100
0001
0010
,
0100
1000
0010
1000
,
0100
0010
0001
0100
,
0001
0010
0100
0001
,
0100
1000
0010
0100
,
0001
1000
0100
0010
,
0100
1000
0010
0100
,
0010
1000
0100
0001
,
1000
0010
0001
0100
,
0010
1000
0100
1000
,
0010
0100
0001
0010
,
0001
0100
0010
0001
,
0010
1000
0100
1000
,
0001
0100
0010
1000
,
0001
0000
0000
0000
0000
0000
0000
0000
2000
3000
0200
0300
0020
0030
0002
0003
2002
0000
0000
0000
0000
0000
0000
0000
0000
0000
0000
0000
3003
0000
0000
0000
;

//--------------- dance-single - ----------------
#NOTES:
     dance-single:
     :
     Medium:
     11:
     0,0,0,0,0:
0000
0000
0000
0000
,
0000
0000
0000
0000
,
0000
0000
0000
0000
,
0000
0000
0000
0000
,
0000
0000
0000
0000
,
0000
0000
0000
0000
,
0000
0000
0000
2000
,
0000
3000
0000
0000
0100
0000
0000
0000
0000
0000
0010
0000
0000
0000
0002
0000
0000
0000
0000
0000
0000
0000
0000
0003
0000
0000
0100
0000
0000
0000
0000
0000
,
0010
0000
0000
0000
0200
0000
0000
0000
0000
0000
0000
0000
0000
0300
0000
0000
0001
0000
0000
0000
0000
0000
1000
0000
0000
0000
0020
0000
0000
0000
0000
0000
,
0000
0000
0000
0030
0000
0000
0100
0000
0000
0000
0000
0000
0001
0000
0000
0000
2000
0000
0000
0000
0000
0000
0000
0000
0000
3000
0000
0000
0100
0000
0000
0000
,
0000
0000
0010
0000
0000
0000
0200
0000
0000
0000
0000
0000
0000
0000
0000
0300
0000
0000
1000
0000
0000
0000
0000
0000
0001
0000
0000
0000
0020
0000
0000
0000
,
0000
0000
0000
0000
0000
0030
0000
0000
0001
0000
0000
0000
0000
0000
1000
0000
0000
0000
0002
0000
0000
0000
0000
0000
0000
0000
0000
0003
0000
0000
0000
0000
,
1001
1000
0100
0010
,
0001
0000
0100
0000
0000
0100
0000
0000
0100
0000
1000
0000
0010
0000
0100
0000
,
1001
0001
0010
0100
,
1000
0010
0100
1000
0100
0001
2000
0000
,
0100
3001
0100
0010
,
2000
0100
3002
0100
1003
0000
0110
0000
,
1001
1000
0010
0100
,
0001
0010
1000
0010
0001
0100
0010
0000
,
1001
0100
0010
0001
,
1000
0000
0010
0000
0000
0010
0000
0000
0001
0000
0100
0000
0010
0000
0000
0000
,
1001
0010
0100
1000
,
0001
0100
0010
0001
0010
1000
0002
0000
,
1000
0103
0010
1000
,
0001
0000
0010
0000
0000
1000
0000
0000
0010
0000
0001
0000
1000
0000
0000
0000
,
1001
0010
0100
0001
,
1000
0100
0001
0100
1000
0010
0100
0000
,
0001
0000
0000
0000
0000
0000
0000
0000
2000
0000
0000
0000
0000
0000
0000
0000
0000
3000
0000
0000
0100
0000
0000
0000
0000
0000
0000
0000
0000
0000
0020
0000
,
0000
0000
0000
0000
0000
0000
0000
0030
0000
0000
0001
0000
0000
0000
0000
0000
0000
0000
0000
0000
0200
0000
0000
0000
0000
0000
0000
0000
0000
0300
0000
0000
,
0010
0000
0000
0000
0000
0000
0000
0000
0000
0000
2000
0000
0000
0000
0000
0000
0000
0000
0000
3000
0000
0000
0100
0000
0000
0000
0000
0000
0000
0000
0000
0000
,
0002
0000
0000
0000
0000
0000
0000
0000
0000
0003
0000
0000
0100
0000
0000
0000
0000
0000
0000
0000
0000
0000
2000
0000
0000
0000
0000
0000
0000
0000
0000
3000
,
0000
0000
0010
0000
0000
0000
0000
0000
0000
0000
0000
0000
0002
0000
0000
0000
0000
0000
0000
0000
0000
0003
0000
0000
0010
0000
0000
0000
0000
0000
0000
0000
,
0000
0000
2000
0000
0000
0000
0000
0000
0000
0000
0000
3000
0000
0000
0001
0000
0000
0000
0000
0000
0000
0000
0000
0000
2000
0000
0000
0000
0000
0000
0000
0000
,
0000
3000
0000
0000
0000
0000
0000
0000
0000
0000
0000
0000
0000
0000
0200
0000
0000
0000
0000
0000
0000
0000
0000
0300
0000
0000
0000
0000
0000
0000
0000
0000
,
0000
0000
0000
0000
0020
0000
0000
0000
0000
0000
0000
0000
0000
0030
0000
0000
0000
0000
0000
0000
0000
0000
0000
0000
0000
0000
0002
0000
0000
0000
0000
0000
,
0000
0000
0000
0003
0000
0000
0000
0000
1001
0000
0000
0000
0000
0000
0000
0000
2000
0000
3000
0000
0000
0000
0000
0000
0200
0000
0000
0000
0300
0000
0020
0000
,
0000
0030
0002
0003
1000
0000
0010
0000
0000
0001
0000
0000
0010
0000
1000
0000
,
0100
0000
0010
0000
1001
0000
0000
0000
0002
0003
0000
0000
0020
0000
0030
0200
,
0000
0300
2000
3000
0001
0000
0100
0000
1000
0000
0100
0000
0010
0000
1000
0000
,
0002
0000
0000
0000
0010
0000
0000
0000
2003
3000
0000
0000
0020
0000
0030
0200
,
0000
0300
0002
0003
2000
0000
0010
0000
3002
0000
0010
0000
1003
0000
0000
0000
,
0110
0000
0000
0000
1001
0000
0000
0000
0002
0003
0000
0000
0200
0000
0300
0020
,
0000
0030
2000
3000
0001
0000
0010
0000
0001
0100
0000
0010
1000
0000
0100
0000
,
1000
0000
0000
0000
1001
0000
0000
0000
0020
0030
0000
0000
0200
0000
0300
0002
,
0000
0003
2000
3000
0001
0000
0010
0000
0000
1000
0000
0000
0010
0000
0001
0000
,
1000
0000
0010
0000
1001
0000
0000
0000
0200
0300
0000
0000
0020
0000
0030
2000
,
0000
3000
0002
0003
1000
0000
0100
0000
0001
0000
0100
0000
0010
0000
0001
0000
,
2000
0000
0000
0000
0010
0000
0000
0000
3200
0300
0000
0000
0020
0000
0030
0002
,
0000
0003
2000
3000
0010
0000
0100
0000
0000
0100
0000
0000
1000
0000
0000
0000
,
0110
0000
0000
0000
1001
0000
0000
0000
0020
0030
0000
0000
0200
0000
0300
2000
,
0000
3000
0002
0003
1000
0000
0010
0000
1000
0100
0000
0010
0001
0000
0100
0000
,
0001
0000
0000
0000
1001
0000
0000
0000
0100
0000
0000
0000
0010
0000
0000
0100
,
0000
0000
1000
0000
0010
0000
0100
0000
0000
0100
0000
0000
0100
0000
0000
0100
,
0000
0000
0100
0000
1001
0000
0000
0000
0010
0000
0000
0000
0100
0000
0000
0010
,
0000
0001
1000
0010
0001
1000
0100
0001
,
1000
0000
0000
0000
1001
0000
0000
0000
0010
0000
0000
0000
0100
0000
0000
0010
,
0000
1000
0002
0010
2003
0010
3001
0100
,
0110
0000
0000
0000
1001
0000
0000
0000
0100
0000
0000
0000
0010
0000
0000
0100
,
0000
0000
0001
0000
1000
0000
0100
0000
1000
0010
0000
0100
0001
0000
0010
0000
,
0001
0000
0000
0000
1001
0000
0000
0000
0100
0000
0000
0000
1000
0000
0000
0010
,
0000
0000
0100
0000
0001
0000
0010
0000
0000
0010
0000
0000
0010
0000
0000
0010
,
0000
0000
0010
0000
1001
0000
0000
0000
0010
0000
0000
0000
0001
0000
0000
0100
,
0000
0010
1000
0100
0001
1000
0010
0001
,
1000
0000
0000
0000
1001
0000
0000
0000
0010
0000
0000
0000
1000
0000
0000
0100
,
0000
0000
0010
0000
0001
0000
0100
0000
0000
0100
0000
0000
0010
0000
0001
0000
,
1100
0000
0000
0000
1001
0000
0000
0000
0100
0000
0000
0000
0001
0000
0000
0010
,
0000
0000
0100
0000
1000
0000
0010
0000
1000
0100
0000
0010
0001
0000
0100
0000
,
0001
0000
0000
0000
0000
0000
0000
0000
2000
3000
0200
0300
0020
0030
0002
0003
2002
0000
0000
0000
0000
0000
0000
0000
0000
0000
0000
0000
3003
0000
0000
0000
;

//--------------- dance-single - ----------------
#NOTES:
     dance-single:
     :
     Hard:
     15:
     0,0,0,0,0:
0000
0000
0000
0000
,
0000
0000
0000
0000
,
0000
0000
0000
0000
,
0000
0000
0000
0000
,
0000
0000
0000
0000
,
0000
0000
0000
0000
,
0000
0000
0000
2000
,
0000
3000
0000
0000
0100
0000
0010
0000
0000
0000
0100
0000
0000
0000
0020
0000
0000
0000
0000
0000
0000
0000
0000
0030
0000
0000
0001
0000
0010
0000
0000
0000
,
0001
0000
0000
0000
0200
0000
0000
0000
0000
0000
0000
0000
0000
0300
0000
0000
0010
0000
0100
0000
0000
0000
0010
0000
1000
0000
0002
0000
0000
0000
0000
0000
,
0000
0000
0000
0003
0000
0000
0010
0000
0100
0000
0000
0000
1000
0000
0000
0000
0002
0000
0000
0000
0000
0000
0000
0000
0000
0003
0010
0000
0100
0000
0010
0000
,
0000
0000
0001
0000
0000
0000
0200
0000
0000
0000
0000
0000
0000
0000
0000
0300
0010
0000
1000
0000
0100
0000
0000
0000
1000
0000
0000
0000
0020
0000
0000
0000
,
0000
0000
0000
0000
0000
0030
0100
0000
0001
0000
0010
0000
0000
0000
0100
0000
0000
0000
2000
0000
0000
0000
0000
0000
0000
0000
0000
3000
0000
0000
0000
0000
,
1001
0000
0000
0000
2000
3000
0000
0000
0200
0000
0000
0020
0300
0000
0002
0030
,
1003
0000
0010
0000
0000
0010
0000
0010
0001
0000
1000
0000
1010
0000
1000
0000
,
1001
0000
0000
0000
0002
0003
0000
0000
0020
0000
0000
0200
0030
0000
2000
0300
,
3001
0100
0001
1000
0001
0010
0000
0010
0100
0000
0100
1000
0002
0000
0000
0003
,
1001
0000
0000
0000
2000
3000
0000
0000
0020
0000
0000
0200
0030
0000
0002
0300
,
2003
0100
0010
0100
3001
0000
0110
0000
,
1001
0000
0000
0000
0002
0003
0000
0000
0200
0000
0000
0020
0300
0000
2000
0030
,
3001
0000
0010
0001
1000
0010
0100
0000
0001
0100
0010
0000
1000
0000
0000
0000
,
0110
0000
0000
0000
0020
0030
0000
0000
0200
0000
0000
2000
0300
0000
0002
3000
,
0003
0000
0001
0000
0000
0010
0000
0010
1000
0000
0100
0000
0101
0000
0100
0000
,
0110
0000
0000
0000
0200
0300
0000
0000
0020
0000
0000
0002
0030
0000
2000
0003
,
3001
1000
0001
0000
1000
0100
0000
0010
0001
0000
0100
0010
0200
0000
0000
0000
,
0000
0000
0000
0000
0020
0030
0000
0000
2300
0000
0000
0200
3000
0000
0002
0300
,
0003
0000
1000
0000
1000
0100
0010
0100
1000
0000
0010
0000
0101
0000
1000
0000
,
1001
0000
0000
0000
2000
3000
0000
0000
0200
0000
0000
0020
0300
0000
0002
0030
,
1003
0001
0000
0001
0010
0001
0100
0010
1000
0100
1000
0000
0001
0000
0000
0000
,
0010
0000
0000
0000
0100
0000
0000
0000
2000
0000
0000
0000
0001
0000
0000
0000
0000
3000
0000
0000
0010
0000
0100
0000
0000
0000
0001
0000
0000
0000
0020
0000
,
0000
0000
1000
0000
0000
0000
0000
0030
0000
0000
0100
0000
1000
0000
0000
0000
0001
0000
0000
0000
0200
0000
0000
0000
0010
0000
0000
0000
0000
0300
0000
0000
,
0001
0000
0010
0000
0000
0000
0100
0000
0010
0000
0002
0000
0000
0000
1000
0000
0000
0000
0000
0003
0000
0000
0100
0000
0010
0000
0000
0000
1000
0000
0000
0000
,
0002
0000
0100
0000
0000
0000
0000
0000
0000
0003
0000
0000
0010
0000
0100
0000
0000
0000
1000
0000
0000
0000
0020
0000
0001
0000
0000
0000
0000
0000
0000
0030
,
0000
0000
0100
0000
0010
0000
0000
0000
1000
0000
0000
0000
0200
0000
0001
0000
0000
0000
0000
0000
0000
0300
0000
0000
1000
0000
0010
0000
0000
0000
0100
0000
,
0001
0000
2000
0000
0010
0000
0000
0000
0000
0000
0000
3000
0000
0000
0100
0000
0010
0000
0000
0000
0100
0000
0000
0000
2000
0000
0000
0000
0000
0000
0000
0000
,
0000
3000
0000
0000
0100
0000
0000
0000
0000
0000
0010
0000
0000
0000
0002
0000
0000
0000
0000
0000
0000
0000
0000
0003
0000
0000
1000
0000
0000
0000
0000
0000
,
0010
0000
0000
0000
0200
0000
0000
0000
0000
0000
0000
0000
0000
0300
0000
0000
0001
0000
0000
0000
0000
0000
1000
0000
0000
0000
0020
0000
0000
0000
0000
0000
,
0000
0000
0000
0030
0000
0000
0000
0000
1001
0000
0000
0000
0000
0000
0000
0000
2200
0000
3300
0000
0000
0000
0000
0000
0202
0000
0000
0000
0303
0000
0022
0000
,
0000
0033
2020
3030
0000
0000
0100
0000
0100
0001
0000
0001
0010
0000
0100
0000
,
0110
0000
1000
0000
1001
0000
0000
0000
0022
0033
0000
0000
2020
0000
3030
2200
,
0000
3300
0202
0303
0000
0100
0010
1000
0100
0010
0000
0010
0001
0000
0001
1000
,
0020
0000
0000
0000
0100
0000
0030
0000
2200
3300
0000
0000
2020
0000
3030
0022
,
0000
0033
0202
0303
0002
0000
0010
0000
0100
0000
0010
0000
1003
0000
0100
0000
,
0110
0000
0001
0000
1001
0000
0000
0000
0022
0033
0000
0000
0202
0000
0303
2200
,
0000
3300
2020
3030
0000
0000
0010
0100
0001
1000
0000
1000
0100
0000
0010
0100
,
1000
0000
0000
0000
0110
0000
0000
0000
2020
3030
0000
0000
2200
0000
3300
0202
,
0000
0303
0022
0033
0000
0000
0100
0000
0000
0100
1000
0000
1000
0000
0010
0000
,
0101
0000
0010
0000
0110
0000
0000
0000
0202
0303
0000
0000
0022
0000
0033
2020
,
0000
3030
2200
3300
0000
0000
0010
0001
1000
0010
0000
0100
0010
0000
0001
0010
,
0200
0000
0000
0000
1000
0000
0300
0000
2020
3030
0000
0000
0022
0000
0033
0202
,
0000
0303
2200
3300
0000
0000
0010
0000
1000
0100
0000
0100
0010
0000
0001
1000
,
0010
0000
0100
0000
0110
0000
0000
0000
0202
0303
0000
0000
2200
0000
3300
2020
,
0000
3030
0022
0033
0000
0000
0010
0001
0100
0010
0000
1000
0100
0000
1000
0001
,
1000
0000
0000
1001
0000
0000
0001
0000
0000
1000
0100
1000
,
0100
0000
0000
0000
1000
0000
0000
0000
0100
0000
0000
0000
1000
0000
0000
0000
0000
0000
0010
0000
0000
0000
0000
0000
0000
0000
0000
0001
0000
0000
0000
0000
0000
0010
0000
0000
1000
0000
0000
0000
0000
0000
0000
0000
0000
0100
0000
0000
,
0010
0000
0001
0000
0110
0000
0000
0000
1000
0000
0000
0000
0100
0000
0000
0001
,
0000
0000
0100
0000
1000
0010
0100
0010
1000
0001
0000
0010
0100
0000
0010
0001
,
1000
0000
0000
0000
1001
0000
0000
0000
0001
0000
0000
0000
0010
0000
0000
0100
,
0000
0000
0000
0000
0000
0000
1000
0000
0000
0000
0000
0000
0001
0000
0000
0000
0100
0000
0000
0000
0001
0000
0000
0000
0100
0000
0000
0000
0001
0000
0000
0000
0100
0000
0000
0000
0001
0000
0000
0000
0000
0000
0000
0000
0000
0010
0000
0000
,
0100
0000
1000
0000
0110
0000
0000
0000
0001
0000
0000
0000
0010
0000
0000
1000
,
0000
0000
0010
0000
0001
0100
0010
0000
0100
0001
0000
1000
0100
0000
0001
0100
,
1000
0000
0000
0000
1001
0000
0000
0000
0001
0000
0000
0000
0001
0010
0000
0010
,
0100
0000
0100
1000
0000
0000
0010
0000
0000
0001
0000
0010
1000
0000
0000
0001
,
0010
0000
0100
0000
1001
0000
0000
0000
0010
0000
0000
0000
1000
0010
0000
0010
,
0100
0000
0100
0001
1000
0100
0000
0010
0100
1000
0000
0001
0100
0000
0010
0100
,
0001
0000
0000
0000
0110
0000
0000
0000
1000
0000
0000
0000
1000
0100
0000
0100
,
0010
0000
0010
0001
0000
0000
1000
0000
0100
1000
0010
0100
0001
0000
0000
0010
,
0001
0000
1000
0000
1001
0000
0000
0000
0100
0000
0000
0000
0001
0100
0000
0100
,
0010
0000
0010
1000
0001
0010
0100
0010
0100
1000
0000
0010
0100
0000
0010
1000
,
0001
0000
0000
0000
0000
0000
0000
0000
2000
3000
0200
0300
0020
0030
0002
0003
2002
0000
0000
0000
0000
0000
0000
0000
0000
0000
0000
0000
3003
0000
0000
0000
;

//--------------- dance-single - ----------------
#NOTES:
     dance-single:
     :
     Challenge:
     17:
     0,0,0,0,0:
0000
0000
0000
0000
,
0000
0000
0000
0000
,
0000
0000
0000
0000
,
0000
0000
0000
0000
,
0000
0000
0000
0000
,
0000
0000
0000
0000
,
0000
0000
0000
0000
0000
0000
0000
0000
0000
0000
0000
0000
0000
0000
0000
0000
0000
0000
0000
0000
0000
0000
0000
0000
2000
0000
0000
0100
0000
0000
0010
0000
,
0000
0000
3001
0000
0010
0000
0000
0000
0000
0000
0100
0000
1000
0000
0002
0000
0000
0000
0013
0001
0010
0001
0010
0001
0100
0000
0010
0000
1000
0000
0000
0000
,
0100
0000
0010
0000
0200
0000
0001
0000
0010
0000
0000
0000
0000
0000
1300
0000
0100
0000
0010
0000
0000
0000
0001
0000
0100
0000
0020
0000
0000
0000
1030
0010
,
1000
0010
1000
0000
0000
0000
0100
0000
0010
0000
0000
0000
0100
0000
1000
0000
0001
0000
0100
0000
0010
1000
0010
1000
0000
0000
0000
0000
0100
0000
0010
0000
,
0000
0100
1000
0020
0100
0001
0100
1000
0130
0001
0010
0000
0001
1000
0200
0000
,
0000
0000
0010
0000
1300
0100
1000
0000
0010
0000
0100
0000
0001
0000
0010
0000
0100
0000
2000
0000
0000
0000
3001
0000
0000
0100
0010
0000
0000
0000
0000
0000
,
1001
0000
0000
0000
2200
3300
0000
0000
0202
0000
0303
0022
0000
0033
2020
3030
,
0000
0000
0001
0000
0001
0010
0000
0010
1000
0000
0100
0010
0100
0000
1000
0001
,
1001
0000
0000
0000
0022
0033
0000
0000
2020
0000
3030
2200
0000
3300
0202
0303
,
0010
0001
1000
0010
0100
1000
0000
0100
0001
0000
0010
0100
2000
0000
0000
0000
,
0001
0000
0000
3000
0202
0303
0000
0000
0022
0000
0033
2020
0000
3030
2200
3300
,
0010
0000
0001
0000
1000
0000
0010
0000
0001
0000
0010
0000
1000
0000
0000
0001
0000
0000
0110
0000
0000
1000
0000
0000
,
1001
0000
0000
0000
2020
3030
0000
0000
2200
0000
3300
0202
0000
0303
0022
0033
,
0100
0010
1000
0001
0010
0100
0010
0001
0100
0010
1000
0001
1000
0000
0000
0000
,
0110
0000
0000
0000
2200
3300
0000
0000
2020
0000
3030
0022
0000
0033
0202
0303
,
0000
0000
0010
0000
0010
0001
0000
0001
1000
0000
0100
0010
0011
0000
0100
0010
,
0110
0000
0000
0000
0022
0033
0000
0000
0202
0000
0303
2200
0000
3300
2020
3030
,
0100
0001
0010
0001
0100
0010
0000
0100
0001
0000
0010
0100
2000
0000
0000
0000
,
0001
0000
0000
3000
0202
0303
0000
0000
2200
0000
3300
2020
0000
3030
0022
0033
,
0000
0000
1000
0000
0100
0010
0000
0010
0001
0000
0010
0000
0101
0000
1000
0000
,
0110
0000
0000
0000
2020
3030
0000
0000
0022
0000
0033
0202
0000
0303
2200
3300
,
0010
0001
1000
0010
0100
0001
0010
0001
0100
0010
1000
0100
1000
0000
0000
0000
,
0010
0000
0100
0000
0002
0010
0000
0100
0000
0013
0100
1000
0000
0001
0000
2000
,
0010
0000
0100
0000
3010
0100
0001
0000
1000
0000
0020
0001
0000
0100
0000
1030
,
0100
0010
0000
0001
0000
0200
1000
0000
0001
0000
0310
0100
1000
0000
0100
0000
,
0002
1000
0000
0100
0000
0013
0100
1000
0000
0010
0000
2000
0001
0000
0100
0000
,
3010
0100
0001
0000
0010
0000
0200
0001
0000
1000
0000
0301
0100
1000
0000
0001
,
0000
0000
0020
0000
1000
0000
0000
0000
0031
0000
0100
0010
1000
0000
0001
0000
0010
0000
0100
0000
1000
0000
0001
0000
2000
0000
0000
0000
0000
0000
0000
0000
,
0000
3000
0000
0000
0100
0000
0010
0000
0000
0000
0001
0000
0010
0000
0200
0000
0000
0000
0000
0000
0000
0000
0000
0300
0000
0000
1000
0000
0010
0000
0000
0000
,
0100
0000
0001
0000
0020
0000
0000
0000
0000
0000
0000
0000
0000
0030
0000
0000
0100
0000
1000
0000
0000
0000
0010
0000
0100
0000
0002
0000
0000
0000
0000
0000
,
0000
0000
0000
0003
0000
0000
0000
0000
1001
0000
0000
0000
0000
0000
0000
0000
0220
0000
0330
0000
0000
0000
0000
0000
2000
0000
3200
0000
0300
0000
0200
0000
,
0320
0030
0020
0031
0100
0000
0100
1000
0000
1000
0010
0000
0010
0000
0001
0100
,
1010
0000
0100
0000
1001
0000
0000
0000
0220
0330
0000
0000
0002
0023
0030
0020
,
0230
0300
0200
1300
0010
0100
0010
1000
0001
0010
0000
0010
1000
0000
0100
0010
,
0002
0000
0000
0000
1000
0000
0000
0003
0220
0330
0000
0000
2000
3020
0030
0020
,
0230
0000
0000
0300
0000
0000
0200
0000
0000
0301
0000
0000
0010
0000
0000
0000
1000
0000
0000
0000
0010
0000
0000
0000
0001
0000
0000
0000
0010
0000
0000
0000
0100
0000
0000
0000
1000
0000
0000
0000
0000
0000
0010
0000
0000
0100
0000
0000
,
0010
0000
1000
0001
1001
0000
0000
0000
0220
0330
0000
0000
0002
0203
0300
0200
,
0320
0030
0020
1030
0100
0010
0100
1000
0001
0100
0001
0010
0100
1000
0010
1000
,
0001
0000
0000
0000
0110
0000
0000
0000
2002
3003
0000
0000
2000
3200
0300
0200
,
0302
0003
0002
0013
0100
0000
1000
0000
0100
0001
0000
0100
0010
0000
0001
1000
,
1001
0000
0100
0010
0110
0000
0000
0000
2002
3003
0000
0000
0002
0023
0030
0020
,
2030
3000
2000
3100
0010
0100
1000
0001
0100
0010
0000
0100
0001
0000
0010
0100
,
0020
0000
0000
0000
0001
0000
0000
0030
2002
3003
0000
0000
0002
0203
0300
0200
,
2300
3000
2000
3010
0001
0000
0010
0000
1000
0100
1000
0010
0100
0000
0010
1000
,
1010
0000
0001
0000
0110
0000
0000
0000
2002
3003
0000
0000
2000
3020
0030
0020
,
0032
0003
0002
0103
0010
0100
0001
1000
0100
0010
0100
1000
0010
0100
0001
1000
,
0100
0000
0000
0000
1001
0000
0000
0000
0200
0300
0000
0000
0002
0100
0003
0200
,
1000
0300
2000
3010
0000
0000
0100
0000
0000
0100
0001
0000
0010
0100
0010
0001
,
1000
0000
0010
0100
0110
0000
0000
0000
0002
0003
0000
0000
0002
0010
0003
0020
,
1000
0030
2000
3010
0001
0100
0010
0100
0001
1000
0000
0100
0010
0000
0100
0000
,
1000
0000
0001
0000
1010
0000
0000
0000
0020
0030
0000
0000
0020
0001
0030
0002
,
0010
0000
0000
0003
0000
0000
0020
0000
0000
1030
0000
0000
0200
0000
0000
0000
0000
0000
0000
0000
0310
0000
0000
0000
0100
0000
0000
0000
0010
0000
0000
0000
0100
0000
0000
0000
1000
0000
0000
0000
0000
0000
0000
0000
0000
0001
0000
0000
,
0011
0000
1000
0010
0101
0000
0000
0000
0200
0300
0000
0000
0200
1000
0300
2000
,
0100
3000
0200
0301
0000
0100
0010
0100
0001
0010
0100
1000
0010
0100
0010
0000
,
1000
0000
0000
0000
0011
0000
0000
0000
0020
0030
0000
0000
0020
1000
0030
2000
,
0010
3000
0020
0031
0100
0000
0010
0000
0000
0010
0000
0010
1000
0000
0100
0010
,
0001
0000
0010
0001
1100
0000
0000
0000
0200
0300
0000
0000
0200
0001
0300
0002
,
0100
0003
0200
1300
0001
0000
0100
0001
1000
0100
0000
0100
0001
0000
0010
0000
,
0100
0000
1000
0000
0110
0000
0000
0000
2000
3000
0000
0000
2000
0010
3000
0020
,
0001
0030
0002
0013
1000
0000
0100
0000
0000
0100
0001
0010
0001
0000
0000
0010
,
1010
0000
0100
0010
1001
0000
0000
0000
0020
0030
0000
0000
0020
1000
0030
2000
,
0010
3000
0020
0031
1000
0010
0100
0010
1000
0001
0010
0100
0010
0001
1000
0000
,
0010
0000
0000
0000
0000
0000
0000
0000
2000
3000
0200
0300
0020
0030
0002
0003
2002
0000
0000
0000
0000
0000
0000
0000
0000
0000
0000
0000
3003
0000
0000
0000
;
