#TITLE:GO;
#SUBTITLE:;
#ARTIST:Paisley Parks;
#TITLETRANSLIT:;
#SUBTITLETRANSLIT:;
#ARTISTTRANSLIT:;
#GENRE:Juke/footwork;
#CREDIT:tikal.;
#MUSIC:go.ogg;
#BANNER:bn.png;
#BACKGROUND:bg.png;
#CDTITLE:cdtitle.png;
#SAMPLESTART:30.007;
#SAMPLELENGTH:24.000;
#SELECTABLE:YES;
#OFFSET:-0.007;
#BPMS:0.000=160.000;
#STOPS:;
#BGCHANGES:;
#FGCHANGES:;

//--------------- dance-single - tikal. ----------------
#NOTES:
     dance-single:
     tikal.:
     Hard:
     14:
     0,0,0,0,0:
0000
0000
0000
0000
,
0000
0000
0000
0000
,
0000
0000
0000
0000
,
0000
0000
0000
0000
,
2000
0000
0000
3000
1100
0000
0000
0000
,
0002
0000
0000
0000
0000
0000
0003
0001
0010
0000
0000
0110
0000
0000
1001
0000
,
0002
0000
0000
0003
0101
0000
0000
0000
,
2000
0000
0000
0000
0000
0000
0000
0000
0000
0000
0000
0000
0000
0000
0000
0000
0000
0000
3010
0000
0000
1000
0000
0000
0010
0000
0000
0000
0000
0000
0000
0000
0000
0100
0000
0000
0000
0001
0000
0000
0000
0100
0000
0000
0000
0001
0000
0000
,
2000
0000
0000
0010
0000
0000
3000
0000
1020
0000
0000
0100
0000
0000
1030
0000
,
0002
0000
0000
0100
0000
0000
0003
0001
0010
0000
0000
0110
0000
0000
1001
0000
,
0002
0000
0000
0010
0000
0000
0003
0000
0021
0000
0000
0100
0000
0000
0031
0000
,
2000
0000
0000
0100
0000
0000
3000
1000
0010
0000
0000
0110
0000
0000
1001
0000
,
0002
0000
0000
0100
0000
0000
1003
0000
1020
0000
0000
0230
0000
0000
0310
0000
,
2000
0000
0000
0100
0000
0000
3001
1000
0001
0000
0000
0110
0000
0000
1001
0000
,
2000
0000
0000
0010
0000
0000
3001
0000
0201
0000
0000
0320
0000
0000
0130
0000
,
0002
0000
0000
0000
0000
0000
0000
0000
0000
0010
0000
0000
0000
0000
0000
0000
0000
0000
1003
0000
0000
0001
0000
0000
1000
0000
0000
0000
0000
0000
0000
0000
0000
0100
0000
0000
0000
1000
0000
0000
0000
0100
0000
0000
0000
1000
0000
0000
,
0002
0000
0000
1003
0000
0010
0200
0000
0000
0320
0000
0000
2030
0000
0000
3002
,
0000
0000
0023
0000
0000
0230
0000
0000
2300
0000
0000
3002
0000
0000
0203
0000
,
0000
0320
0000
0000
2030
0000
0000
3002
0000
0023
0000
0230
0000
2300
0000
3020
,
0000
0230
0000
0302
0000
2003
0000
3000
0000
0000
0000
2002
0000
0000
3003
0000
,
2100
0000
0000
3001
0000
0010
0100
0000
2000
0000
0000
3020
0000
0000
1030
0000
,
0002
0000
0000
1003
0000
0010
0000
0100
0002
0000
0003
0000
2000
0000
3100
0000
,
0012
0000
0000
1003
0000
0100
0010
0000
0002
0000
0000
0203
0000
0000
0301
0000
,
2000
0000
0000
3001
0000
0100
0000
0010
2000
0000
3000
0100
0000
0000
1001
0000
,
2000
0000
0000
3001
0000
0100
0010
0000
2010
0000
0000
3200
0000
0000
1300
0000
,
0002
0000
0000
1003
0000
0100
0000
0010
0002
0000
0003
0000
2000
0000
3010
0000
,
0102
0000
0000
1003
0000
0010
0100
0000
0102
0000
0000
0023
0000
0000
0031
0000
,
2000
0000
0000
0000
0000
0000
0000
0000
0000
3001
0000
0000
0000
0000
0000
0010
0000
0000
0100
0000
0000
0000
0000
0000
2000
0000
0000
0000
0000
0000
3000
0000
0000
0001
0000
0000
0000
0100
0000
0000
0000
0001
0000
0000
0000
0100
0000
0000
,
0020
0000
0000
1030
0000
0001
0010
0000
0210
0000
0000
1300
0000
0001
0100
0000
,
0010
0000
0010
1000
0000
1000
0001
0010
0100
0000
0000
0100
0000
0000
0100
0000
,
0020
0000
0000
0031
0000
1000
0010
0000
0210
0000
0000
0301
0000
1000
0100
0000
,
0010
0000
0010
0001
0000
0001
1000
0010
0100
0000
0000
0100
0000
0001
0100
0000
,
0020
0000
0000
0100
0000
1030
0010
0000
1002
0000
0000
0023
0000
0000
0031
0000
,
0100
0000
0001
1000
0000
0001
1000
0100
0010
0000
0000
0010
0000
0000
0010
0000
,
0200
0000
0000
0010
0000
1300
0100
0000
1002
0000
0000
0203
0000
0000
0301
0000
,
0010
0000
0001
1000
0000
0001
1000
0010
0100
0000
0000
0100
0000
0000
0100
0000
,
0002
0000
0000
0010
0000
0010
0000
0000
1003
0000
0000
0010
0000
0000
1000
0000
,
0200
0000
0000
1000
0000
1000
0000
0000
0310
0000
0000
0011
0000
0000
1001
0000
,
2000
0000
0000
0010
0000
0010
0000
0000
3001
0000
0000
0010
0000
0000
0001
0000
,
0200
0000
0000
0001
0000
0001
0000
0000
0310
0000
0000
1010
0000
0001
1000
0000
,
0200
0000
0000
0010
0000
0010
0000
0000
1300
0000
0000
0001
0000
0000
1000
0000
,
0020
0000
0000
0001
0000
0001
0000
0000
0130
0000
0000
0101
0000
0000
0011
0000
,
0020
0000
0000
0100
0000
0100
0000
0000
0031
0000
0000
1000
0000
0000
0001
0000
,
0200
0000
0000
0000
0000
0000
0000
0000
0000
1000
0000
0000
0000
0000
0000
1300
0000
0000
0100
0000
0000
0000
0000
0000
0010
0000
0000
0000
0000
0000
0000
0000
0000
1000
0000
0000
0000
0100
0000
0000
0000
1000
0000
0000
0000
0100
0000
0000
,
0010
0000
0010
0001
0000
0001
0000
0000
0011
0000
0000
0010
0000
0110
0000
0000
,
1000
0000
0000
1000
0000
0000
1000
0000
0001
0000
0000
0001
0000
0000
0001
0000
,
0100
0000
0100
0010
0000
0010
0000
0000
1010
0000
0000
1000
0000
1001
0000
0000
,
0001
0000
0000
0001
0000
0000
0001
0000
1000
0000
0000
1000
0000
0001
1000
0000
,
0010
0000
0010
1000
0000
1000
0000
0000
1010
0000
0000
0010
0000
0110
0000
0000
,
0001
0000
0000
0001
0000
0000
0001
0000
1000
0000
0000
1000
0000
0000
1000
0000
,
0100
0000
0100
0010
0000
0010
0000
0000
0011
0000
0000
0001
0000
1001
0000
0000
,
2000
0000
3002
0000
,
1003
0000
0010
0000
0001
0000
0010
0000
0200
0000
0000
1000
0000
0310
0000
0000
,
1000
0000
0100
0000
0010
0000
0001
1000
0001
0000
0000
0100
0000
0010
0100
0000
,
0001
0000
0010
0000
1000
0000
0010
0000
0200
0000
0000
0001
0000
0310
0000
0000
,
0001
0000
0100
0000
0010
0000
1000
0001
1000
0000
0000
0100
0000
0010
0100
0000
,
0010
0000
1000
0000
0010
0000
0001
0000
0200
0000
0000
1000
0000
0310
0000
0000
,
1000
0000
0001
0000
0010
0000
0100
1000
0001
0000
0000
0100
0000
0010
0100
0000
,
0010
0000
0001
0000
0010
0000
1000
0000
0200
0000
0000
0001
0000
0310
0000
0000
,
0001
0000
0000
0000
0000
0000
0000
0000
0000
0000
0000
0000
0000
0000
0000
0000
0000
0000
1000
0000
0000
0001
0000
0000
1000
0000
0000
0000
0000
0000
0000
0000
0000
0001
0000
0000
0000
0100
0000
0000
0000
0010
0000
0000
0000
1000
0000
0000
,
0200
0000
0000
1000
0000
1300
0000
0000
2100
0000
0000
0010
0000
3010
0000
0000
,
1020
0000
0000
0001
0000
0001
0030
0010
0100
0000
0000
0101
0000
0000
0011
0000
,
0020
0000
0000
0001
0000
0031
0000
0000
0012
0000
0000
0100
0000
0103
0000
0000
,
0201
0000
0000
1000
0000
1000
0300
0100
0010
0000
0000
1010
0000
1000
0010
0000
,
0200
0000
0000
0001
0000
0301
0000
0000
0102
0000
0000
0010
0000
0013
0000
0000
,
0021
0000
0000
1000
0000
1000
0030
0010
0100
0000
0000
1100
0000
0000
1010
0000
,
0020
0000
0000
1000
0000
1030
0000
0000
2010
0000
0000
0100
0000
3100
0000
0000
,
1200
0000
0000
0000
0000
0000
0000
0000
0000
0001
0000
0000
0000
0000
0000
0301
0000
0000
0100
0000
0000
0000
0000
0000
0010
0000
0000
0000
0000
0000
0000
0000
0000
0001
0000
0000
0000
0010
0000
0000
0000
0100
0000
0000
0000
1000
0000
0000
,
0020
0000
0000
1030
0000
0001
0010
0000
1200
0000
0000
0001
0000
0000
1300
0000
,
0001
0000
0001
0100
0000
0010
0100
0001
1000
0000
0000
1001
0000
0000
0011
0000
,
0020
0000
0000
0031
0000
1000
0010
0000
0201
0000
0000
1000
0000
0000
0301
0000
,
1000
0000
1000
0100
0000
0010
0100
1000
0001
0000
0000
1001
0000
1000
0010
0000
,
0200
0000
0000
0010
0000
0301
0100
0000
2001
0000
0000
3200
0000
0000
1300
0000
,
0010
0000
1000
0010
0000
0100
0001
1000
0100
0000
0000
1100
0000
0000
0110
0000
,
0020
0000
0000
0100
0000
0031
0010
0000
2001
0000
0000
3020
0000
0000
1030
0000
,
0002
0000
0000
0000
0000
0000
0003
0010
0100
0000
0000
1001
0000
0000
0010
0000
;

//--------------- dance-single - tikal. ----------------
#NOTES:
     dance-single:
     tikal.:
     Challenge:
     17:
     0,0,0,0,0:
0000
0000
0000
0000
,
0000
0000
0000
0000
,
0000
0000
0000
0000
,
0000
0000
0000
0000
,
2100
0000
0000
0001
3000
1000
0001
0000
0102
0000
0000
1000
0003
0001
1000
0000
,
0100
0000
0100
0000
0010
0100
0010
0001
1000
0000
0000
1010
0000
0000
0011
0000
,
0102
0000
0000
1000
0003
0001
1000
0000
2100
0000
0000
0001
3000
1000
0001
0000
,
0100
0000
0000
0000
0000
0000
0100
0000
0000
0000
0000
0000
0010
0000
0000
0100
0000
0000
0010
0000
0000
1000
0000
0000
0001
0000
0000
0000
0000
0000
0000
0000
0000
1000
0000
0000
0000
0001
0000
0000
0000
0010
0000
000M
0000
0010
0000
0000
,
2000
0000
0000
3100
0000
0010
0100
0000
2100
0000
0000
3002
0000
0000
1003
0000
,
0020
0000
0000
0130
0000
0001
0100
0010
2000
0000
3000
1000
0200
0000
0310
0000
,
0002
0000
0000
0103
0000
0010
0100
0000
0102
0000
0000
2003
0000
0000
3001
0000
,
0020
0000
0000
0130
0000
1000
0100
0010
0002
0000
0003
0001
2000
0000
3010
0000
,
0200
0000
0000
0301
0000
0010
0100
0000
2100
0000
0000
3002
0000
0000
1003
0000
,
0020
0000
0000
0130
0000
0001
0010
0100
2000
0000
3000
1000
0002
0000
0013
0000
,
0200
0000
0000
1300
0000
0010
0100
0000
0102
0000
0000
2003
0000
0000
3001
0000
,
0020
0000
0000
0000
0000
0000
0000
0000
0000
0130
0000
0000
0000
0000
0000
1000
0000
0000
0010
0000
0000
0100
0000
0000
0002
0000
0000
0000
0000
0000
0003
0000
0000
0001
0000
0000
0000
1000
0000
0000
0000
0010
0000
M000
0000
0010
0000
0000
,
0002
0000
0000
1003
0000
0010
0200
0000
0000
0320
0000
0000
2030
0000
0000
3002
,
0000
0000
0023
0000
0000
0230
0000
0000
2300
0000
0000
3002
0000
0000
0203
0000
,
0000
0320
0000
0000
2030
0000
0000
3002
0000
0023
0000
0230
0000
2300
0000
3001
,
0100
0010
1000
0001
1000
0100
0010
0001
0000
0000
0000
0220
0000
0000
0330
0000
,
2100
0000
0000
0001
3000
1000
0010
0000
2010
0000
0000
0001
3000
1000
0001
0000
,
0010
0100
0010
0100
0000
0010
0100
1000
0001
0000
0000
0011
0000
0000
1001
0000
,
0102
0000
0000
1000
0003
0001
0010
0000
0012
0000
0000
1000
0003
0001
1000
0000
,
0010
0100
0010
0100
0000
0010
0100
0001
1000
0000
0000
1010
0000
0001
1000
0000
,
2100
0000
0000
0010
3000
1000
0010
0000
0102
0000
0000
0010
0003
0001
0010
0000
,
0100
1000
0001
0100
0000
0010
0100
0001
1000
0000
0000
1001
0000
0001
1000
0000
,
2010
0000
0000
0100
3000
1000
0100
0000
0012
0000
0000
0100
0003
0001
0100
0000
,
0010
0000
0000
1000
0000
0000
0001
0000
0000
0010
0000
0000
0000
0000
0000
0100
0000
0000
0010
0000
0000
0001
0000
0000
1000
0000
0000
0000
0000
0000
0000
0000
0000
0001
0000
0000
0000
1000
0000
0000
0000
0100
0000
M000
0000
0100
0000
0000
,
0002
0000
0000
0010
0000
1003
0100
0000
2001
0000
0000
0010
0000
3001
0100
0000
,
0001
1000
0001
0010
000M
0010
1000
0001
0100
0000
0000
0110
0000
0000
0101
0000
,
2001
0000
0000
0010
0000
3001
0100
0000
1002
0000
0000
0010
0000
1003
0100
0000
,
1000
0001
1000
0010
M000
0010
0001
1000
0100
0000
0000
0110
0000
1000
0100
0000
,
0120
0000
0000
0001
0000
0130
1000
0000
0210
0000
0000
1000
0000
0310
0001
0000
,
1000
0010
1000
0100
M000
0100
0001
1000
0010
0000
0000
1001
0000
0000
0101
0000
,
0120
0000
0000
1000
0000
0130
0001
0000
0210
0000
0000
0001
0000
0310
1000
0000
,
0001
0010
0001
0100
000M
0100
1000
0001
0010
0000
0000
1001
0000
0000
1100
0000
,
0200
0000
0000
1000
0000
1000
0300
0000
1002
0000
0000
0023
0000
0000
0031
0000
,
0200
0000
0000
0001
0000
0301
0000
1000
0001
0000
0000
0101
0000
0000
0011
0000
,
0020
0000
0000
0001
0000
0001
0030
0000
2001
0000
0000
3200
0000
0000
1300
0000
,
0020
0000
0000
1000
0000
1030
0000
0001
1000
0000
0000
1100
0000
0001
1000
0000
,
0020
0000
0000
0001
0000
0031
0010
0000
2010
0000
0000
0001
3000
1000
0001
0000
,
0020
0000
0000
1000
0000
1030
0010
0001
1000
0000
0000
1001
0000
0000
0101
0000
,
0200
0000
0000
1000
0000
1300
0100
0000
0102
0000
0000
1000
0003
0001
1000
0000
,
0200
0000
0000
0000
0000
0000
0000
0000
0000
0001
0000
0000
0000
0000
0000
0301
0000
0000
0100
0000
0000
1000
0000
0000
0001
0000
0000
0000
0000
0000
0000
0000
0000
1000
0000
0000
0000
0001
0000
0000
0000
0100
0000
000M
0000
0100
0000
0000
,
1000
0000
0100
0000
1000
0000
0100
0000
0000
0000
0110
0000
0000
0000
0000
0000
0010
0000
0001
0000
1000
0000
0010
0000
0000
0100
0000
0000
0001
0000
1000
0000
,
0001
0000
0000
0000
0000
0000
0011
0000
0000
0000
0000
0000
1001
0000
0000
0000
1000
0000
0000
0010
0000
0000
1010
0000
0000
0000
0000
0000
1001
0000
0000
0000
,
0001
0000
0010
0000
0001
0000
0010
0000
0000
0000
0110
0000
0000
0000
0000
0000
0100
0000
1000
0000
0001
0000
0100
0000
0000
0010
0000
0000
1000
0000
0001
0000
,
1000
0000
0000
0000
0000
0000
1100
0000
0000
0000
0000
0000
1001
0000
0000
0000
0001
0000
0000
0100
0000
0000
0101
0000
0000
0000
1000
0000
0001
0000
0000
0000
,
1000
0000
0100
0000
1000
0000
0010
0000
0000
0000
0110
0000
0000
0000
0000
0000
0100
0000
0001
0000
1000
0000
0100
0000
0000
0001
0000
0000
0100
0000
1000
0000
,
0001
0000
0000
0000
0000
0000
1100
0000
0000
0000
0000
0000
1001
0000
0000
0000
1000
0000
0000
0100
0000
M000
0101
0000
0000
0000
0000
0000
1001
0000
0000
0000
,
0001
0000
0010
0000
0001
0000
0100
0000
0000
0000
0110
0000
0000
0000
0000
0000
0010
0000
1000
0000
0001
0000
0010
0000
0000
1000
0000
0000
0010
0000
0001
0000
,
0400
0000
0340
0000
,
1030
0100
1000
0001
1000
0100
1000
0000
1020
0000
0000
0001
0000
1000
0030
0000
,
0001
0100
0001
1000
0001
0100
0001
0010
0200
0000
0000
0001
0000
1300
0001
0000
,
1000
0010
1000
0001
1000
0010
1000
0000
1200
0000
0000
0001
0000
1000
0300
0000
,
0001
0010
0001
1000
0001
0010
0001
0100
0020
0000
0000
0001
0000
1030
0001
0000
,
0100
0001
0010
0001
0100
0001
0010
0000
1100
0000
0000
1001
0000
0011
0000
0000
,
0010
0001
0100
0001
0010
0001
0100
0010
1000
0000
0000
1010
0000
0001
1000
0000
,
0100
1000
0010
1000
0100
1000
0010
0000
0101
0000
0000
1001
0000
1010
0000
0000
,
0020
0000
0000
0000
0000
0000
0000
0000
0000
0100
0000
0000
0000
0000
0000
0130
0000
0000
0010
0000
0000
1000
0000
0000
0001
0000
0000
0000
0000
0000
0000
0000
0000
1000
0000
0000
0000
0001
0000
0000
0000
0010
0000
000M
0000
0010
0000
0000
,
2000
0000
0000
0100
0000
3001
0010
0000
1002
0000
0000
0100
0000
1003
0010
0000
,
1000
0001
1000
0100
M000
0100
0001
1000
0010
0000
0000
1010
0000
1000
0010
0000
,
1002
0000
0000
0100
0000
1003
0010
0000
2001
0000
0000
0100
0000
3001
0010
0000
,
0001
1000
0001
0100
000M
0100
1000
0001
0010
0000
0000
0011
0000
0001
0010
0000
,
0210
0000
0000
1000
0000
0310
0001
0000
0120
0000
0000
0001
0000
0130
1000
0000
,
0001
0100
0001
0010
000M
0010
1000
0100
0010
0000
0000
0011
0000
1000
0010
0000
,
0210
0000
0000
0001
0000
0310
1000
0000
0120
0000
0000
1000
0000
0130
0001
0000
,
1000
0000
0000
0100
0000
0000
1000
0000
0000
0010
0000
0000
M000
0000
0000
0010
0000
0000
0001
0000
0000
0100
0000
0000
0010
0000
0000
0000
0000
0000
0000
0000
0000
1000
0000
0000
0000
0001
0000
0000
0000
0010
0000
000M
0000
0010
0000
0000
,
2000
0000
0000
3200
0000
0301
0100
0000
0120
0000
0000
2030
0000
0000
3010
0000
,
0001
1000
0010
1000
00M0
1000
0100
0010
0200
0000
0300
0100
0002
0000
1003
0000
,
0002
0000
0000
0203
0000
1300
0100
0000
0120
0000
0000
0032
0000
0000
0013
0000
,
1000
0001
0010
0001
00M0
0001
0100
0010
0200
0000
0300
0100
2000
0000
3001
0000
,
0020
0000
0000
1000
0000
0130
0010
0000
0012
0000
0000
0203
0000
0000
0301
0000
,
1000
0001
0100
1000
0M00
1000
0010
0100
0002
0000
0003
0001
2000
0000
3010
0000
,
0200
0000
0000
1000
0000
0310
0100
0000
0102
0000
0000
0023
0000
0000
0031
0000
,
0010
0100
0010
0100
0000
1000
0001
0100
0010
0000
0000
1001
0000
0000
0100
0000
;
