#TITLE:GIGA THRASH;
#SUBTITLE:;
#ARTIST:Blacklolita;
#TITLETRANSLIT:;
#SUBTITLETRANSLIT:;
#ARTISTTRANSLIT:;
#GENRE:;
#CREDIT:;
#MUSIC:GIGA THRASH.ogg;
#BANNER:;
#BACKGROUND:;
#CDTITLE:;
#SAMPLESTART:25.931;
#SAMPLELENGTH:12.800;
#SELECTABLE:YES;
#OFFSET:-0.331;
#BPMS:0.000=150.000;
#STOPS:;
#BGCHANGES:;
#FGCHANGES:;

//--------------- dance-single - Maractus (X-Scale) ----------------
#NOTES:
     dance-single:
     Maractus (X-Scale):
     Hard:
     15:
     0,0,0,0,0:
0000
0000
0000
0000
,
0000
0000
0000
0000
,
0000
0000
0000
0000
,
0000
0000
0000
0000
,
0001
0100
0001
0000
1000
0100
0000
1000
0100
0000
0010
0000
0010
0000
0010
0001
,
0000
0100
0000
0010
0000
1000
0100
0000
0010
0000
0000
0010
0000
0000
0001
0000
,
0000
1000
0010
0000
1000
0010
0000
0100
0001
0000
0001
0000
0001
0000
1000
0100
,
1000
0000
0000
0000
0001
0000
0000
0000
0010
0000
0000
0000
0100
0000
0000
0000
1000
0000
0000
0000
0010
0000
0000
0000
0100
0000
0000
0000
0000
0000
0001
0000
0000
1000
0000
0000
0000
0000
0000
0001
0000
0000
0010
0000
0000
0100
0000
0000
,
1000
0010
0100
0001
1000
0100
0010
0001
,
0010
0100
1000
0010
0100
0001
2001
0000
,
3010
0000
0100
0000
0001
0000
0010
0000
0100
0000
1000
0000
0001
0010
0001
0000
,
1000
0010
1000
0000
0010
0100
0000
0001
2000
0000
0000
0000
3020
0000
0000
0000
,
1030
0000
0000
0001
0000
0000
0010
0000
0000
0001
0000
0000
1000
0000
0000
0000
,
0001
0000
0000
0100
0000
0000
0001
0000
0000
1000
0000
0000
0001
0000
1000
0010
,
0100
0100
0001
0001
0010
0010
0100
0100
,
1000
0010
0000
0100
0001
0000
0010
0100
0000
2000
0000
0000
3001
1000
0001
1000
,
0100
0000
0000
1100
0000
0001
1000
0001
1000
0000
0001
0000
2000
0000
3010
1000
,
0010
1000
0010
1000
0010
1000
0010
1000
0010
0000
1000
0010
0100
0001
0100
0001
,
0100
0001
0010
0100
1000
0001
2001
0000
,
3100
0010
0001
0010
0001
0010
0001
0010
0001
0000
0100
0010
1000
0001
1000
0001
,
0020
0000
0000
0032
0000
1003
0100
1000
0100
1000
0100
0000
1001
0000
0001
0100
,
0001
0100
0001
0100
0001
0100
0001
0100
0002
0000
0013
0100
1000
0001
1000
0100
,
0020
0000
0000
0032
0000
0103
0010
0000
2010
0000
0000
0000
3010
0000
0100
0001
,
1000
0010
0100
0001
1000
0100
0010
0001
2000
0000
0000
0000
3020
0000
0000
0000
,
0130
0001
0010
0100
1000
0001
0021
0000
0000
0000
0000
0000
,
0001
0000
0032
0023
,
0130
0000
0000
1000
0000
0000
0010
0000
0100
0000
0000
0001
0000
0000
0010
0000
,
0100
0000
0000
1000
0000
0000
0001
0000
1001
0000
1000
0001
1000
0001
1000
0001
,
0010
0100
1000
0010
0100
0001
2000
0000
0000
3002
0000
0000
,
1003
0100
0010
0001
1000
0010
0100
0001
0010
0100
1000
0001
,
2000
0000
0000
0000
0000
0000
0000
0000
3002
0003
2000
3000
0020
0000
0000
0000
,
0230
0000
0000
0300
0000
0000
0001
0000
0000
0000
0000
0000
1000
0000
0000
0000
0000
0000
0000
0000
0000
0000
0000
0000
0001
0000
0000
0000
1000
0000
0000
0000
0010
0000
0000
0000
0100
0000
0000
0000
0001
0000
0000
0000
0010
0000
0000
0000
,
0100
1000
0001
0000
,
0100
0010
0000
0000
1000
0000
0000
0000
0100
0000
0000
0000
0010
0000
0000
0000
,
0001
0100
0010
0000
,
1000
0000
0000
0000
0000
0001
0000
0000
0000
0000
0100
0000
0000
0000
0000
0000
,
0001
0010
0100
1000
,
0010
1000
0001
0100
,
0010
1000
0100
1000
,
0001
0000
0000
0000
0000
0000
0000
0000
0000
0000
0000
0000
0100
0000
0000
0000
0000
0000
0001
0000
0000
0010
0000
0000
0100
0000
0000
0000
0000
0000
0000
0000
1000
0000
0000
0000
0000
0000
0000
0000
0010
0000
0000
0000
0000
0000
0000
0000
,
2001
0000
0000
0000
0000
0000
0000
0000
0000
3001
0000
0000
0100
0000
0010
0000
1000
0000
0001
0000
0010
0000
0100
0000
,
2000
0000
0000
3000
0000
0000
0000
0000
0000
1002
0000
0000
0003
0000
0000
0000
0000
0000
2000
0000
0000
3000
0000
0000
0010
0000
0000
0000
0100
0000
0000
0000
0001
0000
0000
0000
1000
0000
0000
0000
0100
0000
0000
0000
0010
0000
0000
0000
,
0002
0000
0000
0000
0000
0000
1003
0100
0010
0001
1000
0010
,
0200
0000
0000
0301
0010
0100
1000
0001
0100
0010
1000
0001
,
1000
1100
0001
0101
,
1000
0010
1000
0010
0100
0001
0100
0001
,
1000
0100
1000
0100
0010
0001
0010
0001
0100
0010
1000
0100
,
0020
0000
0000
0000
0000
0000
0000
0000
0000
0000
0030
0000
,
1001
0000
0000
1001
0000
0000
1000
0000
0001
0000
0010
0000
,
0110
0000
0000
0110
0000
0000
0100
0000
1000
0000
0001
0000
,
1000
1000
0010
0010
0100
0100
0001
0001
,
1000
0100
0010
0001
0100
0010
1000
0100
,
0010
0001
0100
0020
0000
0000
1030
0100
0010
0002
0000
0000
,
1003
0000
0001
0000
0010
0000
0100
0000
0000
1000
0000
0000
0010
0000
0100
0000
0001
0000
0100
0000
0010
0000
1000
0000
,
0100
0000
0010
0000
0001
0000
1000
0000
0001
0000
0100
0000
0010
1000
0001
0000
,
0200
0000
0000
0000
0000
0000
0301
0000
0000
0011
0000
0000
1000
0000
0100
0000
1000
0000
0100
0000
0010
0000
0001
0000
,
1000
0000
0000
0001
0000
0000
1001
0000
0000
0000
0000
0000
0001
0000
0000
0000
1000
0000
0000
0000
0010
0000
0000
0000
,
0110
0000
0000
0110
0000
0000
0100
0000
0001
0000
0010
0000
,
0001
0001
0100
0100
0010
0010
1000
1000
,
0001
0010
0100
1000
0001
1000
0001
1000
0001
0010
0100
1000
,
0020
0000
2030
3000
2001
0000
3200
0300
,
0010
0000
0001
0000
1000
0000
0010
0000
0000
0010
0000
0000
0100
0000
0001
0000
1000
0000
0001
0000
0100
0000
0010
0000
,
1000
0000
1000
0000
0001
0000
0001
0000
1000
0000
1000
0000
0001
0010
0100
1000
,
0002
0000
0100
0000
2003
0000
0100
3000
,
1001
0000
0000
1010
0000
0000
1000
0000
1100
0000
0000
0011
0000
0000
0001
0000
,
0101
0000
0000
0110
0000
0000
1010
0000
2000
0000
0000
3001
0000
0000
0010
0000
,
1001
0000
0000
0011
0000
0000
0001
0000
0101
0000
0000
1010
0000
0000
1000
0000
,
0001
0000
0000
0000
0000
0000
0100
0000
0000
0010
0000
0000
0000
0000
0000
0100
0000
0000
0010
0000
0000
0000
0000
0000
1000
0000
0000
0000
0010
0000
0000
0000
1000
0000
0000
0000
0010
0000
0000
0000
0100
0000
0000
0000
0001
0000
0000
0000
,
1000
0100
1000
0100
0010
0001
0010
0001
,
0100
0001
0100
0010
1000
0010
1000
0001
,
0100
0001
0010
0000
0100
1000
0010
0000
0001
0100
0010
0000
1000
0100
0010
0000
,
0001
0000
0000
0000
0010
0000
0000
0000
0100
0000
0000
0000
1000
0000
0000
0000
0010
0000
0000
0000
0000
0100
0000
0000
0001
0000
0000
1000
0000
0000
0001
0000
0000
1000
0000
0000
0001
0000
0000
1000
0000
0000
0001
0000
0000
1000
0000
0000
,
0200
0000
0000
0000
,
0000
0000
0000
0000
,
0300
0000
0000
0000
;

//--------------- dance-single - Maractus (X-Sacle) ----------------
#NOTES:
     dance-single:
     Maractus (X-Sacle):
     Challenge:
     16:
     0.871674,1.089893,0.61438,0.336646,1.182471,725,652,73,40,18,8,0.871674,1.089893,0.61438,0.336646,1.182471,725,652,73,40,18,8:
0000
0000
0000
0000
,
0000
0000
0000
0000
,
0000
0000
0000
0000
,
0000
0000
0000
0000
,
0001
0100
0001
0000
1000
0100
0000
1000
0100
0000
0010
0000
0010
0000
0010
0001
,
0000
0100
0000
0010
0000
1000
0100
0000
0010
0000
0000
0010
0000
0000
0001
0000
,
0000
1000
0010
0000
1000
0010
0000
0100
0001
0000
0001
0000
0001
0000
1000
0100
,
1000
0000
0000
0000
0001
0000
0000
0000
0010
0000
0000
0000
0100
0000
0000
0000
1000
0000
0000
0000
0010
0000
0000
0000
0100
0000
0000
0000
0000
0000
0001
0000
0000
1000
0000
0000
0000
0000
0000
0001
0000
0000
0010
0000
0000
0100
0000
0000
,
1000
0010
0100
1000
0010
0100
1000
0001
,
0010
0100
1000
0010
0100
1000
2001
0000
,
3010
0000
0100
0000
0001
0000
0010
0000
0100
0000
0001
0000
1000
0010
0100
0001
,
0010
0100
1000
0001
1000
0010
0100
0001
2000
0000
0000
0000
3020
0000
0000
0000
,
1030
0000
0000
0001
0000
0000
0010
0000
0000
0001
0000
0000
1000
0000
0000
0000
,
0001
0000
0000
0100
0000
0000
0001
0000
0000
1000
0000
0000
0001
0000
1000
0100
,
0010
0001
1000
0001
0100
0010
0100
0001
1000
0010
0100
0001
1000
0100
0010
0100
,
1000
0010
0100
0001
0010
0100
1000
0001
0000
0200
0000
0000
0310
1000
0001
1000
,
0100
0000
0000
1001
0000
1000
0001
1000
0010
0000
0100
0010
2000
0000
3001
1000
,
0100
0010
0001
1000
0010
0100
0001
1000
0010
0000
1000
0010
0100
0001
0100
0001
,
1000
0010
0100
1000
0010
0100
2001
0000
,
3100
0010
0001
0010
0001
1000
0100
0010
0001
0000
0100
0010
1000
0001
1000
0001
,
0020
0000
0000
0032
0000
1003
0100
0010
0100
1000
0010
0000
1001
0000
0001
0010
,
0100
1000
0001
0100
0010
1000
0100
0010
0002
0000
0013
0100
1000
0010
1000
0100
,
0020
0000
0000
0032
0000
0103
0010
0000
2001
0000
0000
0000
3010
0000
0100
0001
,
1000
0010
0100
0001
1000
0100
0010
0001
2000
0000
0000
0000
3020
0000
0000
0000
,
0130
0100
0001
0010
0010
0100
2001
0000
0000
0000
0000
0000
,
0001
0000
3002
0023
,
0130
0000
0000
0010
0000
0000
1000
0000
0100
0000
0000
0010
0000
0000
1000
0000
,
0100
0000
0000
0010
0000
0000
1000
0000
1001
0000
1000
0010
0100
0001
0100
0001
,
0010
0100
0100
1000
0010
0010
2000
0000
0000
3002
0000
0000
,
1003
0100
0100
0001
0100
0100
1000
0010
0010
0001
0010
0010
,
2000
0000
0000
0000
0000
0000
0000
0000
3002
0003
2000
3000
0020
0000
0000
0000
,
0230
0000
0000
0300
0000
0000
0001
0000
0000
0000
0000
0000
1000
0000
0000
0000
0000
0000
0000
0000
0000
0000
0000
0000
1001
0000
0000
0000
0001
0000
0000
0000
0100
0000
0000
0000
0010
0000
0000
0000
1000
0000
0000
0000
0100
0000
0000
0000
,
0010
0001
1000
0000
,
0010
0100
0000
0000
0001
0000
0000
0000
0010
0000
0000
0000
0100
0000
0000
0000
,
1000
0010
0100
0000
,
0001
0000
0000
0000
0000
1000
0000
0000
0000
0000
0010
0000
0000
0000
0000
0000
,
1000
0100
0010
0001
,
0100
0001
1000
0010
,
0100
0001
0010
0001
,
1000
0000
0000
0000
0000
0000
0000
0000
0000
0000
0000
0000
0010
0000
0000
0000
0000
0000
1000
0000
0000
0100
0000
0000
0010
0000
0000
0000
0000
0000
0000
0000
0001
0000
0000
0000
0000
0000
0000
0000
0100
0000
0000
0000
0000
0000
0000
0000
,
1002
0000
0000
0000
0000
0000
0000
0000
0000
1003
0000
0000
0010
0000
0100
0000
0100
0000
0001
0000
1000
0000
1000
0000
,
0002
0000
0000
0003
0000
0000
0000
0000
0000
2001
0000
0000
3000
0000
0000
0000
0000
0000
0102
0000
0000
0003
0000
0000
0100
0000
0000
0000
0010
0000
0000
0000
0100
0000
0000
0000
0001
0000
0000
0000
0010
0000
0000
0000
0100
0000
0000
0000
,
2001
0000
0000
0000
0000
0000
3001
0010
0010
0100
1000
0010
,
2001
0000
0000
3010
1000
0001
0100
0010
1000
0100
0010
0001
,
1000
0100
0010
0100
0010
0001
1000
0010
0100
0010
0100
0001
,
1000
0001
0010
0001
0010
0100
0010
0100
1000
0001
0100
0010
,
1000
0001
0100
0001
1000
0100
0010
0001
1000
0010
0100
0010
1000
0001
0010
0100
,
0010
0001
0100
0010
1000
0100
0010
0100
1000
0010
0100
0001
,
1001
0000
0000
1001
0000
0000
0001
0000
1000
0000
0100
0000
,
0110
0000
0000
0110
0000
0000
0010
0000
0001
0000
1000
0000
,
0001
0100
1000
0100
0001
0010
1000
0010
,
0001
0100
0010
1000
0100
1000
0010
0100
0001
0010
0001
0100
0010
1000
0100
0010
,
0100
0010
0100
2000
0000
0000
3010
0010
0010
0200
0000
0000
,
0310
0000
1000
0000
0100
0000
0010
0000
0000
0001
0000
0000
0010
0000
0100
0000
1000
0000
0010
0000
0100
0000
0001
0000
,
0010
0000
0100
0000
1100
0000
1000
0000
1001
0000
0001
0000
1000
0010
0100
0001
,
1000
0001
1000
0001
1000
0001
0010
0000
0000
0010
0000
0000
0001
0000
0001
0000
0100
0000
0010
0000
0010
0000
1000
0000
,
0001
0000
0000
0001
0000
0000
1001
0000
0000
0000
0000
0000
1000
0000
0000
0000
0001
0000
0000
0000
0100
0000
0000
0000
,
0110
0000
0000
0110
0000
0000
0010
0000
1000
0000
0100
0000
,
1000
0000
0010
0000
0001
0000
0010
0000
1000
0001
0100
0010
1000
0100
0001
0100
,
1000
0100
0010
0001
1000
0010
0100
0010
1000
0100
0010
0001
,
0200
0000
0302
0003
1002
0000
0023
0030
,
0100
0000
1000
0000
0001
0000
0100
0000
0000
0100
0000
0000
0010
0000
1000
0000
0100
0000
1000
0000
0010
0000
0100
0000
,
0001
0000
1000
0000
1010
0000
0010
0000
0110
0000
0100
0000
0001
0010
0100
1000
,
0002
0000
0000
0000
0000
0000
0000
0000
0000
0000
0000
0000
0010
0000
0000
0000
0000
0000
0000
0000
0000
0003
0000
0000
2000
0000
0000
0000
0000
0000
0000
0000
0010
0000
0000
0000
0000
0000
0000
0000
0000
0000
3001
0000
0000
0000
0000
0000
,
1001
0000
0000
0101
0000
0000
1001
0000
0011
0000
0000
1100
0000
0000
1001
0000
,
0101
0000
0000
1010
0000
0000
1001
0000
1020
0000
0000
1030
0000
0000
0100
0000
,
1001
0000
0000
1100
0000
0000
1001
0000
1010
0000
0000
0101
0000
0000
1001
0000
,
1000
0000
0000
0000
0000
0000
0001
0000
0000
0010
0000
0000
0000
0000
0000
0010
0000
0000
0100
0000
0000
0000
0000
0000
1000
0000
0000
0000
0001
0000
0000
0000
0100
0000
0000
0000
0010
0000
0000
0000
1000
0000
0000
0000
0100
0000
0000
0000
,
0010
0001
0010
0001
1000
0010
1000
0010
,
0100
0001
0100
0001
1000
0100
1000
0100
,
0010
0001
0100
0010
1000
0001
0010
0100
1000
0010
0100
0001
1000
0100
0010
0001
,
1000
0000
0000
0000
0100
0000
0000
0000
0010
0000
0000
0000
0001
0000
0000
0000
0100
0000
0000
0000
0000
0010
0000
0000
1000
0000
0000
0100
0000
0000
0010
0000
0000
0001
0000
0000
0100
0000
0000
0010
0000
0000
1000
0000
0000
0100
0000
0000
,
0020
0000
0000
0000
,
0000
0000
0000
0000
,
0030
0000
0000
0000
;
