#VERSION:0.83;
#TITLE:Future Raver;
#SUBTITLE:;
#ARTIST:Srav3R feat. PSYQUI;
#TITLETRANSLIT:;
#SUBTITLETRANSLIT:;
#ARTISTTRANSLIT:;
#GENRE:;
#CREDIT:;
#MUSIC:10 - Srav3R feat. PSYQUI - Future Raver.ogg;
#BANNER:;
#BACKGROUND:;
#CDTITLE:;
#SAMPLESTART:0.000;
#SAMPLELENGTH:0.000;
#SELECTABLE:YES;
#OFFSET:0.864;
#BPMS:0.000=175.000;
#STOPS:;
#LABELS:36.000=Marten,
68.000=blank,
100.000=marten,
132.000=blank,
164.000=marten,
196.000=blank,
228.000=marten,
260.000=blank,
291.000=marten,
324.000=blank,
356.000=marten
;
#BGCHANGES:;
#FGCHANGES:;

//--------------- dance-single - blank ----------------
#NOTEDATA:;
#STEPSTYPE:dance-single;
#DESCRIPTION:blank;
#DIFFICULTY:Beginner;
#METER:4;
#RADARVALUES:0,0,0,0,0;
#NOTES:
0000
0000
0000
0000
,
0000
0000
0000
0000
,
0000
0000
0000
0000
,
0000
0000
0000
0000
,
0000
0000
0000
0000
,
1001
0000
0000
0000
,
0000
0000
0000
0000
,
0110
0000
0000
0000
,
0000
0000
0000
0000
,
0001
0000
0001
0000
,
0001
0000
0000
0000
,
0000
0000
0000
0000
,
0000
0000
0000
0000
,
1000
0000
1000
0000
,
1000
0000
0000
0000
,
0000
0000
0000
0000
,
0000
0000
0000
0000
,
0110
0000
0000
0100
,
0100
0000
0000
0010
,
0010
0000
0000
1000
,
1000
0000
0001
0000
,
1000
0000
0000
0001
,
0001
0000
0000
1000
,
1000
0000
0000
0100
,
0100
0000
0010
0000
,
0001
0000
0001
0000
,
0001
0000
0000
0000
,
1000
0000
1000
0000
,
1000
0000
0000
0000
,
0010
0000
0010
0000
,
0010
0000
0000
0000
,
0100
0000
0100
0000
,
1001
0000
0000
0000
,
0001
0000
0001
1000
,
0001
0000
0001
0000
,
0100
0000
0100
0010
,
0100
0000
0100
0000
,
0001
0000
1000
0000
,
0001
0100
0001
0000
,
1000
0100
1000
0000
,
2002
0000
3003
0000
,
1000
0000
1000
0001
,
1000
0000
1000
0000
,
0100
0000
0100
0010
,
0100
0000
0100
0000
,
1000
0000
0001
0000
,
0010
0000
0001
0000
,
0100
0000
1000
0000
,
0010
0000
0000
0000
,
0001
0000
0000
0000
,
0001
0000
0000
0000
,
1000
0000
0000
0000
,
1000
0000
0000
0000
,
0010
0000
0000
0000
,
0010
0000
0000
0000
,
0100
0000
0000
0000
,
0100
0000
0000
0000
,
0001
0000
0001
0000
,
1000
0000
0000
0000
,
1000
0000
1000
0000
,
0001
0000
0000
0000
,
0010
0000
0010
0000
,
0100
0000
0000
0000
,
0100
0000
0100
0000
,
0010
0000
0000
0000
,
0001
0000
0010
0000
,
1000
0000
0000
0000
,
0001
0000
0100
0000
,
1000
0000
0000
0000
,
1000
0000
0010
0000
,
0001
0000
0000
0000
,
1000
0000
0100
0000
,
0001
0000
0000
0000
,
0001
0000
0010
0000
,
0100
0000
0000
0000
,
1000
0000
0100
0000
,
0010
0000
0000
0000
,
0001
0000
0100
0000
,
0010
0000
0000
0000
,
1000
0000
0100
0000
,
0010
0000
0000
0000
,
0001
0000
0001
0000
,
1000
0000
0000
0000
,
1000
0000
1000
0000
,
0001
0000
0000
0000
,
0010
0000
0010
0000
,
0100
0000
0000
0000
,
1000
0000
1000
0000
,
1001
0000
0000
0000
,
0001
0000
0001
0000
,
0001
0010
0001
0000
,
1000
0000
1000
0000
,
1000
0100
1000
0000
,
0010
0000
0010
0000
,
0100
0000
0100
0000
,
0001
0000
0000
0000
,
1001
0000
0000
0000
,
0110
0000
0000
0000
;

//--------------- dance-single - Marten ----------------
#NOTEDATA:;
#STEPSTYPE:dance-single;
#DESCRIPTION:Marten;
#DIFFICULTY:Easy;
#METER:8;
#RADARVALUES:0,0,0,0,0;
#NOTES:
0000
0000
0000
0000
,
0000
0000
0000
0000
,
0000
0000
0000
0000
,
0000
0000
0000
0000
,
0000
0000
0000
0000
,
1001
0001
1000
1000
,
0100
0000
0010
0000
0001
0100
0000
0100
,
0001
1000
0010
0100
,
1001
0000
0000
0001
1000
0000
0010
0000
,
0110
0000
0000
1010
0000
0000
0000
0102
,
0000
1000
1000
1003
,
0001
0100
1000
0010
,
0001
0100
1000
0010
,
1001
0000
0000
0011
0000
0000
0000
2100
,
0000
0001
0001
3001
,
1000
0100
0001
0010
,
1000
0001
0020
0030
,
0110
0000
0010
0010
,
0001
0000
0001
0001
,
0100
0000
0100
0100
,
0010
0000
0010
0010
,
1000
0000
0100
0010
,
0001
0000
0100
0010
,
1000
0000
0001
1000
,
0010
0010
0100
0010
,
1010
1000
1000
1000
,
0001
0001
0001
0001
,
0010
0010
0010
0010
,
0100
0100
0100
0100
,
0001
0100
0001
0000
1000
0000
0000
0000
,
1000
0100
1000
0000
0001
0000
0000
0000
,
0100
0010
0100
0010
0100
0000
0010
0000
,
1001
0000
0000
0000
,
2000
3100
0020
0032
,
0203
0302
1003
1001
,
2000
0000
3010
0000
0200
0000
0301
1000
,
0002
0023
0230
2300
,
3020
0000
0000
0030
,
2010
0000
3100
1000
0200
0000
0320
0000
,
0031
2000
3002
0023
,
0130
0000
0000
0000
1000
0001
1000
1000
,
0000
0010
0010
0000
0200
0000
0302
0000
,
1003
0100
1000
0000
0010
0000
0100
0000
,
0002
0023
0230
2300
,
3001
1001
1000
1001
,
0001
0010
0010
0010
,
0010
0200
2300
3002
,
0103
0020
0230
0302
,
1003
0000
0000
0000
0010
0100
0010
0000
,
1000
0000
0100
0010
,
0001
0000
0100
0010
,
1000
0000
0000
1000
0001
0000
0010
0000
,
0100
0100
1000
0001
,
0100
0000
0010
1000
,
0001
0000
0010
0001
,
0100
0000
0000
0100
0010
0000
0100
0000
,
1001
0000
0000
0000
,
0001
0001
0001
0001
,
1000
1000
1000
1000
,
0010
0010
0010
0010
,
0100
0100
0100
0100
,
0001
0010
1000
0010
,
0001
0100
1000
0100
,
0001
1000
0001
0000
1000
0001
1000
0000
,
1001
0000
0000
0000
,
0001
0100
0010
1000
,
0001
0001
1000
1000
,
0001
0010
0100
1000
,
0010
0100
0010
0010
,
1000
0100
0010
0001
,
1000
1000
0001
0001
,
1000
0000
0010
0000
0100
0000
0010
0010
,
0000
0000
0000
0000
0000
0000
1000
1000
,
0000
0001
0001
0000
0010
0000
0001
0000
,
0100
1000
0100
0001
,
1000
0100
0010
0001
,
1000
0100
0001
0100
,
1000
0010
0100
0001
,
1000
0010
0001
0010
,
1000
0001
0010
0100
,
1000
0000
0000
0000
,
1000
0010
0100
0100
,
0001
0010
0100
0100
,
1000
0100
1000
0000
0001
0000
0000
0000
,
0001
0100
0001
0000
1000
0000
0000
0000
,
0100
1000
0010
0010
,
0100
0001
0010
0010
,
0001
0010
0001
0000
1000
0000
0000
0000
,
0010
0000
0010
0000
0100
0100
0010
0000
,
1000
1000
1010
1010
,
0001
0001
0011
0011
,
1000
1000
1100
1100
,
0001
0001
0101
0101
,
1000
0010
0001
0010
,
1000
0100
0001
0100
,
1000
0001
1000
0000
0001
1000
0001
0000
,
1001
0000
0000
0010
,
0110
0000
0000
0000
;

//--------------- dance-single - blank ----------------
#NOTEDATA:;
#STEPSTYPE:dance-single;
#DESCRIPTION:blank;
#DIFFICULTY:Medium;
#METER:12;
#RADARVALUES:0,0,0,0,0;
#NOTES:
0000
0000
0000
0000
,
0000
0000
0000
0000
,
0000
0000
0000
0000
,
0000
0000
0000
0000
,
0000
0000
0000
0000
,
1001
0000
0100
0000
1000
0001
0100
0000
,
1000
0000
0100
0001
1000
0100
0000
0010
,
0001
0000
1000
0000
0001
0010
1000
0000
,
0010
0001
0100
0010
1000
0000
1001
0000
,
0001
0000
0001
0010
0000
0010
0000
0200
,
0000
1000
1000
1000
,
0010
0010
0010
0010
,
0001
0001
0001
0301
,
1100
0000
0001
1000
0000
1000
0000
0020
,
0100
0100
0100
0100
,
0001
0001
0001
0001
,
1000
1000
1030
0000
,
1001
0000
1000
0100
,
0001
0000
0000
1000
0010
0000
0001
0000
,
1000
0000
0000
0001
0100
0000
1000
0000
,
0001
0010
1000
0100
,
0010
0000
0010
0001
0010
0000
0100
0000
,
1000
0000
0010
1000
0010
0000
0100
0000
,
0001
0000
1000
0001
1000
0000
0001
0000
,
0100
0010
0100
0010
1000
0001
1000
0000
,
1100
1100
0110
0110
,
0011
0000
0011
0000
1000
0100
0010
0000
,
0101
0101
0110
0110
,
1010
0000
1010
0000
0001
0100
0010
0000
,
1000
0100
1000
0100
0010
0001
0010
0000
,
0001
0100
0001
0100
0010
1000
0010
0000
,
1000
0100
0010
0001
1000
0010
0100
0001
,
1000
0000
0000
0000
,
1100
0000
0000
0000
1000
0000
0000
0000
1000
0100
0000
0000
0001
0100
0000
0000
,
1000
0100
0000
0000
0010
0000
0000
0000
0001
0000
1000
0000
0001
0000
0000
0000
,
0200
1300
0020
0031
,
1000
0100
0001
0100
1000
0010
0001
0010
,
2000
3200
0320
0032
,
1003
0000
0001
0100
1000
0000
1000
0100
,
0010
0000
0010
1000
0100
0000
0100
0010
,
0001
1000
0001
1000
0001
0000
0100
0001
,
0100
0010
1000
0100
0001
0100
1000
0010
,
0100
1000
0001
0010
1000
0100
0010
0000
,
0001
0010
0100
0001
1000
0010
0100
1000
,
0100
0010
0001
1000
0010
0100
0001
0010
,
0200
1000
0001
1300
,
0001
0000
0000
0100
0000
0000
1000
0000
0000
0010
0000
0000
0001
0000
0000
0000
,
1000
0000
0000
0100
0000
0000
0001
0000
0000
0010
0000
0000
1000
0000
0000
0000
,
2002
0000
3003
0000
,
0001
0000
0000
0001
0000
0000
0001
0000
1000
0000
0000
1000
0000
0000
1000
0000
,
0010
0000
0000
0010
0000
0000
0010
0000
0100
0000
0001
0000
0100
0000
0000
0000
,
1000
0000
0100
0001
1000
0100
0010
0000
,
0001
0000
0000
0001
0000
0000
0001
0000
1000
0000
0000
1000
0000
0000
1000
0000
,
0100
0010
0001
1000
0010
1000
0001
0000
,
0001
0010
0001
1000
0010
0100
0001
0000
,
0001
0010
0001
0000
1000
0010
1000
0000
,
2002
0000
0000
3003
,
0101
1100
0101
1100
,
0011
0000
1010
0000
0001
0010
0100
0000
,
1100
0101
1100
0101
,
1010
0000
0011
0000
1000
0100
0010
0000
,
0001
0100
0001
0100
0010
1000
0010
1000
,
0001
0010
0001
0010
0100
1000
0100
1000
,
0001
0001
0010
0010
0100
0100
1000
1000
,
0002
0000
0000
0003
,
1000
0100
0010
1000
0010
0001
1000
0010
,
0200
0000
1300
0100
0010
0100
0001
0010
,
0200
0000
0310
0001
1000
0010
1000
0001
,
0200
0000
0301
0010
0100
1000
0010
1000
,
0200
0000
1300
0001
1000
0010
1000
0001
,
0200
0000
0301
0010
0100
0010
0001
1000
,
0200
0000
1300
0010
0100
0001
0100
1001
,
0000
0000
0000
0000
0000
0000
1010
1001
,
0000
0000
0001
0010
0100
1000
0001
1000
,
0020
0000
1030
0001
1000
0100
1000
0001
,
0020
0000
0031
1000
0100
0010
0001
0100
,
0020
0000
0130
0001
0100
0001
1000
0100
,
0020
0000
0130
1000
0001
1000
0100
1000
,
0020
0000
0130
0001
0010
0100
0001
0100
,
0020
0000
0031
1000
0001
0100
0010
1010
,
0000
0000
0000
0000
,
0001
0010
0001
0010
0100
1000
0100
1000
,
0010
0100
0010
0100
0001
1000
0001
1000
,
0001
0010
0100
1000
0001
0100
1000
0100
,
0001
0010
0100
1000
0010
0100
0001
0000
,
1000
0100
1000
0100
0010
0001
0010
0000
,
0001
0100
0001
0100
0010
1000
0010
0000
,
1000
0010
0100
0000
1000
0100
0001
0000
,
0001
0010
0100
0001
0100
1000
0010
0000
,
0010
1000
0100
1000
0010
1000
0100
1000
,
0010
0100
0001
0100
0010
0100
0001
0100
,
0010
1000
0100
0010
0001
0100
0010
1000
,
0001
0010
0100
1000
0001
0010
0100
0010
,
0001
1000
0001
1000
0001
0100
0001
0000
,
1000
0001
1000
0001
1000
0100
1000
0000
,
0001
0010
0100
1000
0001
0100
0010
1000
,
0002
0000
0013
1000
0001
0100
1000
0000
,
0110
0000
0000
0000
;

//--------------- dance-single - Marten ----------------
#NOTEDATA:;
#STEPSTYPE:dance-single;
#DESCRIPTION:Marten;
#DIFFICULTY:Hard;
#METER:16;
#RADARVALUES:0,0,0,0,0;
#NOTES:
0000
0000
0000
0000
,
0000
0000
0000
0000
,
0000
0000
0000
0000
,
0000
0000
0000
0000
,
0000
0000
0000
0000
,
0001
0000
0100
0000
0010
0000
0000
1000
0100
1000
0100
0000
0010
0000
0001
0000
,
1000
0000
0000
0000
1010
0000
0000
0000
1000
0001
1000
0000
0000
0000
0100
0000
,
1000
0000
0100
0000
0010
0000
0000
0001
0100
0001
0100
0000
0010
0000
1000
0000
,
0001
0010
0010
1000
0010
0001
0010
0000
,
0022
0033
0000
0220
0000
0330
0000
1200
,
0000
0001
1000
0310
,
0100
1000
0010
0001
0010
0100
0001
0010
,
1000
0000
0010
0000
0100
0000
1000
0000
0001
0000
0100
0000
0010
0000
1000
0001
,
0200
0300
0000
0220
0000
0330
0000
0201
,
0000
1000
0001
0310
,
0100
1000
0100
0001
1000
0100
0001
0100
,
1000
0010
0100
0001
0020
0000
0030
0000
,
1001
0000
0002
0023
,
0230
0000
0300
1000
0020
0000
0230
0000
,
0302
0000
0003
0010
0200
0000
2300
0000
,
3002
0000
0003
0100
0020
0000
2030
0000
,
3001
0100
0001
0010
0000
0100
1000
0100
,
0000
0010
0001
0010
0000
0001
0100
0001
,
0000
1000
0010
1000
0000
0001
0100
1000
,
0000
1000
0100
0001
1000
0100
0010
0000
,
0011
0010
0001
0001
,
1000
0000
0000
0000
1000
0000
0000
0000
0010
1000
0000
1000
0010
0000
0100
0000
,
0010
0010
1000
1000
,
0001
0000
0000
0000
0001
0000
0000
0000
0010
0001
0000
0001
0010
0000
0100
0010
,
0001
0000
0010
0000
0001
0000
0010
0000
0100
0000
1000
0000
0100
0000
1000
0010
,
1000
0000
0010
0000
1000
0000
0010
0000
0100
0000
0001
0000
0100
0001
0100
0000
,
0001
1000
0010
1000
0001
1000
0010
0000
1000
0001
0010
0001
1000
0001
0010
0000
,
0110
0000
0000
0000
,
1001
0000
0000
0001
0010
0000
0100
0000
1000
0010
0000
0000
0010
0100
0000
0000
,
0100
0001
0000
0010
0100
0000
0010
0000
0100
0000
1000
0001
1000
0000
0100
0000
,
0020
0000
0000
0000
0031
1000
0001
1000
0200
0000
0000
0000
2300
0000
0010
0000
,
3020
0230
0302
1003
,
0200
2300
3020
0032
2003
3200
0302
2003
,
3001
0000
0000
0010
0100
0000
1000
0001
0020
0000
0000
0000
0230
0000
0000
0000
,
1300
0000
0000
0010
0200
0000
0000
0000
0302
0000
0000
0000
2003
0000
0000
0000
,
3002
0100
0100
0103
0002
0013
0100
0110
,
0000
0000
0010
0000
1001
0000
0001
0000
0010
0001
0000
0000
0001
1000
0000
0000
,
1000
0010
0000
0100
0001
0000
1000
0000
0100
0000
0010
0100
0010
0000
0001
0000
,
2000
0000
0000
3010
0100
0000
0010
1000
0200
0000
0000
0000
2300
0000
3001
0000
,
0020
0000
0000
0000
0031
0000
1000
0010
0200
0000
0301
0000
0010
0000
1000
0000
,
0010
0001
1000
1000
0010
0010
0100
0100
,
0002
0000
0000
1003
0100
0000
0020
0000
0130
1000
0100
0000
0010
0000
0001
0000
,
2000
0000
0000
3001
0100
0000
0020
0000
0130
0001
0100
0000
0010
0000
1000
0000
,
2002
0000
0000
3003
,
0001
0000
1000
0100
0001
0100
1000
0010
,
0100
0000
1000
0100
0001
0010
0000
0100
,
1000
0000
0001
0100
1000
0100
0001
0010
,
0100
0000
0001
0100
1000
0010
0100
0010
,
2000
0000
3100
0010
0012
0000
2003
0000
,
3200
0000
1300
0010
0001
0010
1000
0001
,
0200
0000
0301
1000
2100
0000
3002
0000
,
0203
0000
0000
0310
,
0101
0100
0001
0001
,
1000
0000
0000
0000
1000
0000
0000
0000
0100
1000
0000
1000
0100
0000
0010
0000
,
0100
0100
1000
1000
,
0001
0000
0000
0000
0001
0000
0000
0000
0100
0001
0000
0001
0100
0000
0001
1000
,
0010
0000
1000
0000
0010
0000
1000
0000
0100
0000
1000
0000
0100
0000
0010
0001
,
0010
0000
0001
0000
0010
0000
0001
0000
0100
0000
0001
0000
0100
0001
0100
0000
,
0001
0010
0001
0010
0100
1000
0001
0000
1000
0010
1000
0010
0100
0001
1000
0000
,
1001
0000
0000
0000
,
0001
0000
1000
0000
0100
0000
0010
0001
0010
0000
0100
0000
1000
0000
0020
0000
,
0000
0130
1000
0100
0001
1000
0200
0000
,
1300
0000
0001
0000
0100
0000
0010
1000
0010
0000
0100
0000
0001
0000
0020
0000
,
0000
0000
0130
0000
0001
0000
0100
0000
1000
0000
0001
0000
0100
0000
0010
0100
,
0010
0000
1000
0000
0000
0000
0001
0010
0001
0000
1000
0000
0100
0000
0020
0000
,
0000
1030
0010
0001
1000
0010
0200
0000
,
0301
0000
0010
0000
0100
0000
1000
0010
1000
0000
0001
0000
0100
0000
0110
0000
,
0000
0000
0000
0000
0000
0000
1010
1010
,
0000
0000
0101
0000
0101
0000
0001
0010
0001
0000
0100
0000
1000
0000
0200
0000
,
0000
0310
1000
0100
0001
0100
2000
0000
,
3001
0000
0010
0000
0100
0000
1000
0010
1000
0000
0100
0000
0001
0000
0200
0000
,
0000
0000
0310
0000
0001
0000
0100
0000
1000
0000
0100
0000
0001
0000
1000
0001
,
1000
0000
0100
0000
0000
0000
0010
0100
0010
0000
0001
0000
0100
0000
0020
0000
,
0000
0031
0010
1000
0001
0010
0200
0000
,
1300
0000
0100
0000
0001
0000
0100
0010
0100
0000
1000
0000
0001
0000
1001
0000
,
0000
0000
0000
0000
,
1010
0010
1000
0100
0001
0100
0010
0001
,
0100
1000
0100
0010
1000
0100
0001
1000
,
0010
0001
1000
0010
0001
0010
1000
0100
,
0001
0100
1000
0001
0010
1000
0001
0100
,
1000
0001
0100
1000
0100
0001
0010
1000
,
0010
0001
0100
0010
0001
1000
0100
0010
,
1000
0100
0010
1000
0001
0100
0010
0001
,
1000
0010
0010
0001
0010
1000
1001
0000
,
1010
0010
0100
1000
0100
0010
1000
0100
,
0010
0001
0010
1000
0010
0001
1000
0000
,
0011
0010
0100
0001
0100
0010
0001
0100
,
0010
1000
0010
0001
0010
1000
0001
0000
,
1000
0010
1000
0010
0001
0010
0001
0010
,
1000
0100
1000
0100
0001
0100
0001
0100
,
1000
0100
1000
0100
0010
0001
1000
0000
0001
0100
0001
0100
0010
1000
0001
0000
,
0200
0000
0000
0000
0310
1000
1001
0000
,
0110
0000
0000
0000
;

//--------------- dance-single - blarten ----------------
#NOTEDATA:;
#STEPSTYPE:dance-single;
#DESCRIPTION:blarten;
#DIFFICULTY:Challenge;
#METER:17;
#RADARVALUES:0,0,0,0,0;
#NOTES:
0000
0000
0000
0000
,
0000
0000
0000
0000
,
0000
0000
0000
0000
,
0000
0000
0000
0000
,
0000
0000
0000
0000
,
1000
0000
0001
0000
0010
0000
0000
0100
1000
0100
1000
0000
0010
0000
0100
0000
,
0001
0000
0000
0000
1001
0000
0000
0001
0100
0001
0100
0000
0000
0010
1000
0010
,
1000
0000
0001
0000
0100
0000
0000
0001
0010
0001
0010
0000
0011
0000
0000
0000
,
0001
0010
0100
1000
0010
0100
1001
0000
,
0102
0000
0013
2100
0000
0000
3000
1020
,
0000
0000
0100
0100
0100
0100
0100
0130
,
0010
1000
0100
0010
0001
0100
0010
0001
,
1000
0000
0100
0000
0001
0000
0010
0000
1000
0000
0001
0000
0100
0000
0010
0001
,
2000
0000
0000
0000
3010
0000
0102
0000
0000
0000
0013
0001
0100
0010
0200
0000
,
0000
0000
0010
0010
0010
0010
0010
0310
,
0100
0001
1000
0000
0100
1000
0001
0000
0010
0001
1000
0000
0010
1000
0001
0000
,
1000
0010
0100
0001
0010
0100
1000
0001
0200
0000
0000
0000
0300
0000
0000
0000
,
1001
0000
0002
0203
,
2300
0000
3000
0001
0020
0000
2030
0000
,
3200
0000
0300
1000
0020
0000
0032
0000
,
2003
3200
0320
1030
,
0001
0010
0100
1000
0020
0000
0130
0001
,
2000
0000
3010
0100
0002
0000
0013
0001
,
0200
0000
0310
1000
0020
0000
0130
0001
,
1000
0100
0100
0010
0001
1000
1001
0000
,
1010
0010
0100
0100
,
1000
0000
0000
0000
1000
0000
0000
0000
0100
0001
0000
1000
0001
0000
0010
0001
,
0010
0010
0100
0100
,
0001
0000
0000
0000
0001
0000
0000
0000
0100
1000
0000
0001
1000
0000
0010
1000
,
0010
0000
0010
0000
1000
0000
1000
0000
0001
0000
0001
0000
0010
0000
0010
0001
,
0010
0000
0010
0000
0001
0000
0001
0000
1000
0000
1000
0000
0010
1000
0010
0000
,
0100
0001
0100
0001
1000
0100
1000
0100
0010
0001
1000
0010
0100
0001
0010
0100
,
1000
0000
0000
0000
,
1001
0000
0000
1000
0100
0000
0001
0000
1000
0010
0000
0000
0010
0001
0000
0000
,
0001
1000
0000
1000
0100
0000
0001
0000
0100
0000
0100
0010
0001
0000
1000
0000
,
0020
0000
0000
0130
1000
0000
0100
0000
0002
0000
0000
0013
0100
0000
0010
0000
,
0001
0000
1000
0010
1000
0000
0001
0010
0001
0000
1000
0100
1000
0000
0001
0100
,
0002
2003
3020
0230
0302
2003
3200
0320
,
0031
0000
0000
1000
0010
0000
0001
0010
0200
0000
0301
0000
0020
0000
1030
0000
,
0002
0103
2000
3100
0020
0031
0200
0301
,
2000
0000
0010
0000
0010
0000
3010
0000
1000
0000
0001
0000
0010
0100
0010
0200
,
0000
0000
0310
0000
0011
0000
0001
0000
1000
0010
0100
0000
0010
0100
0001
0000
,
0001
0010
0000
0100
1000
0001
1000
0000
0010
0000
0010
0100
0010
0000
1000
0000
,
0002
0000
0000
0013
1000
0000
0010
0000
0200
0000
0000
0000
2300
0000
0000
0000
,
3010
0000
1000
0001
0010
0000
0100
1000
0010
0000
0100
0000
0010
0000
0010
0000
,
0100
0001
0020
0130
0020
1030
0020
0031
,
0201
0000
0000
0310
1000
0000
0002
0000
0013
0100
1000
0000
0010
0000
0010
0000
,
0200
0000
0000
0301
2000
0000
3100
0000
0001
0100
0010
0000
0200
0000
0310
0000
,
0110
0000
0000
0000
0000
0000
0000
0000
0100
1000
0001
0000
0100
0000
0010
0000
,
2000
0000
0000
0000
3010
0000
1000
0000
0001
0000
0100
0001
0000
0100
0001
0000
,
1000
0000
0010
0100
0000
0010
0100
0000
0001
0000
1000
0000
0100
0000
0010
0000
,
0001
0000
0000
0000
0100
0000
0001
0000
1000
0010
1000
0000
0001
0000
0000
0000
,
0100
0000
0010
0000
1000
0000
0001
0000
0010
0000
0010
0000
0100
0010
0100
0000
,
1000
0000
0000
0000
0001
0000
1000
0000
0010
0100
0010
0000
0001
0000
0010
0000
,
1000
0000
0000
0000
0001
0000
0010
0000
0100
1000
0001
0000
0100
0001
1000
0001
,
0100
0000
0000
0000
0001
0000
0010
0000
0010
0000
0100
0000
1000
0100
0010
0100
,
2000
0000
0000
3001
,
1000
1000
0100
0100
,
0001
0000
0000
0000
0001
0000
0000
0000
1000
0010
0000
0010
0001
0000
0001
0100
,
0001
0001
0100
0100
,
1000
0000
0000
0000
1000
0000
0000
0000
0001
0010
0000
0010
1000
0000
1000
0100
,
1000
0000
1000
0000
0010
0000
0010
0000
0001
0000
0001
0000
0010
0000
0010
1000
,
0001
0000
0001
0000
0010
0000
0010
0000
1000
0000
1000
0000
0010
0001
1000
0000
,
0001
0010
0001
0010
0100
1000
0100
1000
0001
0100
0010
1000
0100
0010
0001
1000
,
0010
0000
0000
0000
0000
0000
0000
0000
0000
0000
0000
0000
0100
0000
0010
1000
,
0002
0000
1000
0000
1003
0000
0001
0100
0001
0000
1000
0000
0010
0000
0100
0000
,
0002
0000
0100
0000
0103
0000
0001
0010
0001
0000
1000
0000
0010
0000
1000
0000
,
0002
0000
1000
0000
1003
0000
0001
1000
0010
0000
0100
0000
0001
0000
0010
0000
,
0002
0000
0010
0000
0013
0000
0001
1000
0100
0000
1000
0000
0010
0000
1000
0000
,
0002
0000
1000
0000
1003
0000
0001
0010
0100
0000
1000
0000
0010
0000
0100
0000
,
0002
0000
0100
0000
0103
0000
0001
0100
0010
0000
1000
0000
0100
0000
0010
0000
,
0002
0000
0010
0000
0013
0000
0001
1000
0001
0000
0100
0000
0110
0000
1001
0000
,
0000
0000
0000
0000
0000
0000
1001
0011
,
0000
0000
1100
0000
1001
0000
0100
0001
1000
0000
0010
0000
0001
0000
0010
0000
,
2000
0000
0100
0000
3100
0000
0010
0001
0100
0000
1000
0000
0100
0000
0001
0000
,
2000
0000
0001
0000
3001
0000
0100
0001
0010
0000
1000
0000
0010
0000
0001
0000
,
2000
0000
0010
0000
3010
0000
1000
0100
0010
0000
0100
0000
0001
0000
0100
0000
,
2000
0000
0001
0000
3001
0000
0100
0001
0010
0000
1000
0000
0001
0000
0100
0000
,
2000
0000
0100
0000
3100
0000
1000
0010
0100
0000
1000
0000
0001
0000
0010
0000
,
2000
0000
0010
0000
3010
0000
0100
0001
0010
0000
1000
0000
0010
0001
0200
0000
,
0000
0010
0310
0001
0010
1000
1001
0000
,
1000
0100
0001
0000
0100
0000
1000
0000
0001
0100
1000
0000
0100
0000
0001
0000
,
0010
0001
0010
0000
0100
1000
0100
0000
1000
0010
1000
0000
0001
0100
0001
0000
,
1000
0010
0100
0000
1000
0000
0100
0000
0001
0010
0100
0000
0001
0000
0100
0000
,
1000
0001
1000
0000
0010
0100
0010
0000
1000
0010
1000
0000
0001
0100
0001
0000
,
0010
0000
0001
0100
1000
0000
0100
0000
0010
0000
0001
0010
1000
0000
0100
0000
,
0010
0000
1000
0010
0001
0000
0010
0000
0100
0000
1000
0100
0001
0000
0100
0000
,
0010
0001
1000
0000
0010
1000
0001
0000
0100
0001
1000
0000
0100
1000
0001
0000
,
1000
0100
0010
0001
0100
0010
0110
0000
,
0010
1000
0100
1000
0001
0000
0100
0000
0010
0001
0010
0100
0001
0000
0010
0000
,
0100
1000
0001
1000
0100
0000
0010
0000
1000
0010
0100
0010
0001
0000
1000
0001
,
0010
0001
0100
0001
1000
0000
0100
0000
0010
1000
0010
0100
1000
0000
0010
0000
,
0100
0001
1000
0001
0100
0000
0010
0000
0001
0010
0100
0010
1000
0000
0010
1000
,
0001
0000
0001
0000
0100
0000
0100
0000
1000
0000
1000
0000
0100
0000
0100
0001
,
1000
0000
1000
0000
0100
0000
0100
0000
0001
0000
0001
0000
0100
0000
0100
1000
,
0001
0010
0100
1000
0010
0100
0001
0010
0100
1000
0010
0100
0001
0010
0100
1000
,
0002
0000
0000
0000
0000
0000
0000
0000
1003
0010
0001
0000
0010
0000
0100
0000
,
1001
0000
0000
0000
;
