#VERSION:0.83;
#TITLE:Fragments;
#SUBTITLE:;
#ARTIST:Toby Green;
#TITLETRANSLIT:;
#SUBTITLETRANSLIT:;
#ARTISTTRANSLIT:;
#GENRE:Electro House;
#ORIGIN:;
#CREDIT:darkanine;
#BANNER:;
#BACKGROUND:;
#PREVIEWVID:;
#JACKET:;
#CDIMAGE:;
#DISCIMAGE:;
#LYRICSPATH:;
#CDTITLE:;
#MUSIC:Fragments.ogg;
#OFFSET:0.000000;
#SAMPLESTART:62.799999;
#SAMPLELENGTH:19.805000;
#SELECTABLE:YES;
#BPMS:0.000=128.000,
40.000=32.000,
48.000=64.000,
72.000=128.000;
#STOPS:119.938=0.469;
#DELAYS:;
#WARPS:;
#TIMESIGNATURES:0.000=4=4;
#TICKCOUNTS:0.000=4;
#COMBOS:0.000=1;
#SPEEDS:0.000=1.000=0.000=0;
#SCROLLS:0.000=1.000,
36.000=0.950,
36.500=0.850,
37.000=0.750,
37.500=0.650,
38.000=0.550,
38.500=0.450,
39.000=0.350,
39.500=0.250,
40.000=1.000;
#FAKES:;
#LABELS:0.000=Song Start;
#BGCHANGES:;
#KEYSOUNDS:;
#ATTACKS:
;

//---------------dance-single - ----------------
#NOTEDATA:;
#CHARTNAME:;
#STEPSTYPE:dance-single;
#DESCRIPTION:;
#CHARTSTYLE:;
#DIFFICULTY:Challenge;
#METER:15;
#RADARVALUES:0.516527,0.703025,0.334451,0.461000,0.501677,400.000000,363.000000,37.000000,51.000000,64.000000,0.000000,0.000000,0.000000,0.000000,0.516527,0.703025,0.334451,0.461000,0.501677,400.000000,363.000000,37.000000,51.000000,64.000000,0.000000,0.000000,0.000000,0.000000;
#CREDIT:;
#NOTES:
0000
0000
0000
0000
,
0000
0000
0000
0000
,
1100
1100
1100
1100
,
1100
0000
0000
0000
1100
0000
0000
0000
1100
0000
0000
1000
0010
0000
0100
0000
,
0101
0101
0101
0101
,
0101
0000
0000
0000
0101
0000
0000
0000
0101
0000
0000
0001
0100
0000
0010
0000
,
1010
1010
0101
0101
0011
0011
1100
1100
,
1001
0101
1001
1100
0110
0101
0110
1100
,
1010
0000
0011
0000
0101
0000
1100
0000
1010
0000
0011
0000
,
0220
0330
0000
0000
,
2000
0000
00M0
3200
00M0
0000
00M0
0000
0302
0000
0M00
0000
0M00
0000
0M00
0000
2003
0000
000M
3020
000M
0000
000M
0000
0032
0000
M000
0000
0203
0000
00M0
0000
,
2300
0000
00M0
3002
00M0
0000
00M0
0000
2003
0000
000M
0000
000M
0000
000M
0000
3200
0000
M000
0320
0M00
0000
0M00
0000
0230
0000
000M
0000
0302
0000
0000
0000
,
2MM3
0000
3010
0200
0010
0000
0010
0000
0302
0000
0100
0000
0100
0000
0100
0000
,
2003
0000
3001
0020
0001
0000
0001
0000
0032
0000
1000
0000
0203
0000
0310
0000
,
2000
0000
3010
0002
0010
0000
0013
0000
2000
0000
0001
0000
0001
0000
0001
0000
,
3200
0000
1300
0020
0100
0000
0100
0000
0230
0000
0001
0000
0301
0000
0000
0000
,
0001
0000
0001
0100
0001
1000
0001
0000
0001
0100
0001
1000
0001
0100
0020
0000
,
1030
0000
1000
0100
1000
0001
1000
0000
1000
0100
1000
0001
1000
0010
0200
0000
,
M3M1
0100
0001
0100
0010
1000
0010
1000
0100
1000
0100
1000
0001
0010
0001
0010
,
0001
1000
0001
1000
0001
1000
0001
1000
0001
1000
0001
1000
0001
1000
0001
1000
,
0020
0100
0001
1000
0100
0001
0100
1030
,
0001
0000
0000
1000
0000
0000
0001
0000
0000
1000
0000
0000
0001
0000
0000
1000
0100
0010
0001
0000
0000
0000
0000
0000
,
MMMM
0000
0000
0000
1000
0000
0010
0100
0000
0010
1000
0000
0001
0000
0010
0000
,
0100
0000
0100
1000
0100
0010
0100
0001
0000
0M01
0010
0000
2000
0000
3000
0000
,
MMMM
0000
0000
0000
0001
0000
0010
0100
0000
0010
0001
0000
1000
0000
0010
0000
,
0100
0000
0100
0001
0100
0010
0100
1000
0000
1M00
0010
0000
0002
0000
0003
0000
,
MMMM
0000
0000
0000
1000
0000
0100
0010
0000
0100
1000
0000
0001
0000
0100
0000
,
0010
0000
0010
1000
0010
0100
0010
0001
0000
00M1
0100
0000
2000
0000
3000
0000
,
MMMM
0000
0000
0000
0001
0000
0010
0100
0000
0010
0001
0000
1000
0000
0010
0000
,
1000
0000
0000
0010
0000
0000
0100
0000
0000
1000
0000
0000
0100
0000
0000
0010
0000
0000
0100
0000
0000
0001
0000
0000
0100
0000
0000
0000
0000
0000
0001
0000
0010
0000
0100
0000
1000
0000
0000
0000
0000
0000
0000
0000
0000
0000
0000
0000
,
0001
0000
1000
0100
0000
M100
0001
0000
0010
0000
1000
0000
0001
0000
0100
0001
,
0100
0010
0100
1000
0000
1000
0010
0000
0002
0000
0003
0000
MMMM
0000
0000
0000
,
1000
0000
0001
0100
0000
010M
1000
0000
0100
0000
0001
0000
1000
0000
0010
1000
,
0010
0100
0010
0001
0000
0001
0100
0000
2000
0000
3000
0000
MMMM
0000
0000
0000
,
0001
0000
1000
0010
0000
M010
0001
0000
1000
0000
0010
0000
0001
0000
0010
0001
,
0010
0100
0010
1000
0000
1000
0001
0000
0020
0000
0030
0000
0002
0000
0100
0000
,
2003
0010
3002
0010
2003
0100
3020
1000
,
0100
0001
0230
0000
0300
0000
MMMM
0000
,
0001
0000
0010
0100
1000
0000
0010
0000
0100
0000
1000
0000
0100
0000
0001
0000
,
1000
0100
0000
0M01
1000
0000
0100
0000
0020
0000
0000
0000
0032
0000
0100
0000
,
1003
0000
0010
0100
0001
0000
0010
0000
1000
0000
0001
0000
0100
0000
0010
0000
,
0001
0100
0000
1M00
0001
0000
0100
0000
2000
0000
0000
0000
3200
0000
0001
0000
,
0310
0000
1000
0001
0010
0000
1000
0000
0001
0000
0100
0000
1000
0000
0010
0000
,
0001
0010
0000
00M1
0100
0000
0010
0000
2000
0000
0000
0000
3200
0000
0001
0000
,
0310
0000
0001
1000
0010
0000
0001
0000
0010
0000
0100
0000
2000
0000
0000
0000
,
0000
0100
3001
M00M
;

//---------------dance-single - ----------------
#NOTEDATA:;
#CHARTNAME:;
#STEPSTYPE:dance-single;
#DESCRIPTION:;
#CHARTSTYLE:;
#DIFFICULTY:Hard;
#METER:13;
#RADARVALUES:0.406765,0.435408,0.063275,0.424843,0.352530,315.000000,308.000000,7.000000,47.000000,57.000000,0.000000,20.000000,0.000000,0.000000,0.406765,0.435408,0.063275,0.424843,0.352530,315.000000,308.000000,7.000000,47.000000,57.000000,0.000000,20.000000,0.000000,0.000000;
#CREDIT:;
#NOTES:
0000
0000
0000
0000
,
0000
0000
0000
0000
,
1000
0000
0000
0000
1000
0000
0000
0010
1000
0000
0001
0000
1000
0000
0100
0000
,
0010
0000
0000
0000
0010
0000
0000
1000
0010
0000
0000
0010
0100
0000
1000
0000
,
0001
0000
0000
0000
0001
0000
0000
0010
0001
0000
1000
0000
0001
0000
0100
0000
,
0010
0000
0000
0000
0010
0000
0000
0001
0010
0000
0000
0010
1000
0000
0001
0000
,
0100
0100
0010
0010
1000
1000
0001
0001
,
0100
0100
1000
1000
0001
0001
0010
0010
,
1010
0000
0101
0000
0011
0000
1100
0000
0110
0000
1001
0000
,
0200
0000
0300
0000
,
2000
0000
0M00
3020
0000
0000
000M
0000
0230
0000
M000
0000
0000
0000
00M0
0000
0302
0000
M000
0023
0000
0000
0M00
0000
2030
0000
000M
0000
3020
0000
M000
0000
,
0230
0000
000M
2300
0000
0000
00M0
0000
3002
0000
0M00
0000
0000
0000
M000
0000
0203
0000
00M0
2300
0000
0000
00M0
0000
3002
0000
0000
0000
0023
0000
0000
0000
,
2M30
0000
0010
3020
1000
0000
0100
0000
0230
0000
0010
0000
0010
0000
0001
0000
,
0302
0000
0010
0023
0001
0000
1000
0000
2030
0000
0010
0000
3020
0000
0100
0000
,
0230
0000
1000
2300
0100
0000
0001
0000
3002
0000
1000
0000
1000
0000
0100
0000
,
0203
0000
1000
2300
0100
0000
0100
0000
3200
0000
0010
0000
0310
0000
0000
0000
,
0001
0000
0001
0000
0001
0100
4000
0000
3100
0000
0100
0000
1000
0001
0040
0000
,
0130
0000
0100
0000
0100
0001
0040
0000
0130
0000
0100
0000
0001
0100
4000
0000
,
30M4
0403
0340
4030
,
3400
0304
4003
3040
,
0004
0000
0000
0000
,
0033
0000
0000
0000
,
2000
0000
0000
0000
3100
0000
0100
0001
0000
0001
0100
0000
1000
0000
0001
0000
,
0100
0000
0100
0010
0100
0000
0001
1000
0000
1000
0100
0000
0040
0000
0000
0000
,
0032
0000
0000
0000
0103
0000
0100
1000
0000
1000
0100
0000
0010
0000
1000
0000
,
0001
0000
0001
1000
0001
0000
0010
0100
0000
0100
1000
0000
0040
0000
0000
0000
,
0230
0000
0000
0000
1300
0000
1000
0100
0000
0100
0001
0000
1000
0000
0010
0000
,
0100
0000
0100
1000
0100
0000
0001
0010
0000
0010
0100
0000
4000
0000
0000
0000
,
3020
0000
0000
0000
0130
0000
0100
0001
0000
0001
1000
0000
0100
0000
0010
0000
,
0002
0023
2030
3200
0302
0000
1003
0000
,
0001
0000
0010
0100
0000
0001
0100
0000
1000
0000
0010
0000
0100
0000
0100
0001
,
1000
0000
0100
1000
0000
0001
0100
0000
4000
0000
0000
0000
3200
0000
0000
0000
,
0310
0000
1000
0100
0000
0010
0100
0000
1000
0000
0001
0000
0100
0000
0100
1000
,
0100
0000
0001
1000
0000
0100
0010
0000
4000
0000
0000
0000
3020
0000
0000
0000
,
0031
0000
0100
0010
0000
0001
0010
0000
1000
0000
0001
0000
1000
0000
1000
0010
,
1000
0000
0010
0100
0000
0001
0100
0000
4000
0000
0000
0000
3100
0000
0100
0000
,
0010
0010
1000
1000
0001
0001
0010
0100
,
1000
0001
0200
0000
0300
0000
2002
0000
,
3003
0000
000M
1000
010M
0000
001M
0000
010M
0000
100M
0000
001M
0000
010M
0000
,
100M
0100
000M
0100
000M
0000
010M
0000
001M
0000
000M
0000
2000
0000
0000
0000
,
3001
0000
0M00
0001
0M10
0000
1M00
0000
0M10
0000
1M00
0000
0M10
0000
0M01
0000
,
1M00
0001
0M00
0001
0M00
0000
0M01
0000
0010
0000
0000
0000
0200
0000
0000
0000
,
1300
0000
00M0
1000
00M1
0000
01M0
0000
10M0
0000
01M0
0000
00M1
0000
10M0
0000
,
01M0
1000
00M0
1000
00M0
0000
10M0
0000
0001
0000
0000
0000
0200
0000
0000
0000
,
0301
0000
M000
0001
M010
0000
M100
0000
M010
0000
M001
0000
0400
0000
0000
0000
,
0000
0000
2300
0000
0002
3000
M000
0003
;

//---------------dance-single - ----------------
#NOTEDATA:;
#CHARTNAME:;
#STEPSTYPE:dance-single;
#DESCRIPTION:;
#CHARTSTYLE:;
#DIFFICULTY:Medium;
#METER:9;
#RADARVALUES:0.365443,0.434222,0.018078,0.388687,0.144628,283.000000,281.000000,2.000000,43.000000,3.000000,0.000000,0.000000,0.000000,0.000000,0.365443,0.434222,0.018078,0.388687,0.144628,283.000000,281.000000,2.000000,43.000000,3.000000,0.000000,0.000000,0.000000,0.000000;
#CREDIT:;
#NOTES:
// measure 0
0000
0000
0000
0000
,  // measure 1
0000
0000
0000
0000
,  // measure 2
0001
0000
0001
0000
0001
0000
0001
0010
,  // measure 3
0100
0000
0000
0000
0100
0000
0000
0000
0100
0000
0000
0100
0010
0000
0001
0000
,  // measure 4
1000
0000
1000
0000
1000
0000
1000
0010
,  // measure 5
0100
0000
0000
0000
0100
0000
0000
0000
0100
0000
0000
0100
0001
0000
1000
0000
,  // measure 6
0010
0010
1000
1000
0001
0001
0100
0100
,  // measure 7
0001
0001
0010
0010
0100
0100
1000
1000
,  // measure 8
0001
0000
0010
0000
1000
0000
0010
0000
0001
0000
0100
0000
,  // measure 9
0020
0000
0030
0000
,  // measure 10
0002
0000
0000
0203
0000
0000
0000
0000
0320
0000
0000
0000
0000
0000
0000
0000
2030
0000
0000
3200
0000
0000
0000
0000
0302
0000
0000
0000
0203
0000
0000
0000
,  // measure 11
0320
0000
0000
0032
0000
0000
0000
0000
2003
0000
0000
0000
0000
0000
0000
0000
3020
0000
0000
0032
0000
0000
0000
0000
2003
0000
0000
0000
3200
0000
0000
0000
,  // measure 12
M301
0000
0001
0200
0001
0000
0010
0000
0320
0000
0100
0000
0100
0000
0100
0000
,  // measure 13
1030
0000
1000
0200
1000
0000
0010
0000
0320
0000
0100
0000
0230
0000
1000
0000
,  // measure 14
2300
0000
3001
0010
0002
0000
1000
0000
2003
0000
0001
0000
0001
0000
0010
0000
,  // measure 15
3020
0000
1030
0002
0010
0000
0010
0000
0023
0000
0100
0000
0130
0000
0000
0000
,  // measure 16
1000
0000
1000
0000
1000
0010
0001
0000
0010
0000
0010
0000
1000
0001
0100
0000
,  // measure 17
0010
0000
0010
0000
0010
1000
0100
0000
0010
0000
0010
0000
1000
0010
0001
0000
,  // measure 18
1M00
1000
0010
0010
0100
0100
0001
0001
,  // measure 19
0010
0010
0100
0100
1000
1000
0100
0100
,  // measure 20
0010
0100
0010
0100
0010
0100
0010
0100
,  // measure 21
0000
0000
0000
0000
,  // measure 22
1001
0000
0001
0010
1000
0010
0001
0000
,  // measure 23
1000
0010
0100
0010
1000
0001
0020
0000
,  // measure 24
1030
0000
0010
0001
0100
0001
0010
0000
,  // measure 25
1000
0001
1000
0100
0010
0100
0002
0000
,  // measure 26
0103
0000
1000
0010
0001
0010
1000
0000
,  // measure 27
0001
0010
0100
1000
0100
0010
0002
0000
,  // measure 28
0103
0000
0010
0010
1000
1000
0001
0000
,  // measure 29
1000
0100
0001
0010
0200
0000
0301
0000
,  // measure 30
1000
0000
0000
0010
0000
0000
0010
0000
1000
0000
0100
0000
0010
0000
0010
0000
,  // measure 31
0001
0000
0000
0001
0000
0000
1000
0000
0020
0000
0000
0000
0130
0000
0000
0000
,  // measure 32
0100
0000
0000
0010
0000
0000
0010
0000
1000
0000
0001
0000
0010
0000
0000
0000
,  // measure 33
0001
0000
0000
1000
0000
0000
1000
0000
0002
0000
0000
0000
0103
0000
0000
0000
,  // measure 34
1000
0000
0000
0010
0000
0000
1000
0000
0001
0000
0010
0000
0100
0000
0100
0000
,  // measure 35
0000
0100
0000
0100
0000
0000
0010
0000
0002
0000
0000
0000
0013
0000
0010
0000
,  // measure 36
0100
0100
1000
1000
0001
0001
0100
0010
,  // measure 37
1000
0001
0020
0000
0030
0000
2002
0000
,  // measure 38
3003
0000
0000
0001
0010
0000
0100
0000
0010
0000
0000
0000
0100
0000
0010
0000
,  // measure 39
0001
0000
0000
0010
0000
0000
0010
0000
0100
0000
0000
0000
0002
0000
0000
0000
,  // measure 40
1003
0000
0000
1000
0100
0000
0001
0000
0100
0000
0000
0000
0100
0000
1000
0000
,  // measure 41
0001
0000
0000
1000
0000
0000
1000
0000
0100
0000
0000
0000
0020
0000
0000
0000
,  // measure 42
0031
0000
0000
0001
1000
0000
0010
0000
0001
0000
0000
0000
0010
0000
1000
0000
,  // measure 43
0010
0000
0000
1000
0000
0000
1000
0000
0001
0000
0000
0000
0020
0000
0000
0000
,  // measure 44
0130
0000
0000
0100
0000
0000
1000
0000
0010
0000
1000
0000
0002
0000
0000
0000
,  // measure 45
0203
0000
0000
0000
2300
0000
0000
0000
3020
0000
0000
0030
00M0
0000
0000
0000
;
