#TITLE:Foundation of You (DJ Command mix);
#SUBTITLE:;
#ARTIST:水橋舞;
#TITLETRANSLIT:;
#SUBTITLETRANSLIT:;
#ARTISTTRANSLIT:Mai Mizuhashi;
#GENRE:TRANCE EURO REMIX;
#CREDIT:;
#MUSIC:Foundation of You (DJ Command mix).ogg;
#BANNER:Foundation of You (DJ Command mix).png;
#BACKGROUND:Foundation of You (DJ Command mix)-bg.png;
#CDTITLE:;
#SAMPLESTART:87.323;
#SAMPLELENGTH:15.000;
#SELECTABLE:YES;
#OFFSET:1.484;
#BPMS:0.000=154.000;
#STOPS:32.000=1.169;
#BGCHANGES:;
#FGCHANGES:;

//--------------- dance-single - forcednature ----------------
#NOTES:
     dance-single:
     forcednature:
     Beginner:
     3:
     0,0,0,0,0:
0000
0000
0000
0000
,
0000
0000
0000
0000
,
0000
0000
0000
0000
,
0000
0000
0000
0000
,
0000
0000
0000
0000
,
1000
0000
1000
0000
,
0001
0000
0001
0000
,
0100
0100
0100
0000
,
1001
1000
1000
1000
,
0000
0001
0000
0100
,
0000
0001
0001
0001
,
0000
1000
0000
0100
,
0000
1001
0000
0010
,
0000
0100
0000
0010
,
0000
0001
0001
0001
,
0000
1000
1000
1000
,
0000
1001
0000
0010
,
0000
0100
0100
0100
,
0000
0001
0000
1000
,
0000
0100
0100
0100
,
0000
1001
0000
0010
,
0000
1000
1000
1000
,
0000
0001
0001
0001
,
0000
0010
0010
0010
,
0000
1001
0000
0001
,
0000
0100
0000
0000
,
0000
0010
0000
1000
,
0000
0001
0000
0000
,
0000
1000
0000
0000
,
0000
0100
0000
0000
,
0000
0010
0000
0000
,
0000
0001
0000
0000
,
0000
0110
0000
0000
,
0000
0001
0000
1000
,
0000
0001
0000
0000
,
0000
0100
0000
0010
,
0000
0100
0000
0000
,
0000
1001
0000
0000
,
0000
0010
0000
0010
,
0000
0100
0100
0100
,
0100
0100
0000
0000
,
0000
0001
0000
0000
,
0000
1000
0000
0000
,
0000
0010
0000
0000
,
0000
1000
0000
0000
,
0000
0100
0000
0000
,
0000
0010
0000
0000
,
0000
0001
0000
0000
,
0000
0100
0000
0000
,
0000
0010
0000
0000
,
0000
1000
0000
0000
,
0000
0001
0000
0001
,
0000
1001
0000
0000
,
0000
0100
0000
0000
,
0000
0010
0000
0010
,
0000
0010
0010
0010
,
0000
1000
0000
1000
,
0000
0001
0000
0001
,
0000
0010
0000
0000
,
0000
0100
0100
0100
,
0000
1000
0000
1000
,
0000
0001
0000
0001
,
0000
0100
0000
0000
,
0000
0010
0010
0010
,
0000
0100
0000
0100
,
0000
0010
0000
0010
,
0000
1000
0000
0000
,
0000
0001
0001
0001
,
0000
0100
0000
0100
,
0000
0010
0000
0010
,
0000
0001
0000
0000
,
0000
1000
1000
1000
,
1000
1001
0000
0000
;

//--------------- dance-single - forcednature ----------------
#NOTES:
     dance-single:
     forcednature:
     Easy:
     6:
     0,0,0,0,0:
0000
0000
0000
0000
,
0000
0000
0000
0000
,
0000
0000
0000
0000
,
0000
0000
0000
0000
,
0000
0000
0000
0000
,
1001
0001
0100
1000
,
1001
1000
0100
0001
,
0020
0100
0100
0100
,
0030
0101
0001
1000
,
0000
0100
1000
0010
,
0000
1100
1000
0001
,
0000
0010
0100
1000
,
0000
1001
0000
0001
,
0100
0010
1000
0001
,
0010
0000
0100
0100
0100
0000
0010
0000
,
0000
0000
0000
0000
1001
0000
0000
0000
0000
0000
0000
0000
0010
0000
0000
0010
,
0000
0010
1000
0000
0001
0000
0100
0000
,
0000
0001
0010
0100
,
1000
0101
1000
0010
,
0000
1000
0100
0010
,
0001
1001
0001
0100
,
0010
1000
0100
0010
,
0000
0000
0001
0001
0001
0000
1000
0000
,
0010
0000
0000
0000
1001
0000
0000
0000
0000
0000
0000
0000
0100
0000
0000
0100
,
0000
0100
0100
0000
0010
0000
0001
0000
,
0010
0100
0000
1000
,
0010
0100
0001
0100
,
0010
1000
0000
0001
,
0010
1001
0000
0100
,
1000
0010
0000
1000
,
0001
0100
0000
0010
,
1000
0000
0000
0000
1001
0000
0000
0000
0000
0000
0000
0000
0001
0000
0000
0001
,
0000
0001
0001
0000
0010
0000
0100
0000
,
1000
0010
0000
0100
,
0001
1000
0100
0010
,
0001
1000
0000
0010
,
1000
1001
0000
0001
,
0010
0100
0000
0010
,
0001
0100
0100
0010
,
0010
1000
0001
0100
,
0000
1001
0000
0020
,
0000
0000
0030
0000
,
0000
0100
0000
2002
,
0000
0000
0000
0000
,
3003
2000
0000
3000
,
0000
0200
0000
0300
,
0000
0002
0000
0003
,
0000
0020
0000
0030
,
0000
1001
0000
0000
,
0000
0010
0010
0000
0000
0000
0000
0000
,
0000
0100
0100
0000
0000
0000
0000
0000
,
0000
1000
1000
0000
0000
0000
0001
0000
,
0001
1001
0001
0100
,
1000
0010
1000
0100
,
0001
0010
0010
0100
,
0100
0000
0010
0010
0010
0000
1001
0000
,
0000
1100
1000
0001
,
0010
0001
1000
0010
,
0100
0001
0001
0001
,
0001
1000
0100
0010
,
0001
1001
0001
1000
,
0010
0100
0001
1000
,
0100
1000
1000
1000
,
1000
0010
0100
0001
,
1000
1001
1000
0010
,
0100
0001
0010
0100
,
1000
0001
0100
0010
,
1000
0100
0010
0001
,
1000
1001
1000
0010
,
0100
0001
0010
0100
,
1000
0001
0001
0001
,
0001
0000
1001
0000
0010
0000
0100
0100
,
0100
2002
0000
0000
,
0000
0000
0000
0000
,
0000
3003
0000
0000
;

//--------------- dance-single - forcednature ----------------
#NOTES:
     dance-single:
     forcednature:
     Medium:
     9:
     0,0,0,0,0:
0000
0000
0000
0000
,
0000
0000
0000
0000
,
0000
0000
0000
0000
,
0000
0000
0000
0000
,
0000
0000
0000
0000
,
1000
0100
1000
0000
0001
0100
0010
0000
,
1000
0001
0010
0000
0100
1000
0001
0100
,
0020
0100
0100
0130
,
1001
1100
0011
0001
,
1000
0000
0000
0000
0001
0000
0000
0100
0000
0000
0001
0000
1000
0000
0000
0000
,
0010
1001
0110
1000
,
0100
0000
0000
0000
0010
0000
0000
0001
0000
0000
0010
0000
0100
0000
0000
0000
,
1000
0000
0000
0000
0001
0000
0100
0000
0000
0001
0000
0000
0100
0000
0000
0000
,
0010
0000
1000
0100
1000
0000
0001
0100
,
0001
0000
0010
0010
0100
0000
1000
0000
,
0001
0000
0000
0000
0110
0000
0000
0000
1000
0000
0000
0000
0001
0000
0000
0100
,
0000
0001
1000
0000
0110
0000
0001
0000
,
1000
0000
0000
0000
0100
0000
0000
0010
0000
0000
0100
0000
0010
0000
0000
0000
,
0001
1001
1000
0010
,
0100
0000
0000
0000
0001
0000
0000
1000
0000
0000
0001
0000
1000
0000
0000
0000
,
0100
0000
0110
0000
0001
0000
1000
0010
,
0100
0000
0001
0100
0010
0000
1000
0001
,
1000
0000
0100
0100
0100
0000
0010
0000
,
0001
0000
0000
0000
1001
0000
0000
0000
0010
0000
0000
0000
1000
0000
0000
0001
,
0000
1000
0001
0000
0100
0000
0010
0000
,
1000
2002
0000
3003
,
0000
0001
1000
0010
,
0100
2002
0000
3003
,
0000
1001
0100
0010
,
1000
0001
0010
0100
,
1000
0001
0100
0010
,
1000
0000
0000
0000
1001
0000
0000
0000
0100
0000
0000
0000
0010
0000
0000
0010
,
0000
0010
0010
0000
1000
0000
0001
0000
,
0010
0220
0000
0330
,
0000
0100
1000
0001
,
0100
2002
0000
3003
,
1000
0000
1001
0000
0001
0100
0001
0000
,
1000
0000
0010
0000
0100
0000
0001
0010
,
0001
0000
0100
0010
0100
0000
0001
1000
,
0001
0000
0000
0000
0010
0000
0100
0000
0010
0000
0000
0000
0100
0000
0000
0100
,
0000
0100
0200
0000
0000
0000
0300
0000
,
0000
2000
0000
3000
,
0000
0002
0000
0003
,
0000
0200
0000
0300
,
0000
0020
0000
0030
,
0000
2000
0000
3000
,
0000
0002
0000
0003
,
0000
0020
0000
0030
,
0000
1001
0001
0001
,
0000
1000
0001
0000
0100
0000
0100
0000
,
0000
0010
0010
0000
1000
0000
0001
0000
,
0000
0010
0100
0000
0000
0000
0001
1000
,
0001
1000
0010
0000
0010
0000
0100
0000
,
0100
1000
0001
0100
,
0010
0000
1000
0100
1000
0000
0001
0100
,
0001
0000
0100
0100
0100
0000
1001
0000
,
0000
0000
0000
0000
1000
0000
0000
0001
0000
0000
1000
0000
0001
0000
0000
0000
,
0100
0000
0000
0000
0010
0000
0000
1000
0000
0000
0010
0000
1000
0000
0000
0000
,
0001
0000
0000
0000
0010
0000
0000
0100
0000
0000
0010
0000
0000
0100
0000
0000
,
0010
0002
2003
3020
,
0230
0000
0000
0000
0301
0000
0000
1000
0000
0000
0001
0000
1000
0000
0000
0000
,
0100
0000
0000
0000
0010
0000
0000
0001
0000
0000
0010
0000
0001
0000
0000
0000
,
1000
0000
0000
0000
0010
0000
0000
0100
0000
0000
0010
0000
0000
0100
0000
0000
,
0010
2000
3002
0023
,
0230
0000
0000
0000
1300
0000
0000
0010
0000
0000
1000
0000
0010
0000
0000
0000
,
0100
0000
0000
0000
0001
0000
0000
0010
0000
0000
0001
0000
0010
0000
0000
0000
,
0100
0000
0000
0000
1000
0000
0000
0001
0000
0000
0100
0000
0000
0010
0000
0000
,
1000
0200
0320
0032
,
2003
0000
0000
0000
3010
0000
0000
0100
0000
0000
0010
0000
0100
0000
0000
0000
,
0001
0000
0000
0000
1000
0000
0000
0100
0000
0000
1000
0000
0100
0000
0000
0000
,
0010
0000
0000
0000
0001
0000
0000
1000
0000
0000
0100
0000
0000
0010
0000
0000
,
0001
0000
1001
0000
0100
0010
0100
0010
,
0100
1001
0000
0000
;

//--------------- dance-single - forcednature ----------------
#NOTES:
     dance-single:
     forcednature:
     Hard:
     12:
     0,0,0,0,0:
0000
0000
0000
0000
,
0000
0000
0000
0000
,
0000
0000
0000
0000
,
0000
0000
0000
0000
,
0000
0000
0000
0000
,
1000
0100
1000
0100
0010
0001
0010
0000
,
0001
0100
0001
0100
0010
1000
0010
0000
,
1000
0001
1000
0001
0010
0100
0010
0000
,
1001
0000
0101
0000
1100
0000
0010
1000
,
0001
0000
0000
0000
1000
0000
0000
0100
0000
0000
1000
0000
0001
0000
0100
0000
,
0010
0000
1010
0000
0011
0000
1000
0001
,
0100
0000
0000
0000
0001
0000
0000
0010
0000
0000
0100
0000
1000
0000
0001
0000
,
1000
0000
0000
0000
0010
0000
0100
0000
0000
0001
0000
0000
0100
0000
0000
0010
,
0000
1000
0001
0010
0001
0000
1000
0010
,
1000
0000
0100
0100
0100
0000
1000
0001
,
0100
0000
0000
0000
0110
0000
0000
0000
0001
0000
0000
0000
1000
0001
0000
1000
,
0001
0100
0010
0000
1010
0000
0001
0010
,
0000
0000
0100
0000
1000
0000
0000
0001
0000
0000
0100
0000
0001
0000
1000
0000
,
0000
0010
1000
0000
0011
0000
1000
0100
,
0000
0000
1000
0000
0001
0000
0000
0100
0000
0000
0010
0000
1000
0000
0001
0000
,
0010
0000
0000
0000
0100
0000
1000
0000
0000
0001
0000
0000
0100
0000
0001
0000
,
1000
0010
1000
0100
0001
0100
1000
0001
,
0100
0000
0010
0000
1000
0001
1000
0000
0100
0000
0000
0000
0010
0000
0001
0000
,
0100
0000
0000
0000
0110
0000
0000
0000
0001
0000
0100
0000
0001
1000
0000
0001
,
1000
0010
0100
0000
0001
0100
0010
0100
,
0001
1000
0010
1000
0001
1000
0100
0010
,
0001
0100
0010
0000
1000
0001
0010
0001
,
0100
0000
0010
0000
1000
0000
0100
0000
1000
0000
0010
0000
0100
0000
0000
0100
,
0000
0100
1001
0000
0010
0000
1000
0001
,
0010
0100
1000
0000
0001
0000
0100
0001
,
1000
0010
1000
0000
0100
0000
0010
0001
,
0010
0000
1000
0000
0010
0000
0100
0000
1000
0000
0010
0000
1000
0001
0000
1000
,
0001
0100
0010
0000
1000
0001
0100
0010
,
1000
0001
0010
0100
1000
0001
1000
0010
,
0100
0001
0010
0000
0100
1000
0001
0100
,
0001
1000
0100
1000
0001
0100
0001
1000
,
0010
0000
1001
0000
1000
0010
1000
0001
,
0010
0100
1000
0000
0001
0100
0000
1000
,
0100
0010
1000
0001
1000
0001
0100
1000
,
0100
0000
1000
0000
0100
0000
0001
0000
0100
0000
0001
0000
1000
0001
0000
1000
,
0001
0010
0200
0000
0000
0000
0000
0000
,
0300
2000
0000
0000
,
3000
0002
0000
0000
,
0003
0200
0000
0000
,
0300
0020
0000
0000
,
0030
2000
0000
0000
,
3000
0002
0000
0000
,
0003
0020
0000
0000
,
0030
0000
1001
0000
0000
0001
0000
0001
,
0000
0001
0100
1000
0000
1000
0000
1000
,
0000
1000
0100
0001
0000
0001
0000
0001
,
0000
0001
0010
1000
0000
1000
0010
0001
,
1000
0001
1000
0001
1000
0000
0010
0000
0100
0000
0010
0000
1000
0000
0010
0000
,
0100
0010
1000
0001
0010
0100
0010
0001
,
0010
0100
0010
0001
1000
0010
1000
0001
,
0100
0000
0001
0000
1000
0000
0001
0000
1000
0001
1000
0001
1000
0000
0000
0000
,
0000
0000
0000
0000
1000
0001
0000
0100
0000
0000
0010
0000
1000
0000
0001
0000
,
1000
0000
0100
0000
0010
0000
0000
0100
0000
0000
1000
0000
0001
0000
0100
0000
,
0010
0000
1000
0000
0001
1000
0000
0100
1000
0000
0001
1000
0000
0001
0100
0000
,
0001
1000
0000
0000
0100
0000
1000
0000
0001
0000
0100
0000
0010
0000
1000
0000
,
0001
0000
0010
0000
0100
1000
0000
0100
0000
0000
0010
0000
0001
0000
1000
0000
,
0010
0000
0100
0000
0001
0000
0000
1000
0000
0000
0100
0000
1000
0000
0010
0000
,
0100
0000
0001
0000
0010
0001
0000
1000
0010
0000
1000
0100
0000
0010
0001
0000
,
1000
0001
0000
0000
0100
0000
0001
0000
0100
0000
0010
0000
1000
0000
0010
0000
,
1000
0000
0001
0000
1000
0100
0000
1000
0000
0000
0010
0000
0100
0000
0001
0000
,
0010
0000
0100
0000
0010
0000
0000
0001
0000
0000
1000
0000
0001
0000
0100
0000
,
0001
0000
1000
0000
0001
0010
0000
0100
0010
0000
0100
1000
0000
0001
1000
0000
,
0010
1000
0000
0000
0001
0000
0100
0000
0001
0000
0010
0000
0100
0000
1000
0000
,
0001
0000
0100
0000
0010
1000
0000
0001
0000
0000
1000
0000
0100
0000
1000
0000
,
0010
0000
0100
0000
0001
0000
0000
0010
0000
0000
0100
0000
0010
0000
0001
0000
,
0100
0000
0010
0000
1000
0001
0000
1000
0100
0000
1000
0001
0000
0100
0001
0000
,
1000
0001
0000
0000
1000
0000
0100
0000
0010
0000
0001
0000
1000
0001
1000
0000
,
0001
1000
0001
0000
0100
0000
0000
0000
0000
0000
0000
0000
0000
0000
0000
0000
;

//--------------- dance-single - forcednature ----------------
#NOTES:
     dance-single:
     forcednature:
     Challenge:
     15:
     0,0,0,0,0:
0000
0000
0000
0000
,
0000
0000
0000
0000
,
0000
0000
0000
0000
,
0000
0000
0000
0000
,
0000
0000
0000
0000
,
0001
0100
0010
0000
0100
0000
0010
0000
1000
0100
0010
0000
0001
0000
0000
0000
,
1000
0010
0100
0000
0010
0000
0100
0000
0001
0000
0001
0000
1000
0100
1000
0100
,
0010
0001
0010
0000
0100
1000
0100
0000
1000
0010
1000
0010
0100
0001
0100
0001
,
0000
0000
0000
0000
1000
0000
0000
1000
0001
0000
0000
0001
0010
0000
0020
0000
,
0000
0000
0031
0000
0100
0001
0000
0010
0000
0000
0100
1000
0100
0000
2000
0000
,
0000
0000
3001
1000
0001
0000
0000
0001
0100
0000
0000
0010
1000
0000
2000
0000
,
0000
0000
3010
0000
0100
0001
0000
1000
0000
0000
0100
0010
0100
0000
1000
0000
,
0001
0100
0001
0100
0001
0000
0010
0000
0100
1000
0000
0001
0100
0000
0001
1000
,
0001
0000
0100
0000
0010
1000
0010
0000
0100
0001
0100
0000
0010
0000
1000
0000
,
0001
0000
0010
0000
0100
1000
0100
1000
0200
0000
0000
0000
0310
0000
0002
0000
,
0000
0000
0103
0000
0001
1000
0001
0000
1000
0010
1000
0000
0001
0010
0000
0100
,
1000
0000
0001
1000
0001
0000
0000
0001
1000
0000
0000
1000
0010
0000
0020
0000
,
0000
0000
0130
0000
0001
0010
0000
0100
0000
0000
1000
0001
1000
0000
0020
0000
,
0000
0000
0130
0010
0100
0000
0000
0100
0001
0000
0000
0001
0010
0000
0020
0000
,
0000
0000
0130
0000
1000
0001
0000
1000
0000
0000
0010
0100
0010
0000
1000
0000
,
0001
1000
0001
1000
0001
0000
0010
0000
0100
0001
0000
1000
0100
0000
0010
0001
,
0010
0000
0100
0000
1000
0010
1000
0000
0001
0100
0001
0000
0010
0000
0100
0000
,
1000
0000
0001
0000
0100
0010
0100
0010
0200
0000
0000
0000
0310
0000
2000
0000
,
0000
0000
3001
0000
0010
0001
0010
0000
0001
1000
0001
0000
1000
0010
0000
0100
,
0001
0000
1000
0001
1000
0000
0100
0000
1000
0000
0010
0000
0100
0000
0001
0000
,
0010
0200
0000
0000
0301
0000
0100
1000
,
0010
0100
0001
0100
1000
0100
0010
1000
,
0001
0000
0020
0000
0000
0000
0000
0000
0130
0000
0000
0000
0010
0000
0000
0001
,
0000
0000
1000
0001
1000
0000
0000
0000
0001
0000
0100
0000
0010
0000
0001
0000
,
0010
1000
0020
0000
0100
0000
0031
0010
,
0100
0001
2000
0000
0100
0000
0010
0000
,
3001
0000
0000
0000
0001
1000
0001
0000
0010
0000
0100
0000
1000
0001
0000
0100
,
0001
0000
1000
0010
1000
0000
0100
0000
0001
0000
0100
0000
1000
0000
0001
0000
,
1000
0020
0000
0000
0031
0000
0010
0100
,
0001
1000
0100
0001
0100
1000
0010
0100
,
0001
0000
1000
0000
0020
0000
0000
0000
0130
0000
0000
0000
0010
0000
0000
1000
,
0000
0000
0001
0100
0001
0000
0000
0000
1000
0000
0100
0000
1000
0000
0010
0000
,
0100
0001
0020
0000
0000
1000
0030
0010
,
0001
0000
0100
0000
0001
1000
0001
0000
1000
0000
0010
0000
0100
0001
0100
0000
,
0010
0000
1000
0000
0001
0010
0001
0010
0100
1000
0100
1000
0010
1000
0000
0001
,
0100
0000
0001
1000
0001
0000
0010
0000
0100
0000
1000
0000
0020
0000
0000
0000
,
0000
0000
0000
0000
0000
0000
0000
0000
0030
0000
0000
0000
0100
0000
0000
0001
,
0000
1000
0100
0000
0010
0002
0000
0000
,
0000
0000
0000
0000
,
0003
0200
0000
0000
,
0300
0020
0000
0000
,
0030
2000
0000
0000
,
3000
0000
0000
0000
0002
0000
0000
0000
0003
0000
1000
0000
0001
1000
0001
1000
,
0001
1000
0001
1000
0001
0000
0100
0000
0010
0000
1000
0000
0002
0000
0000
0000
,
0000
0000
1000
0000
1000
0000
0000
0000
0003
0000
0000
0000
1000
0000
0000
0100
,
0000
0010
0002
0000
0000
0000
0203
0000
,
0000
0010
0320
0000
0000
0000
1030
1000
,
0001
1000
0001
1000
0001
0000
0000
0000
1000
0000
0100
0000
0001
0000
0100
0000
,
0010
0100
1000
0000
0001
0100
1000
0100
,
0010
0000
0100
0000
0001
1000
0001
0000
0100
0000
0010
0000
1000
0001
1000
0000
,
0100
0000
0010
0000
0100
0000
0100
0000
1000
0001
1000
0001
2000
0000
0000
0000
,
3000
0000
0000
0000
0001
0100
0001
1000
0000
0001
1000
0010
1000
0001
1000
0000
,
0010
0100
0010
0000
1000
0100
1000
0001
0000
1000
0001
0010
0001
1000
0001
0000
,
0010
0100
0010
0000
0001
0100
0000
0100
0010
0000
0010
1000
0000
1000
0001
0000
,
0001
0010
0000
0010
0100
1000
0100
0000
0010
0001
0010
0000
0001
1000
0001
0000
,
0100
0010
0100
0000
0001
0010
0100
1000
0000
0001
0100
0010
1000
0001
0100
0000
,
0001
1000
0100
0000
1000
0010
0100
0001
0000
1000
0100
0010
0001
1000
0010
0000
,
1000
0001
0010
0000
0100
1000
0000
1000
0001
0000
0001
0100
0000
0100
0010
0000
,
0010
1000
0000
1000
0001
0010
0001
0000
1000
0010
1000
0000
0001
0100
0010
0000
,
1000
0100
0010
0000
0001
0100
1000
0100
0000
0001
0100
1000
0100
0001
0010
0000
,
0100
1000
0010
0000
1000
0100
0001
0100
0000
1000
0100
0001
0100
1000
0010
0000
,
0100
0001
0010
0000
0001
1000
0000
1000
0100
0000
0100
0001
0000
0001
0100
0000
,
0100
0010
0000
0010
0001
1000
0100
0000
0010
0001
1000
0000
0010
1000
0001
0000
,
0100
0001
1000
0000
0100
0010
1000
0010
0000
0100
0001
0100
0010
0001
1000
0000
,
0010
1000
0001
0000
0100
0010
0001
0010
0000
0100
1000
0100
0010
1000
0001
0000
,
0100
0001
1000
0000
0001
0010
0000
0010
1000
0000
1000
0010
0000
0010
0001
0000
,
0001
1000
0000
1000
0001
0100
0010
0000
1000
0100
0010
0000
0001
1000
0001
1000
,
0001
1000
0001
1000
0001
0000
0000
0000
0000
0000
0000
0000
0000
0000
0000
0000
;

//--------------- dance-double - forcednature ----------------
#NOTES:
     dance-double:
     forcednature:
     Easy:
     6:
     0,0,0,0,0:
00000000
00000000
00000000
00000000
,
00000000
00000000
00000000
00000000
,
00000000
00000000
00000000
00000000
,
00000000
00000000
00000000
00000000
,
00000000
00000000
00000000
00000000
,
00001000
00010000
00001000
00010000
,
01000000
10000000
01000000
10000000
,
00200000
00000000
00000000
00000000
,
00300000
10000000
00010000
10000000
,
00000000
00100000
00010000
00001000
,
00000000
00000010
00000100
00000010
,
00000000
00000100
00001000
00000001
,
00000000
00001001
00000000
00000001
,
00000100
00000010
00001000
00000010
,
00000000
00010000
00001000
00010000
,
00000000
00100000
01000000
00100000
,
00000000
10010000
00000000
10000000
,
00000000
01000000
00010000
00001000
,
00000000
00011000
00000000
00010000
,
00000000
00000100
00001000
00000010
,
00000000
00000110
00000000
00000001
,
00000000
00001000
00000010
00010000
,
00001000
01000000
00010000
01000000
,
00000000
00100000
10000000
00100000
,
00000000
10010000
00000000
10000000
,
01000000
00010000
00001000
00000100
,
00000001
00000010
00000000
00000001
,
00000100
00001000
00010000
01000000
,
10000000
00100000
00000000
10000000
,
00100000
00010000
00001000
00000010
,
00000001
00000100
00000000
00000001
,
00000010
00001000
00010000
00100000
,
10000000
01000000
00000000
10000000
,
01000000
00010000
00001000
00000010
,
00000001
00000100
00000000
00000001
,
00000100
00001000
00010000
00100000
,
10000000
01000000
00000000
00010000
,
00001000
00000100
00000000
00001000
,
00010000
01000000
00000000
00010000
,
00000000
00001000
00010000
00001000
,
00010000
00022000
00000000
00033000
,
00000000
00000200
00000000
00000300
,
00000000
00000020
00000000
00000030
,
00000000
00000002
00000000
00000003
,
00000000
00000200
00000000
00000300
,
00000000
00002000
00000000
00003000
,
00000000
00020000
00000000
00030000
,
00000000
02000000
00000000
13000000
,
00000000
10010000
00000000
00000000
,
00000000
00010000
00010000
00000000
00000000
00000000
00000000
00000000
,
00000000
00100000
00100000
00000000
00000000
00000000
00000000
00000000
,
00000000
00001000
00001000
00000000
00000000
00000000
00010000
00000000
,
00010000
00011000
00000100
00001000
,
00000001
00000100
00001000
00010000
,
01000000
10000000
00010000
00100000
,
00001000
00011000
00011000
00022000
,
00033000
00010000
00000100
00001000
,
00000100
00000010
00000001
00000100
,
00001000
00010000
00100000
10000000
,
00010000
10000000
01000000
10000000
,
01000000
00100000
00010000
01000000
,
00001000
00010000
00000010
00001000
,
00000001
00000010
00000100
00000010
,
00000100
00010000
00001000
00000100
,
00001000
00010000
01000000
00010000
,
01000000
10000000
00010000
10000000
,
00010000
00100000
00001000
00010000
,
00000100
00001000
00000001
00000100
,
00000010
00001000
00000001
00001000
,
00000001
00000010
00001000
00000010
,
00001000
00010000
00100000
00010000
,
00001000
00010000
01000000
00010000
,
00001000
00000220
00000000
00000000
,
00000000
00000000
00000000
00000000
,
00000000
00000330
00000000
00000000
;

//--------------- dance-double - forcednature ----------------
#NOTES:
     dance-double:
     forcednature:
     Medium:
     9:
     0,0,0,0,0:
00000000
00000000
00000000
00000000
,
00000000
00000000
00000000
00000000
,
00000000
00000000
00000000
00000000
,
00000000
00000000
00000000
00000000
,
00000000
00000000
00000000
00000000
,
00011000
00010000
01000000
10000000
,
00010000
01000000
00100000
00010000
,
00002000
00000010
00000010
00000010
,
00003000
00011000
00010100
00001000
,
00000001
00000000
00000000
00000000
00000100
00000000
00000000
00001000
00000000
00000000
00010000
00000000
00100000
00000000
00000000
00000000
,
01000000
01010000
11000000
10000000
,
00010000
00000000
00000000
00000000
10000000
00000000
00000000
01000000
00000000
00000000
00010000
00000000
00001000
00000000
00000000
00000000
,
00000010
00000000
00000110
00000000
00001000
00000000
00000001
00000100
,
00000001
00000010
00001000
00010000
,
00100000
00000000
10000000
00010000
10000000
00000000
00100000
00000000
,
01000000
00000000
00000000
00000000
00011000
00000000
00000000
00000000
00000100
00000000
00000000
00000000
00000010
00000000
00000000
00000010
,
00000000
00000010
00000010
00000000
00000100
00000000
00001000
00000001
,
00001000
00000000
00000000
00000000
00000010
00000000
00000000
00001000
00000000
00000000
00010000
00000000
01000000
00000000
00000000
00000000
,
00100000
10010000
10000000
01000000
,
00010000
00000000
00000000
00000000
00001000
00000000
00000000
00000010
00000000
00000000
00000100
00000000
00001000
00000000
00000000
00000000
,
00000001
00001001
00000001
00000100
,
00001000
00010000
00100000
00010000
,
00001000
00000000
00010000
01000000
00010000
00000000
00001000
00000000
,
00000010
00000000
00000000
00000000
00001001
00000000
00000000
00000000
00000001
00000000
00000000
00000000
00000100
00000000
00000000
00001000
,
00000000
00010000
01000000
00000000
10000000
00000000
00010000
00000000
,
01000000
00000000
00200000
00000000
00000000
00000000
00310000
00001000
,
00010000
00000100
00001000
00000001
,
00000100
00000000
00000000
00000000
00000020
00000000
00000000
00000000
00000000
00000000
00000000
00000000
00001030
00000000
00000000
00000100
,
00000000
00001000
00000100
00000000
00010000
00000000
00001000
01000000
,
00001000
00000000
00010000
00000000
00100000
00000000
10000000
01000000
,
10000000
00100000
00010000
00001000
,
00000010
00000000
00000000
00000000
00001001
00000000
00000000
00000000
00000100
00000000
00000000
00000000
00000010
00000000
00000000
00000010
,
00000000
00000010
00001001
00000000
00000001
00000100
00000000
00001000
,
00000000
00010000
00000000
00000000
00000000
00000000
00100000
00000000
,
10000000
00000000
00010000
00000000
10000000
01000000
00000000
00010000
,
00000000
00000000
00001000
00000000
00000010
00000000
00000000
00000000
00000000
00000000
00000000
00000000
00000001
00000000
00000000
00001000
,
00000000
00000001
00001001
00000000
00000001
00000000
00000100
00000000
,
00001000
00010000
00001000
00010000
,
01000000
00000000
00100000
00010000
00100000
00000000
01000000
10000000
,
01000000
00000000
00000000
00000000
01100000
00000000
00000000
00000000
10000000
00000000
00000000
00000000
01000000
00000000
00000000
00010000
,
00000000
00001000
00000020
00000000
00000000
00000000
00000000
00000000
,
00000030
00000002
00000000
00000000
,
00000003
00000200
00000000
00000000
,
00000300
00002000
00000000
00000000
,
00003000
00020000
00000000
00000000
,
00030000
00200000
00000000
00000000
,
00300000
20000000
00000000
00000000
,
30000000
02000000
00000000
03010000
,
00010000
00011000
00000100
00000100
,
00000000
00000100
00000100
00000000
00010000
00000000
00010000
00000000
,
00000000
00010000
00010000
00000000
01000000
00000000
01000000
00000000
,
00000000
01000000
01000000
00000000
00000000
00000000
10000000
00010000
,
10000000
00000000
10010000
00000000
00010000
00000000
01000000
00001000
,
00010000
00000010
00001000
00000000
00000100
00000000
00000010
00000001
,
00000100
00000001
00000010
00000000
00001000
00000000
00010000
00000000
,
00100000
00000000
10000000
00010000
10000000
00010000
00200000
00000000
,
00300000
00000000
00000000
00000000
01000000
00000000
00000000
00010000
00000000
00000000
00001000
00000000
00000010
00000000
00000000
00000000
,
00000100
00000000
00000000
00000000
00001000
00000000
00000000
00000001
00000000
00000000
00001000
00000000
00000010
00000000
00000000
00000000
,
00000100
00000000
00000000
00000000
00000001
00000000
00000000
00001000
00000000
00000000
00000001
00000000
00000000
00000010
00000000
00000000
,
00000001
00000200
00002300
00023000
,
02030000
00000000
00000000
00000000
13000000
00000000
00000000
00010000
00000000
00000000
10000000
00000000
00100000
00000000
00000000
00000000
,
01000000
00000000
00000000
00000000
00010000
00000000
00000000
00100000
00000000
00000000
01000000
00000000
00010000
00000000
00000000
00000000
,
00001000
00000000
00000000
00000000
00000010
00000000
00000000
00000100
00000000
00000000
00001000
00000000
00000000
00000001
00000000
00000000
,
00000100
00002000
00023000
00032000
,
00003020
00000000
00000000
00000000
00001030
00000000
00000000
00010000
00000000
00000000
00100000
00000000
00010000
00000000
00000000
00000000
,
00001000
00000000
00000000
00000000
00010000
00000000
00000000
01000000
00000000
00000000
10000000
00000000
00010000
00000000
00000000
00000000
,
10000000
00000000
00000000
00000000
00100000
00000000
00000000
00010000
00000000
00000000
00001000
00000000
00000000
00000010
00000000
00000000
,
00000001
00002000
00003020
00020030
,
00032000
00000000
00000000
00000000
00103000
00000000
00000000
01000000
00000000
00000000
00010000
00000000
01000000
00000000
00000000
00000000
,
10000000
00000000
00000000
00000000
00010000
00000000
00000000
01000000
00000000
00000000
00010000
00000000
00100000
00000000
00000000
00000000
,
00001000
00000000
00000000
00000000
00010000
00000000
00000000
00000010
00000000
00000000
00001000
00000000
00000000
00000010
00000000
00000000
,
00000001
00000000
00000010
00000100
00000010
00000100
00001000
00010000
,
00001000
00010000
00011000
00000000
00000000
00000000
00000000
00000000
;

//--------------- dance-double - forcednature ----------------
#NOTES:
     dance-double:
     forcednature:
     Hard:
     12:
     0,0,0,0,0:
00000000
00000000
00000000
00000000
,
00000000
00000000
00000000
00000000
,
00000000
00000000
00000000
00000000
,
00000000
00000000
00000000
00000000
,
00000000
00000000
00000000
00000000
,
00001000
00010000
00001000
00010000
01000000
10000000
01000000
10000000
,
00010000
01000000
00010000
01000000
00001000
00010000
00001000
00010000
,
00000200
00001000
00000010
00000001
,
00000300
00000000
00001001
00000000
00000101
00000000
00000001
00000010
,
00001000
00000000
00010000
00100000
00010000
00000000
00001000
00010000
,
01000000
00000000
11000000
00000000
10010000
00000000
10000000
00100000
,
00010000
00000000
00001000
00010000
01000000
00000000
00010000
00001000
,
00000100
00000000
00000000
00000000
00000000
00000000
00000010
00000000
00000000
00001000
00000000
00000000
00000001
00000000
00000000
00000100
,
00000000
00000010
00001000
00000100
00000010
00000000
00001000
00010000
,
00100000
00000000
01000000
00010000
01000000
00000000
00100000
00010000
,
00001000
00000000
00000000
00000000
00010000
00000000
01000000
00000000
10000000
00000000
00000000
00000000
00010000
00000000
00000000
01000000
,
00000000
00010000
00100000
00000000
01000000
00000000
00010000
00001000
,
00000010
00000000
00000000
00000000
00000100
00000000
00000000
00001000
00000000
00000000
00000001
00000000
00000100
00000000
00000010
00000000
,
00000100
00000000
00011000
00000000
00100000
00000000
01000000
10000000
,
00010000
00000000
00000000
00000000
01000000
00000000
00000000
00001000
00000000
00000000
00010000
00000000
01000000
00000000
00010000
00000000
,
00001000
00000000
00000000
00000000
00000000
00000000
00000100
00000000
00000000
00000010
00000000
00000000
00001000
00000000
00000000
00000001
,
00000000
00000010
00001000
00010000
00100000
00000000
00010000
00001000
,
00000010
00000000
00000100
00001000
00000010
00000000
00000100
00001000
,
00010000
00000000
00000000
00000000
01100000
00000000
00000000
00000000
10000000
00000000
00000000
00000000
00010000
00000000
00000000
01000000
,
00000000
00001000
00010000
00000100
00000010
00000001
00000100
00000010
,
00000000
00002002
00000000
00000000
00003003
00000000
00000001
00000100
,
00000010
00000001
00000010
00001000
00000100
00000010
00001000
00010000
,
00000000
00000000
00022000
00000000
00000000
00000000
00000000
00000000
00033000
00000000
00000000
00000000
00001000
00000000
00000000
00010000
,
00000000
01000000
10010000
00000000
10000000
01000000
10000000
00100000
,
00010000
00001000
00100000
00000000
00001000
00010000
00000010
00010000
,
00001000
00000100
00000001
00000000
00000010
00000100
00001000
00000010
,
00001000
00000000
00010000
00000000
01000000
00000000
00100000
00000000
10000000
00000000
00010000
00000000
10000000
00000000
00000000
01000000
,
00000000
00010000
00001000
00000000
00000010
00000100
00001000
00000001
,
00000100
00001000
00010000
00000100
00010000
00001000
00100000
00001000
,
00010000
00000010
00010000
00000000
00001000
01000000
00010000
10000000
,
01000000
00000000
00010000
00000000
00001000
00000000
00000010
00000000
00000001
00000000
00000100
00000000
00000010
00000000
00000000
00000100
,
00000000
00001000
00011000
00000000
00100000
00010000
01000000
10000000
,
01000000
00010000
00100000
00000000
01000000
00010000
00001000
00000010
,
00001000
00010000
00001000
00000000
00100000
00010000
01000000
00000000
,
00100000
00000000
00010000
00000000
00011000
00000000
00000000
00000000
00000010
00000000
00000000
00000000
00001000
00000000
00000000
00000001
,
00000000
00001000
00000001
00000010
00000100
00001000
00000020
00000000
,
00000000
00000000
00000000
00000000
00000000
00000000
00000000
00000000
00000030
00000000
00000000
00000000
00010000
00000000
00000000
00000010
,
00000000
00010000
00001000
00000000
01000000
00020000
00000000
00000000
,
00000000
00000000
00000000
00000000
,
00030000
00200000
00000000
00000000
,
00300000
00002000
00000000
00000000
,
00003000
00000020
00000000
00000000
,
00000030
00000002
00000000
00000103
,
00000010
00001001
00000001
00000100
,
00001000
00010000
00100000
00000000
10000000
00000000
01000000
00000000
,
00010000
00001000
00000010
00000000
00000001
00000000
00000100
00000000
,
00001000
00010000
00100000
00000000
10000000
01000000
00010000
00001000
,
00000100
00000001
00000010
00001000
00000010
00000100
00010000
00001000
,
01000000
00100000
00001000
00100000
01000000
00010000
10000000
01000000
,
00100000
10000000
00100000
00010000
00001000
00000100
00000001
00000100
,
00001000
00000000
00000001
00000000
00000100
00000000
00001000
00000000
00010000
00001000
00010000
00001000
00020000
00000000
00000000
00000000
,
00030000
00000000
00000000
00000000
00001000
00000000
00000000
00010000
00000000
00000000
01000000
00000000
00100000
00000000
00010000
00000000
,
10000000
00000000
00100000
00000000
00010000
00000000
00000000
00001000
00000000
00000000
00100000
00000000
00001000
00000000
00010000
00000000
,
00000100
00000000
00001000
00000000
00000001
00000000
00000000
00000100
00000000
00000000
00001000
00000000
00000000
00010000
00000000
00000000
,
00100000
00000000
10000000
01000000
10000000
01000000
00010000
01000000
,
00010000
00000000
01000000
00000000
00010000
00000000
00000000
00001000
00000000
00000000
00000010
00000000
00000100
00000000
00001000
00000000
,
00000001
00000000
00000000
00000000
00000100
00000000
00000000
00001000
00000000
00000000
00010000
00000000
00100000
00000000
00010000
00000000
,
00001000
00000000
00000000
00000000
00010000
00000000
00000000
01000000
00000000
00000000
00010000
00000000
00000000
00001000
00000000
00000000
,
00000010
00000000
00000100
00001000
00000100
00001000
00000100
00000001
,
00000100
00000000
00000001
00000000
00000100
00000000
00000000
00001000
00000000
00000000
00000010
00000000
00010000
00000000
00001000
00000000
,
01000000
00000000
00000000
00000000
00100000
00000000
00000000
00001000
00000000
00000000
00100000
00000000
10000000
00000000
01000000
00000000
,
00100000
00000000
00000000
00000000
01000000
00000000
00000000
10000000
00000000
00000000
00010000
00000000
00000000
00001000
00000000
00000000
,
00000001
00000000
00010000
00000010
00010000
00000010
00000100
00010000
,
00000100
00000000
00010000
00000000
00000100
00000000
00000000
00000001
00000000
00000000
00000010
00000000
00000100
00000000
00000001
00000000
,
00000100
00000000
00000000
00000000
00001000
00000000
00000000
00000001
00000000
00000000
00000100
00000000
00010000
00000000
00001000
00000000
,
00100000
00000000
00000000
00000000
10000000
00000000
00000000
00010000
00000000
00000000
10000000
00000000
00000000
01000000
00000000
00000000
,
00010000
00000000
00001000
00000010
00001000
00000010
00010000
00100000
,
00010000
00100000
00001000
00000000
00000000
00000000
00000000
00000000
;

//--------------- dance-double - forcednature ----------------
#NOTES:
     dance-double:
     forcednature:
     Challenge:
     15:
     0,0,0,0,0:
00000000
00000000
00000000
00000000
,
00000000
00000000
00000000
00000000
,
00000000
00000000
00000000
00000000
,
00000000
00000000
00000000
00000000
,
00000000
00000000
00000000
00000000
,
00001000
00010000
00000100
00000000
00001000
00000000
00000001
00000000
00000100
00001000
00010000
00000000
00001000
00000000
00000000
00000000
,
00010000
00001000
01000000
00000000
00010000
00000000
10000000
00000000
01000000
00000000
01000000
00000000
00010000
00001000
00010000
00001000
,
00010000
00000100
00010000
00000000
00000010
00001000
00000010
00000000
00000100
00001000
00000100
00001000
00010000
00001000
00010000
00001000
,
00000000
00000000
00000000
00000000
00010000
00000000
00000000
00010000
01000000
00000000
00000000
01000000
10000000
00000000
00200000
00000000
,
00000000
00000000
01300000
00000000
00010000
10000000
00000000
01000000
00000000
00000000
00010000
00001000
00010000
00000000
00000200
00000000
,
00000000
00000000
00001300
00000100
00001000
00000000
00000000
00001000
00000001
00000000
00000000
00000001
00000100
00000000
00002000
00000000
,
00000000
00000000
00013000
00000000
00000100
00010000
00000000
00001000
00000000
00000000
00100000
00010000
00100000
00000000
01000000
00000000
,
10000000
00010000
10000000
00010000
10000000
00000000
00100000
00000000
00010000
00001000
00000000
00010000
00000100
00000000
00001000
00000100
,
00001000
00000000
00000010
00000000
00000100
00000001
00000100
00000000
00000001
00000010
00000001
00000000
00000100
00000000
00001000
00000000
,
00010000
00000000
01000000
00000000
10000000
00010000
10000000
00010000
20000000
00000000
00000000
00000000
30100000
00000000
00020000
00000000
,
00000000
00000000
00031000
00000000
00000010
00000100
00000010
00000000
00000001
00001000
00000001
00000000
00000100
00001000
00000000
00010000
,
00100000
00000000
10000000
00010000
10000000
00000000
00000000
10000000
00100000
00000000
00000000
00100000
00010000
00000000
00002000
00000000
,
00000000
00000000
00003010
00000000
00000100
00001000
00000000
00000001
00000000
00000000
00000100
00000001
00000100
00000000
00000020
00000000
,
00000000
00000000
00010030
00000010
00010000
00000000
00000000
00010000
00001000
00000000
00000000
00001000
00100000
00000000
02000000
00000000
,
00000000
00000000
13000000
00000000
00010000
01000000
00000000
00001000
00000000
00000000
00010000
00000100
00010000
00000000
00001000
00000000
,
00000010
00000001
00000010
00000001
00000010
00000000
00000100
00000000
00001000
00000001
00000000
00000100
00000010
00000000
00000100
00000001
,
00000100
00000000
00001000
00000000
00010000
00000100
00010000
00000000
00001000
01000000
00001000
00000000
00100000
00000000
01000000
00000000
,
10000000
00000000
00010000
00000000
01000000
00001000
01000000
00001000
02000000
00000000
00000000
00000000
03100000
00000000
00020000
00000000
,
00000000
00000000
00031000
00000000
00000010
00000001
00000010
00000000
00000100
00001000
00000100
00000000
00010000
00001000
00000000
01000000
,
00010000
00000000
10000000
00100000
10000000
00000000
01000000
00000000
00010000
00000000
00001000
00000000
00100000
00000000
00001000
00000000
,
00000010
00000002
00000000
00000000
00000103
00000000
00000001
00000100
,
00001000
00010000
01000000
10000000
00100000
00001000
00100000
01000000
,
00001000
00000000
00020000
00000000
00000000
00000000
00000000
00000000
01030000
00000000
00000000
00000000
00100000
00000000
00000000
00010000
,
00000000
00000000
00001000
00000100
00001000
00000000
00000000
00000000
00000001
00000000
00000100
00000000
00000010
00000000
00010000
00000000
,
00100000
00010000
00002000
00000000
00000010
00000000
00013000
00001000
,
00000010
00010000
00200000
00000000
00001000
00000000
01000000
00000000
,
10300000
00000000
00000000
00000000
00100000
00010000
00100000
00000000
00001000
00000000
00010000
00000000
00000010
00001000
00000000
00000001
,
00000100
00000000
00000001
00001000
00000001
00000000
00000100
00000000
00010000
00000000
00000100
00000000
00000010
00000000
00010000
00000000
,
00001000
00000020
00000000
00000000
00000031
00000000
00000010
00000100
,
00010000
00001000
01000000
00100000
10000000
01000000
00001000
00010000
,
00100000
00000000
00001000
00000000
00020000
00000000
00000000
00000000
00130000
00000000
00000000
00000000
00010000
00000000
00000000
00001000
,
00000000
00000000
00000010
00000100
00000010
00000000
00000000
00000000
00000001
00000000
00000100
00000000
00001000
00000000
00010000
00000000
,
01000000
10000000
00200000
00000000
00000000
00001000
00300000
00100000
,
00010000
00000000
00001000
00000000
00000010
00000100
00000010
00000000
00000001
00000000
00001000
00000000
00000010
00010000
00000010
00000000
,
00000100
00000000
00001000
00000000
00010000
00100000
00010000
00100000
10000000
00100000
10000000
00100000
10000000
01000000
00000000
00100000
,
00001000
00000000
01000000
00010000
01000000
00000000
00100000
00000000
00001000
00000000
00000010
00000000
00000200
00000000
00000000
00000000
,
00000000
00000000
00000000
00000000
00000000
00000000
00000000
00000000
00000300
00000000
00000000
00000000
00000001
00000000
00000000
00001000
,
00000000
00010000
01000000
00000000
00100000
20000000
00000000
00000000
,
00000000
00000000
00000000
00000000
,
30000000
02000000
00000000
00000000
,
03000000
00020000
00000000
00000000
,
00030000
00000020
00000000
00000000
,
00000030
00000000
00000000
00000000
00002000
00000000
00000000
00000000
00003000
00000000
00000001
00000000
00001000
00000001
00001000
00000001
,
00001000
00000001
00001000
00000001
00001000
00000000
00000010
00000000
00000100
00000000
00001000
00000000
00020000
00000000
00000000
00000000
,
00000000
00000000
00100000
00000000
00100000
00000000
00000000
00000000
00030000
00000000
00000000
00000000
00010000
00000000
00000000
00001000
,
00000000
00010000
02000000
00000000
00000000
00000000
23000000
00000000
,
00000000
00100000
30200000
00000000
00000000
00000000
00310000
00010000
,
00001000
00010000
00001000
00010000
00001000
00000000
00000000
00000000
00000010
00000000
00000001
00000000
00000010
00000000
00001000
00000000
,
00010000
00100000
10000000
00000000
01000000
00010000
00001000
00000100
,
00001000
00000000
00010000
00000000
00001000
00000010
00001000
00000000
00000010
00000000
00000001
00000000
00001000
00000100
00001000
00000000
,
00000010
00000000
00010000
00000000
00100000
00000000
00100000
00000000
10000000
00010000
10000000
00010000
00200000
00000000
00000000
00000000
,
00300000
00000000
00000000
00000000
01000000
10000000
01000000
10000000
00000000
00010000
01000000
00010000
01000000
00001000
00010000
00000000
,
00000100
00010000
00001000
00000000
00000010
00000001
00000010
00000001
00000000
00001000
00000100
00001000
00000100
00000010
00000001
00000000
,
00000100
00000010
00001000
00000000
00000100
00010000
00000000
00010000
00001000
00000000
00001000
01000000
00000000
01000000
00010000
00000000
,
00010000
00100000
00000000
00100000
01000000
10000000
00100000
00000000
01000000
00010000
00100000
00000000
00001000
00010000
00000100
00000000
,
00001000
00000100
00000010
00000000
00000100
00001000
00000001
00000100
00000000
00000010
00001000
00000010
00010000
00001000
00010000
00000000
,
00001000
00100000
00010000
00000000
10000000
01000000
00100000
00010000
00000000
00100000
00010000
00100000
00001000
00010000
00001000
00000000
,
00000010
00000100
00001000
00000000
00000001
00000100
00000000
00000100
00001000
00000000
00001000
00010000
00000000
00010000
01000000
00000000
,
01000000
10000000
00000000
10000000
00010000
00100000
01000000
00000000
10000000
00100000
01000000
00000000
00001000
00010000
00000100
00000000
,
00001000
00000010
00000100
00000000
00000001
00000100
00000010
00001000
00000000
00000100
00010000
00001000
00010000
00100000
00010000
00000000
,
00001000
00100000
00010000
00000000
10000000
00100000
10000000
01000000
00000000
00100000
00001000
00010000
00000100
00010000
00001000
00000000
,
00000100
00000001
00000010
00000000
00000100
00010000
00000000
00010000
00100000
00000000
00100000
01000000
00000000
01000000
00010000
00000000
,
00010000
10000000
00000000
10000000
01000000
00100000
00010000
00000000
01000000
00001000
00010000
00000000
00000100
00010000
00001000
00000000
,
00000010
00000001
00001000
00000000
00000010
00001000
00000001
00000010
00000000
00000100
00010000
00001000
00100000
00001000
00010000
00000000
,
00100000
10000000
01000000
00000000
00100000
00001000
00010000
00001000
00000000
00000010
00000100
00001000
00000100
00000010
00000001
00000000
,
00000100
00000010
00001000
00000000
00010000
01000000
00000000
01000000
00100000
00000000
00100000
00001000
00000000
00001000
00000010
00000000
,
00000010
00000100
00000000
00000100
00000001
00000010
00000100
00000000
00001000
00000010
00010000
00000000
00001000
00010000
00001000
00010000
,
00001000
00010000
00001000
00010000
00001000
00000000
00000000
00000000
00000000
00000000
00000000
00000000
00000000
00000000
00000000
00000000
;
