#TITLE:Forestcall;
#SUBTITLE:(Short Version);
#ARTIST:Eltorro64Rus;
#TITLETRANSLIT:;
#SUBTITLETRANSLIT:;
#ARTISTTRANSLIT:;
#GENRE:;
#CREDIT:;
#MUSIC:Forestcall (Short Version).ogg;
#BANNER:Forestcall (Short Version)-bn.png;
#BACKGROUND:Forestcall (Short Version)-bg.png;
#CDTITLE:;
#SAMPLESTART:48.041;
#SAMPLELENGTH:21.333;
#SELECTABLE:YES;
#OFFSET:-0.041;
#BPMS:0.000=90.000;
#STOPS:;
#BGCHANGES:;
#FGCHANGES:;

//--------------- dance-single - ----------------
#NOTES:
     dance-single:
     :
     Beginner:
     1:
     0,0,0,0,0:
0000
0000
0000
0000
,
0000
0000
0000
0000
,
2000
0000
0000
0000
0000
0000
0000
3200
,
0000
0000
0000
0000
,
0320
0000
0000
0000
0000
0000
0000
2030
,
0000
0000
0000
0000
,
3020
0000
0000
0000
0000
0000
0000
0032
,
0000
0000
0000
0000
,
0203
0000
0000
0000
0000
0000
0000
0320
,
0000
0000
0000
0000
,
2030
0000
0000
0000
0000
0000
0000
3020
,
0000
0000
0000
0000
,
0230
0000
0000
0000
0000
0000
0000
2300
,
0000
0000
0000
0000
,
3200
0000
0000
0000
0000
0000
0000
0302
,
0000
0000
0000
0000
,
0023
0000
0000
0000
0000
0000
0000
0230
,
0000
0000
0000
0000
,
2300
0000
0000
0000
0000
0000
0000
3020
,
0000
0000
0000
0032
0000
0000
0000
0023
,
0000
0000
0000
0000
0000
0000
0000
0230
,
0000
0000
0000
0302
0000
0000
0000
0000
,
2003
0000
0000
0000
0000
0000
0000
3200
,
0000
0000
0000
0302
0000
0000
0000
0203
,
0000
0000
0000
0000
0000
0000
0000
0320
,
0000
0000
0000
0032
0000
0000
0000
0000
,
2003
0000
0000
0000
0000
0000
0000
3020
,
0000
0000
0000
0000
,
0032
0000
0000
0000
0000
0000
0000
0023
,
0000
0000
0000
0000
,
2030
0000
0000
0000
0000
0000
0000
3200
,
0000
0000
0000
0000
,
0302
0000
0000
0000
0000
0000
0000
0203
,
0000
0000
0000
0000
,
1300
0000
0000
0000
;

//--------------- dance-single - ----------------
#NOTES:
     dance-single:
     :
     Easy:
     4:
     0,0,0,0,0:
0000
0000
0000
0000
,
0000
0000
0000
0000
,
1000
0000
0100
0000
0020
0000
0030
2000
,
0000
3010
0001
0100
,
0001
0000
0010
0000
0200
0000
0300
0002
,
0000
0103
1000
0001
,
1000
0000
0010
0000
0200
0000
0300
2000
,
0000
3100
0001
0010
,
0001
0000
0100
0000
0020
0000
0030
0002
,
0000
0013
1000
0001
,
1000
0000
0100
0000
0002
0000
0003
0200
,
0000
0310
0001
0100
,
0001
0000
0010
0000
2000
0000
3000
0020
,
0000
0130
1000
0001
,
1000
0000
0010
0000
0002
0000
0003
0020
,
0000
0130
0001
0010
,
0001
0000
0100
0000
2000
0000
3000
0200
,
0000
0310
1000
0001
,
2000
0000
0000
0000
0000
3200
0300
0002
,
0000
0023
0000
0230
0000
0302
0000
2003
,
0000
0000
0000
0000
0000
3020
0030
0002
,
0000
0203
0000
0320
0000
0032
0000
0000
,
2003
0000
0000
0000
0000
3200
0300
0002
,
0000
0203
0000
0320
0000
0032
0000
2003
,
0000
0000
0000
0000
0000
3020
0030
0002
,
0000
0023
0000
0230
0000
0302
0000
0000
,
2003
0000
0000
0000
0000
0000
3200
0320
,
0000
0000
0000
0000
0000
0000
2030
3020
,
0000
0000
0000
0000
0000
0000
0032
0203
,
0000
0000
0000
0320
,
2030
0000
0000
0000
0000
0000
3020
0230
,
0000
0000
0000
0000
0000
0000
2300
3200
,
0000
0000
0000
0000
0000
0000
0302
0023
,
0000
0000
0000
0230
,
1300
0000
0000
0000
;

//--------------- dance-single - ----------------
#NOTES:
     dance-single:
     :
     Medium:
     5:
     0,0,0,0,0:
0000
0000
0000
0000
,
0000
0000
0000
0000
,
1000
0100
0001
0100
,
1000
0010
0100
1000
,
0100
0001
0010
1000
,
0010
0001
0100
0010
,
1000
0010
0001
0010
,
1000
0100
0010
1000
,
0010
0001
0100
1000
,
0100
0001
0010
0100
,
1000
0010
0001
0010
,
1000
0100
0001
0100
,
0010
0001
0100
1000
,
0100
0001
0010
0100
,
1000
0100
0001
0100
,
1000
0010
0001
0010
,
0100
0001
0010
1000
,
0010
0001
0100
0010
,
1000
0100
0010
0100
,
0001
0100
0010
0100
,
1000
0001
0100
0010
,
0100
1000
0100
0001
,
1000
0010
0100
0010
,
0001
0010
0100
0010
,
1000
0100
0010
0100
,
0001
0100
1000
0001
,
1000
0100
0001
0100
,
1000
0010
0001
0100
,
0010
0100
1000
0100
,
0001
0010
1000
0001
,
1000
0010
0001
0010
,
1000
0100
0001
0010
,
0100
0010
1000
0010
,
0001
0100
1000
0001
,
1000
0000
0000
0000
;

//--------------- dance-single - ----------------
#NOTES:
     dance-single:
     :
     Hard:
     7:
     0,0,0,0,0:
0000
0000
0000
0000
,
0000
0000
0000
0000
,
1000
0000
0100
0000
0010
0000
1000
0020
,
0000
0000
0032
0000
0203
0010
0302
0010
,
1003
0000
0100
0000
0001
0000
0100
0020
,
0000
0000
0032
0000
0203
0010
0302
0010
,
1003
0000
0010
0000
0100
0000
1000
0200
,
0000
0000
0302
0000
0023
0100
0032
0100
,
1003
0000
0010
0000
0001
0000
0010
0200
,
0000
0000
0302
0000
0023
0100
0032
0100
,
1003
0000
0100
0000
0001
0000
0100
2000
,
0000
0000
3020
0000
0230
1000
0320
0001
,
1030
0000
0100
0000
0001
0000
0100
2000
,
0000
0000
3200
0000
0320
1000
0230
0001
,
1300
0000
0010
0000
0001
0000
0010
2000
,
0000
0000
3200
0000
0320
1000
0230
0001
,
1300
0000
0010
0000
0001
0000
0010
2000
,
0000
0000
3020
0000
0230
1000
0320
0001
,
2030
0000
0000
0000
0000
3020
0230
0302
,
0010
0203
0010
2300
0010
3200
0010
0302
,
0000
0000
0000
0000
0000
0203
0320
2030
,
0100
3020
0100
0032
0100
0023
0100
0000
,
2030
0000
0000
0000
0000
3200
0320
0032
,
0100
0023
0100
2030
0100
3020
0100
0032
,
0000
0000
0000
0000
0000
0023
0230
2300
,
0010
3200
0010
0302
0010
0203
0010
0000
,
2300
0000
0001
0000
0100
0000
3020
0230
,
1000
0000
0010
0000
0001
0000
2300
3200
,
0010
0000
0001
0000
1000
0000
0302
0023
,
0100
1000
0001
0230
,
2300
0000
0010
0000
0001
0000
3200
0320
,
1000
0000
0100
0000
0001
0000
2030
3020
,
0001
0000
0100
0000
1000
0000
0032
0203
,
1000
0010
0001
0320
,
1030
0000
0000
0000
;

//--------------- dance-single - ----------------
#NOTES:
     dance-single:
     :
     Challenge:
     9:
     0,0,0,0,0:
0000
0000
0000
0000
,
0000
0000
0000
0000
,
1000
0000
1100
0010
0002
0000
0013
1000
,
0010
0000
0002
0000
0203
1000
0320
0001
,
1030
0000
0101
0010
2000
0000
3100
0001
,
0100
0000
2000
0000
3002
0010
0203
0010
,
0301
0000
0011
0100
2000
0000
3010
0001
,
0010
0000
2000
0000
3200
0001
0320
1000
,
0031
0000
1010
0100
0002
0000
0103
1000
,
0100
0000
0000
0001
1000
0000
0000
0100
0020
0000
1000
0000
0230
0000
1000
0000
,
0310
0001
0011
0100
2000
0000
3010
0001
,
0010
0000
2000
0000
3002
0100
0023
0100
,
0031
0100
1010
0010
0001
1000
0100
0001
,
0100
0000
0020
0000
2030
0100
3002
0100
,
1003
0010
1010
0100
0002
0010
1003
0010
,
0100
1000
0200
0000
0302
0010
0203
1000
,
0301
0000
0110
1000
0100
0000
0001
0100
,
1000
0000
0000
0010
0100
0000
0000
1000
0100
0000
0001
0000
0010
0001
0000
1000
,
0002
0000
0100
0000
1000
0023
0230
2300
,
0001
3200
0001
0320
0001
0230
0001
2300
,
0010
0000
0100
0000
0001
3020
0230
0302
,
1000
0203
1000
0320
1000
0230
1000
0000
,
0302
0000
0010
0000
1000
0203
0320
2030
,
0001
3020
0001
0230
0001
0320
0001
2030
,
0100
0000
0010
0000
0001
3200
0320
0032
,
1000
0000
0013
0100
0001
0000
0100
1000
0010
0000
0100
0001
1000
0100
0000
0010
,
0200
0000
1000
0000
0010
0000
0302
2003
,
3200
0000
0010
0000
0302
2003
3200
0320
,
0032
0000
0100
0000
1000
0000
0023
2030
,
0010
0000
0001
0000
3200
0302
0023
0230
,
2300
0000
0010
0000
0100
0000
3002
0023
,
1000
0000
0100
0000
0001
0000
2030
3200
,
0320
0000
0001
0000
0100
0000
2030
3200
,
0001
0010
1000
0320
,
0031
0000
0000
0000
;
