#TITLE:Flunky Beats;
#SUBTITLE:;
#ARTIST:Getty;
#TITLETRANSLIT:;
#SUBTITLETRANSLIT:;
#ARTISTTRANSLIT:;
#GENRE:;
#CREDIT:;
#BANNER:Flunky Beats.png;
#BACKGROUND:Flunky Beats-bg.png;
#LYRICSPATH:;
#CDTITLE:;
#MUSIC:Flunky Beats.ogg;
#OFFSET:-0.031454;
#SAMPLESTART:24.796885;
#SAMPLELENGTH:15.000000;
#SELECTABLE:YES;
#BPMS:0.000000=155.000000
;
#STOPS:99.000000=0.387000,
162.000000=0.387093,
257.000000=0.387100
;
#BGCHANGES:;
#KEYSOUNDS:;
#ATTACKS:;

//---------------dance-single - ----------------
#NOTES:
     dance-single:
     :
     Hard:
     14:
     0.676587,0.787717,0.279108,0.540772,0.261664,543.000000,511.000000,32.000000,62.000000,0.000000,0.000000,0.676587,0.787717,0.279108,0.540772,0.261664,543.000000,511.000000,32.000000,62.000000,0.000000,0.000000:
0000
0000
0000
0000
,
0000
0000
0000
0000
,
0000
0000
0000
0000
,
0000
0000
0000
0000
,
0000
0000
0000
0000
,
2000
0000
0000
0000
0100
0000
0000
0001
0000
0001
0000
0000
0100
0000
0000
0000
,
0000
0000
0000
0000
0010
0000
0000
0001
0000
0001
0000
0000
0010
0000
0000
0000
,
3002
0000
0000
0000
0100
0000
0000
1000
0000
1000
0000
0000
0100
0000
0000
0000
,
0000
0000
0010
0000
0010
0000
0000
0010
0000
0000
1000
0000
2003
0000
0000
0000
,
3001
0000
0000
0000
0001
0000
0000
0100
0010
0000
0100
0000
1000
0000
0100
0000
,
0001
0000
0001
0000
0001
0000
1000
0100
0000
0000
0010
0000
0100
0000
0100
0000
,
1000
0000
0000
0000
1000
0000
0000
0100
0010
0000
0100
0000
0001
0000
0100
0000
,
1000
0000
1000
0000
1000
0000
0001
0100
0000
0000
0100
0000
0010
0000
1000
0000
,
0001
0000
0001
0000
1000
0000
0001
0010
0000
0001
0100
0000
0010
0000
0010
0000
,
1000
0000
1000
0000
0001
0000
1000
0100
0000
1000
0010
0000
0100
0000
0010
0000
,
1000
0010
1000
0000
0001
0100
0001
0000
1000
0100
1000
0100
0010
0001
0010
0001
,
2000
0000
0000
0000
,
3001
0000
0000
0000
1100
0000
0000
0100
0010
0000
0100
0000
1000
0000
0001
0000
,
0010
0000
0010
0000
0001
0000
1000
0100
0000
0100
1000
0000
0010
0000
0100
0000
,
0001
0000
0000
0000
1100
0000
0000
1000
0001
0000
0100
0000
0010
1000
0010
0000
,
0100
0000
0100
0000
0001
0000
0100
0010
1000
0000
0002
0000
0000
0000
1003
0000
,
1000
0000
0001
0000
0100
0000
0001
0010
0000
0000
0001
0000
0010
0000
0100
0000
,
1000
0000
1000
0000
1000
0000
0001
0010
0000
0001
1000
0000
0100
0000
0010
0000
,
0001
0000
1000
0000
0100
0000
1000
0010
0000
0000
0100
0000
0010
0000
1000
0000
,
1010
0010
0110
0100
0101
0001
0020
0000
,
0032
0010
1000
1000
2003
0100
0001
0001
,
3002
0100
1000
1000
2003
0010
0001
0001
,
3002
0010
1000
0100
2003
0100
0001
0010
,
3002
0100
1000
0023
0000
0130
1000
0100
,
0010
0100
0001
0100
0010
0100
1000
0001
,
0100
0010
0100
1000
0100
0010
1010
1000
,
1100
0100
0110
0010
0011
0001
0010
0001
,
0100
0000
0010
0000
2000
0000
3000
0000
1000
0000
0002
0003
0100
0000
0001
0000
,
0010
0000
0001
0000
2000
0000
0000
0010
0000
0000
3100
0000
0000
0000
1000
0000
,
0001
0000
0010
0000
0002
0000
0100
0000
0100
0000
0000
1003
0000
0000
1000
0000
,
0010
0001
0010
1000
0001
0010
1000
0010
,
0001
0100
1000
0100
0010
0110
0000
0100
,
0002
0000
1003
0010
0101
0100
0001
0010
,
1100
0002
0003
1000
0001
0010
0100
0100
,
1000
1000
0001
0001
0100
0100
0010
1000
,
0001
2001
0000
0001
3020
0000
2030
0001
,
0100
0100
3200
1000
0010
0010
0320
0100
,
0001
0001
0032
0010
1000
1000
2003
0001
,
0010
0010
3020
1000
0100
0100
0230
0010
,
0001
0001
0302
1000
2003
0100
3002
0100
,
2003
0100
3002
0100
2003
0010
3002
0010
,
2003
0010
3002
0010
2003
3020
0230
0302
,
0023
0230
2300
3002
1003
0010
0100
0010
,
1000
0002
0000
0000
1003
0000
1100
0000
,
1001
0000
0000
0000
1100
0000
0000
1000
0001
0000
0100
0000
0010
0000
0100
0000
,
0001
0010
0100
0010
0001
0000
0101
0000
,
1001
0000
0000
0000
0101
0000
0001
0000
1000
0000
0010
0000
0100
0000
0010
1000
,
0000
1000
0100
0000
0010
0000
0100
0000
1000
0000
1000
0000
0100
0000
1000
0000
,
0100
0100
0010
0100
0010
0010
0001
0010
,
0001
0000
0001
0000
1000
0000
0001
0000
1000
0001
0010
0000
0100
0000
1000
0000
,
0001
1000
0010
0000
0100
0000
0001
0000
0022
0000
0000
0000
0000
0000
0000
0000
,
0000
0000
0000
0000
0033
0000
0000
0000
1001
0000
0000
0000
1001
0000
0000
0001
,
2000
0000
0100
0000
3100
0000
0010
0000
0100
0000
1000
0000
0001
0000
1000
0010
,
0000
0010
0100
0000
0001
0000
0100
0000
0110
0000
0000
0000
0110
0000
0000
1000
,
0002
0100
0103
0010
0100
0001
2000
3001
,
0010
0000
0110
0000
0000
0010
0100
0010
0001
0000
1000
0000
0001
0000
0001
0010
,
0000
0000
0010
0000
0100
0000
0010
0000
0001
0000
0001
0000
1000
0000
1000
0010
,
0000
0010
0100
0000
0010
0000
1000
0000
0001
0000
0100
0000
1000
0000
0100
0010
,
0000
0010
1000
0100
1100
1000
1001
0001
,
0101
0100
0020
0000
0230
0001
0010
0010
,
0302
1000
0010
0010
2003
0100
0001
0001
,
3020
0100
1000
1000
0130
0001
0201
0301
,
0001
1000
2100
3100
0100
1000
0010
2010
,
0002
0000
3003
0000
0001
0100
0001
0000
1000
0000
0010
0000
1000
0100
1000
0000
,
0001
0000
0010
0001
1000
0010
1000
0000
0001
0000
0100
0000
0001
0010
0001
0000
,
1000
0000
0100
1000
0100
1000
0001
0000
0100
0001
1000
0000
0010
1000
0001
0000
,
0010
0001
1000
0001
0020
0000
0100
0000
1000
0000
0000
1000
0000
0000
0100
0000
,
0031
1100
0000
0000
;

//---------------dance-single - ----------------
#NOTES:
     dance-single:
     :
     Medium:
     10:
     0.413678,0.504139,0.270386,0.497161,0.013083,332.000000,301.000000,31.000000,57.000000,0.000000,0.000000,0.413678,0.504139,0.270386,0.497161,0.013083,332.000000,301.000000,31.000000,57.000000,0.000000,0.000000:
0000
0000
0000
0000
,
0000
0000
0000
0000
,
0000
0000
0000
0000
,
0000
0000
0000
0000
,
0000
0000
0000
0000
,
2000
0100
0000
0010
,
0000
0100
0000
3010
,
0002
0100
0000
0010
,
0000
0100
0000
0013
,
1000
0000
1000
0000
1200
0000
1300
0100
,
0010
0000
0010
0000
0012
0000
0013
0001
,
1000
0000
1000
0000
1020
0000
1030
0010
,
0100
0000
0100
0000
0201
0000
0301
0100
,
0001
0000
0001
0000
0100
0001
0100
0010
,
1000
0000
1000
0000
0100
1000
0100
0010
,
0002
2003
3020
0230
,
0302
0000
0000
0003
,
1000
0000
1000
0000
0001
0100
0010
0000
,
2000
3200
0302
0203
,
1300
0000
1000
0000
0001
0010
0100
0000
,
2000
0000
3020
0000
0130
0010
0000
0100
,
0001
0000
0001
0000
1000
0100
0010
0000
,
0002
0023
2030
3020
,
0031
0000
0001
0000
1000
0010
0100
0000
,
0010
0101
1010
0110
,
1000
0000
0010
0000
1000
0010
0100
0000
,
0010
0000
0100
0000
0010
0100
0001
0000
,
0100
0000
0001
0000
0100
0001
1000
0000
,
0001
0000
1000
0002
0003
1000
0020
0000
,
2030
3200
2300
3002
,
0203
0302
0023
0031
,
1100
1001
0101
0100
,
0100
0010
2000
0000
3000
0000
0100
0000
,
1000
0000
0000
0000
0001
0000
0000
0100
0000
0000
0100
0000
0000
0000
0010
0000
,
1000
0000
0000
0000
0001
0000
0000
0000
0001
0000
0000
0010
0000
0000
0100
0000
,
2000
3020
0230
0302
,
0023
0000
0000
0000
0230
0000
0000
0000
1300
0000
0000
1000
0000
0000
0001
0000
,
2000
3020
0230
0302
,
1003
0001
0000
0001
1000
0000
0010
0000
,
0101
0010
1100
0100
,
0010
0000
0100
1000
0010
0000
0101
0000
,
0110
0000
0010
1000
0001
0000
0011
0000
,
1001
0000
0001
0010
0100
0000
1100
0000
,
0110
0000
0010
0001
1000
0000
1010
0000
,
1001
0000
0001
0100
0010
0100
0010
0000
,
1000
0001
1000
0000
0100
0010
0100
0000
,
1000
0001
1000
0000
0002
0000
0203
0000
,
0320
2030
3001
0110
,
2002
3003
0002
0100
,
1000
0100
0010
1000
,
0010
0100
2003
0010
,
0001
0010
0100
0001
,
0100
0010
3001
0001
,
0001
0100
0010
1000
0001
0000
0001
0000
,
0001
0010
0100
1000
0002
0000
2003
0000
,
3020
0230
0302
0000
,
0000
0003
1000
1000
,
0100
1000
0001
0000
0010
0000
0100
0000
,
0100
0010
1000
1000
,
0010
1000
0001
0000
0100
0000
0010
0000
,
0010
2000
3000
0000
0001
0000
0001
0000
,
0010
0001
1000
0000
0100
0000
0010
0000
,
0010
0100
1000
0001
,
1000
0010
0100
0001
1000
0000
1000
0000
,
1000
0110
0001
0100
,
0001
0100
0010
0000
0100
0000
0010
0000
,
0100
0010
1000
0000
0010
0000
1000
0000
,
0010
1000
0001
0000
1000
0000
0001
0020
,
0030
0100
0011
0100
,
1010
0100
0011
0100
,
1010
1001
0011
0110
,
1100
0000
0100
1000
0100
0000
0100
0010
,
0002
1003
0000
0000
;

//---------------dance-single - ----------------
#NOTES:
     dance-single:
     :
     Easy:
     6:
     0.296552,0.315087,0.043611,0.244219,0.000000,238.000000,233.000000,5.000000,28.000000,0.000000,0.000000,0.296552,0.315087,0.043611,0.244219,0.000000,238.000000,233.000000,5.000000,28.000000,0.000000,0.000000:
0000
0000
0000
0000
,
0000
0000
0000
0000
,
0000
0000
0000
0000
,
0000
0000
0000
0000
,
0000
0000
0000
0000
,
2000
3100
0000
0100
,
0000
0010
0000
0010
,
0002
0103
0000
0100
,
0000
0010
0000
0010
,
2000
3000
2000
3000
,
1000
0010
0200
0300
,
0002
0003
0002
0003
,
0001
0010
0200
0300
,
1000
1000
0100
0010
,
0001
0001
0010
0100
,
1000
0001
1000
0001
,
2002
0000
0000
3003
,
0001
0100
0010
0100
,
0001
0001
0002
0003
,
1000
0100
0010
0100
,
1000
0000
1000
0000
2000
3000
0000
0000
,
0001
0100
0010
1000
,
0001
0001
0002
0003
,
1000
0100
0010
0001
,
1000
0001
1000
0010
,
0100
1000
0100
0001
,
0100
1000
0100
0001
,
0010
1000
0010
0001
,
0010
1000
0010
0001
,
0100
0010
1000
0001
,
0010
0100
1000
0001
,
1000
0001
1000
0100
,
0100
2000
3000
0000
,
0001
0100
0001
0000
,
1000
0010
1000
0000
,
0001
0100
0001
0010
,
0100
1000
0100
0000
,
0100
1000
0010
0100
,
0001
0000
0001
0010
,
0010
0100
0100
1000
,
0001
1000
1001
0001
,
0100
0002
0103
0010
,
0100
0020
0130
0010
,
1000
0020
1030
0001
,
1000
0002
1003
1000
,
0100
0100
0010
0010
,
0001
0001
1000
0001
,
1000
0001
0100
0100
,
0110
0000
0010
1000
,
0001
0100
0010
1000
,
0001
0100
0001
0010
,
0100
1000
0001
0010
,
0100
1000
0010
0100
,
0010
0100
0001
1000
,
0001
1000
0100
0100
,
0010
0010
2002
0000
,
0000
3003
1000
1000
,
0200
0300
1000
0010
,
0100
0010
1000
1000
,
0200
0300
1000
0001
,
0020
0030
0000
0000
0001
0000
0001
0000
,
0200
0300
0001
0100
,
0010
0100
0001
0001
,
0200
0300
0001
0001
,
0001
0010
0100
1000
,
0100
1000
0001
0100
,
0001
0100
0001
0010
,
0001
0000
1000
0000
0010
0000
2002
3003
,
0000
0100
0100
0010
,
0010
1000
1000
0001
,
0001
1000
0001
0010
,
0100
2000
0000
0000
,
0000
3001
0000
0000
;

//---------------dance-single - ----------------
#NOTES:
     dance-single:
     :
     Beginner:
     3:
     0.152014,0.220561,0.043611,0.000000,0.000000,122.000000,117.000000,5.000000,0.000000,0.000000,0.000000,0.152014,0.220561,0.043611,0.000000,0.000000,122.000000,117.000000,5.000000,0.000000,0.000000,0.000000:
0000
0000
0000
0000
,
0000
0000
0000
0000
,
0000
0000
0000
0000
,
0000
0000
0000
0000
,
0000
0000
0000
0000
,
0000
1000
0000
1000
,
0000
0001
0000
0001
,
0000
1000
0000
1000
,
0000
0001
0000
0001
,
0001
0000
0000
0000
,
1000
0000
0000
0000
,
0001
0000
0000
0000
,
1000
0000
0000
0000
,
0010
0000
0000
0000
,
0010
0000
0000
0000
,
0010
0000
0000
0000
,
1001
0000
0000
0000
,
1000
0000
0000
0000
,
0100
0000
0100
0000
,
1000
0000
0000
0000
,
0001
0000
0001
0000
,
0100
0000
0000
0000
,
0010
0000
0010
0000
,
1000
0000
0000
0000
,
0001
0000
0010
0010
,
0000
0001
0000
1000
,
0000
0001
0000
1000
,
0000
0001
0000
1000
,
0000
0001
0000
1000
,
0000
0100
0000
0010
,
0000
0001
0000
1000
,
0000
0001
0000
1000
,
1000
1000
0000
0000
,
0001
0000
0001
0000
,
0100
0000
0100
0000
,
0001
0000
0001
0000
,
0010
0000
0010
0000
,
0100
0000
0100
0000
,
1000
0000
1000
0000
,
0010
0000
0010
0000
,
1000
0000
1001
0000
,
1000
0000
0010
0000
,
0001
0000
0010
0000
,
1000
0000
0100
0000
,
0001
0000
0100
0000
,
0100
0000
0100
0000
,
0100
0000
0010
0000
,
0010
0000
0010
0010
,
0010
0000
1001
0000
,
0000
0000
0000
0000
,
0000
0000
1001
0000
,
0000
0000
0000
0000
,
0000
0000
0001
0000
,
0001
0000
1000
0000
,
1000
0000
0001
0000
,
1000
0000
1001
0000
,
0000
0000
1000
0000
,
0000
0000
0010
0000
,
0010
0000
0100
0000
,
0000
0000
0001
0000
,
0001
0000
0010
0000
,
0000
0000
0100
0000
,
0100
0000
1000
0000
,
0000
0000
0001
0000
,
0001
0010
0000
0001
,
0000
0100
0000
0010
,
0000
1000
0000
0001
,
0000
0010
0000
0100
,
0000
1000
0000
1000
,
0000
0001
0000
0001
,
0000
1000
0000
0001
,
0000
1000
1000
0100
,
0010
0001
0000
0000
;
