#TITLE:Fancy Footwork;
#SUBTITLE:(Gun's 'N Bombs Remix);
#ARTIST:Chromeo;
#TITLETRANSLIT:;
#SUBTITLETRANSLIT:;
#ARTISTTRANSLIT:;
#GENRE:;
#CREDIT:;
#BANNER:Fancy Footwork (Gun's 'N Bombs Remix).png;
#BACKGROUND:Fancy Footwork (Gun's 'N Bombs Remix)-bg.png;
#LYRICSPATH:;
#CDTITLE:;
#MUSIC:02. Chromeo - Fancy Footwork (Gun's 'N Bombs Remix).ogg;
#OFFSET:0.020000;
#SAMPLESTART:66.474716;
#SAMPLELENGTH:14.769234;
#SELECTABLE:YES;
#BPMS:0.000000=130.000000
;
#STOPS:
;
#BGCHANGES:;
#KEYSOUNDS:;
#ATTACKS:;

//---------------dance-single - ----------------
#NOTES:
     dance-single:
     :
     Challenge:
     15:
     0.654193,0.736421,0.093111,0.143898,0.782976,541.000000,530.000000,11.000000,17.000000,0.000000,0.000000,0.654193,0.736421,0.093111,0.143898,0.782976,541.000000,530.000000,11.000000,17.000000,0.000000,0.000000:
// measure 0
0000
0000
0000
0000
,  // measure 1
0000
0000
0000
0000
,  // measure 2
0000
0000
0000
0000
,  // measure 3
0000
0000
0000
0000
,  // measure 4
1000
0000
0000
0100
0000
0000
0001
0000
0000
0100
0000
0000
1000
0000
0100
0000
,  // measure 5
0010
0000
0000
0001
0000
0000
1000
0000
0002
0000
0000
0000
0203
0000
0000
0000
,  // measure 6
1300
0100
0001
0100
1000
0100
0001
0100
,  // measure 7
1000
0000
0000
0100
0000
0000
0001
0000
0000
0010
0000
0000
0100
0000
1000
0000
,  // measure 8
0001
0000
0000
0100
0000
0000
1000
0000
0000
0100
0000
0000
0001
0000
0100
0000
,  // measure 9
0010
0000
0000
1000
0000
0000
0001
0000
2000
0000
0000
0000
3200
0000
0000
0000
,  // measure 10
0301
0100
1000
0100
0001
0100
1000
0100
,  // measure 11
0001
0000
0000
0100
0000
0000
1000
0000
0000
0010
0000
0000
0100
0000
0000
0000
,  // measure 12
1001
0000
0000
0001
0000
0000
0001
0000
0000
0001
0100
0010
0000
0100
0001
0000
,  // measure 13
0000
0000
0000
0000
0000
0000
0001
0000
0000
1000
0000
0000
0000
0000
0000
0001
0000
0000
0010
0000
0000
0100
0000
0000
0000
0000
0000
0010
0000
0000
0001
0000
0000
0000
0000
0000
1000
0000
0000
0000
0000
0000
0010
0000
0100
0000
0010
0000
,  // measure 14
1000
0000
0000
0000
0000
0000
0001
0000
1000
0000
0001
0000
0010
0000
0000
0000
0000
0000
0100
0000
0010
0000
0100
0000
1000
0000
0000
0000
0000
0000
0100
0000
0000
0010
0000
0000
0000
0000
0000
0001
0000
0000
0010
0000
0000
0100
0000
0000
,  // measure 15
0000
1000
0100
0000
0010
0000
0100
1000
0000
1000
0100
0010
0001
0000
2000
0000
,  // measure 16
3001
0000
0000
0100
0000
0000
1000
0100
1000
0000
0100
0010
0000
1000
0001
0000
,  // measure 17
0010
0000
0010
0100
0000
0000
0100
0010
0000
0010
0001
0000
1000
0000
1000
0000
,  // measure 18
0001
0000
0000
0010
0100
0010
0001
0000
0000
1000
0001
1000
0010
0000
0000
0100
0010
0100
0001
0000
0000
1000
0000
0000
,  // measure 19
0001
0010
0100
1000
0000
0010
0100
0001
1000
0100
0010
0000
0100
0010
0001
1000
,  // measure 20
0001
0000
0100
0000
0100
0000
1000
0000
0100
0000
0100
0001
0100
0000
0001
0000
,  // measure 21
0010
0000
0100
0000
0010
0100
1000
0010
0100
0010
0100
0010
2000
0000
0000
0000
,  // measure 22
3001
0000
0000
1100
0000
0000
0001
0000
0000
1100
0000
0000
1001
0000
0000
1000
,  // measure 23
0100
0000
0000
0010
0100
0000
1000
0100
0000
0010
0100
1000
0001
0000
1000
0001
,  // measure 24
1000
0000
0100
0000
0100
0000
0001
0000
0100
0000
0100
1000
0100
0000
1000
0000
,  // measure 25
0010
0000
0100
0000
0010
0100
0001
0010
0100
0010
0100
0010
0002
0000
0000
0000
,  // measure 26
1003
0010
0100
0000
1010
0000
1001
0000
1000
0100
0000
0010
0100
0000
0000
0000
,  // measure 27
1000
0000
0000
0100
0010
0000
0001
0000
0100
0000
0000
0000
1000
0100
0010
1000
,  // measure 28
0001
0000
0010
0000
0100
0000
1000
0010
0100
0000
0001
0010
0100
0000
1000
0000
,  // measure 29
0010
0000
0100
0000
1000
0100
0010
0000
1000
0100
0010
0001
2000
0000
0000
0000
,  // measure 30
3001
0000
0001
0010
0000
0010
0100
0000
0100
1000
0000
1000
0001
0000
0110
0000
,  // measure 31
1001
0000
0000
0000
0000
0000
1000
0000
0000
0010
0000
0000
0000
0000
0000
0010
0000
0000
0100
0000
0000
0000
0000
0000
0100
0000
0000
0001
0000
0000
0000
0000
0000
0001
0000
0000
1000
0000
0000
0000
0000
0000
0010
0000
0100
0000
0010
0000
,  // measure 32
1000
0000
0001
0000
1000
0000
0001
0010
0100
0000
1000
0010
0100
0000
0001
0000
,  // measure 33
0010
0000
0100
0000
0001
0100
0010
0000
0001
1000
0000
0010
0200
0000
0000
0000
,  // measure 34
0310
0000
0100
1000
0000
0100
0010
0000
0100
0010
0000
0100
0001
0000
0011
0000
,  // measure 35
0010
0000
0100
0001
0000
0100
0010
0000
0100
0010
0000
0100
1000
0000
0001
0000
,  // measure 36
1001
0000
1000
0000
0100
0000
0010
0100
1000
0000
0001
0100
0010
0000
0100
0000
,  // measure 37
1000
0000
0000
1000
0000
0000
1000
0000
1000
0100
0010
1000
0001
0000
0010
0000
,  // measure 38
1000
0000
0010
0000
0001
0000
1000
0100
0010
0000
0100
1000
0010
0000
0100
0000
,  // measure 39
1000
0000
0001
0000
0010
0000
0100
0000
0010
1000
0001
0010
0100
0000
1000
0000
,  // measure 40
1000
0000
0001
0000
0100
0000
0010
0100
0001
0000
1000
0100
0010
0000
0100
0000
,  // measure 41
0001
0000
0000
0001
0000
0000
0001
0000
0001
0100
0010
0001
1000
0000
0010
0000
,  // measure 42
0001
0000
0010
0000
1000
0000
0001
0100
0010
0000
0100
0001
0010
0000
0100
0000
,  // measure 43
0001
1000
0010
0100
1000
0001
1000
0000
,  // measure 44
0001
0000
0100
0010
0000
0100
0000
1000
0000
0100
0000
0010
0000
0010
0100
0010
,  // measure 45
1000
0000
0100
0010
0000
0100
0001
0100
0020
0000
0100
0000
0032
0000
1000
0000
,  // measure 46
1003
0000
0100
0010
0000
0100
0000
0001
0000
0100
0000
0010
0000
0010
0100
0010
,  // measure 47
0001
0000
0100
0010
0000
0100
1000
0100
0010
0000
0100
0010
0000
0100
0001
0010
,  // measure 48
0100
0000
0010
0001
0000
0100
0000
0010
0000
0001
0000
1000
0000
1000
0100
0010
,  // measure 49
0100
0000
0010
1000
0000
0100
0010
0100
2000
0000
0001
0000
3020
0000
0100
0000
,  // measure 50
0130
0000
0010
1000
0000
0001
0000
0010
0000
0100
0000
0001
0000
0001
0100
0010
,  // measure 51
0100
0000
0010
0001
0000
0100
0010
1000
0001
0000
0010
0100
0000
1000
0000
0010
,  // measure 52
0100
0000
0000
0000
1001
0000
0001
0100
0001
0000
0001
0010
2000
0000
0000
0000
,  // measure 53
3001
0000
0100
0000
1000
0000
0001
0010
0001
0000
0001
0100
2000
0000
0000
0000
,  // measure 54
3100
0000
0001
0000
0100
0000
1000
0100
0010
0000
0100
0001
0000
0001
0010
0000
,  // measure 55
0001
0000
0010
0000
0100
0000
1000
0100
0010
0000
0010
0001
1000
0000
1000
0000
,  // measure 56
0001
0000
0100
0000
0010
0000
1000
0100
1000
0000
1000
0010
0002
0000
0000
0000
,  // measure 57
1003
0000
0100
0000
0001
0000
1000
0010
1000
0000
1000
0100
0002
0000
0000
0000
,  // measure 58
0103
0000
1000
0000
0100
0000
0001
0100
0010
0000
0100
1000
0000
1000
0010
0000
,  // measure 59
1000
0000
0000
0000
0000
0000
0010
0000
0000
0000
0000
0000
0100
0000
0000
0000
0000
0000
0001
0000
0000
0100
0000
0000
0010
0000
0000
0000
0000
0000
0010
0000
0000
1000
0000
0000
0001
0000
0000
0000
0000
0000
0100
0000
0010
0000
0100
0000
,  // measure 60
0001
0000
0000
0000
;
