#TITLE:FREEZER BURN;
#SUBTITLE:;
#ARTIST:VERTICAI & vective present ‹WΛV²›;
#TITLETRANSLIT:;
#SUBTITLETRANSLIT:;
#ARTISTTRANSLIT:;
#GENRE:Drumcore;
#CREDIT:;
#BANNER:FREEZER BURN.png;
#BACKGROUND:FREEZER BURN-bg.png;
#LYRICSPATH:;
#CDTITLE:;
#MUSIC:FREEZER BURN.ogg;
#OFFSET:-0.020000;
#SAMPLESTART:32.049210;
#SAMPLELENGTH:16.000000;
#SELECTABLE:YES;
#BPMS:0.000000=180.000000
,164.000000=170.000000
,168.000000=160.000000
,170.000000=150.000000
,172.000000=140.000000
,174.000000=130.000000
,268.000000=190.000000
,336.000000=220.000000
;
#STOPS:
;
#BGCHANGES:;
#KEYSOUNDS:;
#ATTACKS:;

//---------------dance-single - ----------------
#NOTES:
     dance-single:
     :
     Hard:
     15:
     0.738769,0.875786,0.194706,0.186917,0.568540,664.000000,639.000000,25.000000,24.000000,0.000000,0.000000,0.738769,0.875786,0.194706,0.186917,0.568540,664.000000,639.000000,25.000000,24.000000,0.000000,0.000000:
0000
0000
0000
0000
,
0000
0000
0000
0000
,
0000
0000
0000
0000
,
0000
0000
0000
0000
,
1000
0000
0100
0000
0010
0000
0000
0100
1000
0000
0001
0000
0010
0000
0001
0000
,
1000
0000
0010
0000
0100
0000
0000
0010
1000
0000
0001
0000
0100
0010
0100
0000
,
0001
0000
0010
0000
0100
0000
0000
0010
0001
0000
1000
0000
0100
0000
1000
0000
,
0001
0000
0200
0000
0010
0000
0000
0010
0000
0000
0310
0000
1001
0000
0000
0000
,
1000
0000
0100
0000
0001
0000
0100
0000
0000
0000
0100
0010
0001
0000
1000
0000
,
0001
0000
0010
0000
1000
0000
0000
0010
0000
0000
0010
0000
0100
0000
1000
0000
,
0001
0000
0100
0000
1000
0000
0100
0000
0000
0000
0100
0010
1000
0000
0001
0000
,
1000
0000
0010
0000
0001
0000
0000
1000
0100
0000
0001
0000
0100
0000
0010
0000
,
1000
0000
0010
0000
0100
0000
0100
0000
0000
0000
0001
1000
0001
0000
0010
0000
,
0001
0000
0100
0000
0010
0000
0000
0010
0000
0000
1000
0000
0010
0000
0100
0000
,
0001
0000
0010
0000
0100
0000
0100
0000
0000
0000
1000
0001
1000
0000
0010
0000
,
1000
0000
0100
0000
0010
0000
0000
0010
0100
0000
1000
0000
0002
0000
0000
0000
,
0023
0000
0100
0000
0000
0000
1030
0020
,
0000
0000
0100
0000
0000
0000
0031
2000
,
0000
0100
0000
3020
,
0130
0001
1000
1100
0000
1010
1000
0000
,
0001
0000
0100
0000
0010
0000
0100
0000
0001
0000
0100
0010
1000
0000
0001
0000
,
1000
0000
0010
0000
0100
0000
0010
0000
1000
0000
0010
0100
0001
0000
1000
0000
,
0001
0000
0001
0000
0001
0000
0001
0000
0001
0100
0001
0000
1000
0100
1000
0000
,
0010
0000
0000
0000
0110
0000
0000
0000
0010
0000
0010
0000
1000
0001
1000
0001
,
0020
0000
0130
1000
0100
0010
0001
0010
,
0100
0000
1000
0000
0001
0000
0100
0000
0010
0000
1000
0000
0010
0100
0000
0100
,
0002
0000
1003
0010
0100
0001
0100
0010
,
1000
0001
0010
0100
1000
0100
0020
0000
,
0031
1000
0001
1000
0001
0000
0010
0000
1000
0000
0010
0000
0001
0000
1000
0000
,
0001
0100
1000
0100
0001
1000
0010
2001
,
0000
0000
3001
0010
1000
0010
0001
1000
,
0010
0000
0100
0000
0010
0000
0100
0000
0220
0000
0000
0000
0000
0330
0000
0000
,
0010
1000
0010
0000
0100
0001
0100
0000
0001
0000
1000
0010
0000
1000
0001
0000
,
0010
0001
0010
0000
0100
1000
0100
0000
0010
0000
0001
1000
0000
0001
0010
0000
,
0100
1000
0001
0000
0100
0001
1000
0000
0001
0000
0001
0100
0000
0100
0010
0000
,
1000
0001
0010
0000
0001
1000
0010
0000
1000
0000
1000
0001
0000
0001
0100
0000
,
0001
0100
0001
0000
1000
0010
1000
0000
0001
0000
0100
0001
0000
1000
0100
0000
,
1000
0100
1000
0000
0001
0010
0001
0000
0100
0000
0010
1000
0000
0001
0010
0000
,
0001
0000
1000
0000
0100
0000
1000
0000
0001
0000
0100
0001
0000
1000
0010
0000
,
0100
0000
0000
0100
0001
0000
0000
0001
1000
0000
1000
0000
0100
0010
0100
0000
,
0020
0000
0000
0000
0100
0000
0000
0100
0030
0000
0100
1000
0000
0000
1000
0000
,
0002
0000
0000
0000
0100
0000
0000
1000
0003
0000
1000
0001
0000
0000
0100
0000
,
0020
1030
0102
1003
,
0210
0000
0000
0000
0301
0000
0000
0000
1010
0000
0010
0000
0100
0001
0100
0001
,
1000
0000
0000
0100
0010
0000
0100
0000
0001
0000
0000
0100
0010
0000
0100
0000
,
1000
0000
0001
0000
0100
0000
0010
0000
1000
0000
0000
0100
0001
0000
0100
0000
,
0110
0000
1000
0000
0010
0000
0001
0000
1001
0000
0000
0001
0100
0000
0010
0000
,
1000
0000
0000
1000
0000
0000
0100
0000
0000
0100
0000
0000
0001
0000
0100
0000
1000
0000
0001
0000
0000
0010
0000
0000
,
0200
0000
0000
0000
1000
0000
0000
0000
0001
0000
0000
0001
0000
0000
0310
0000
,
0001
0000
0200
0000
1000
0000
0000
0000
0010
0000
0000
0010
0000
0000
0301
0000
,
1000
0100
0011
0000
1000
0010
0101
0000
,
1000
0000
0000
1000
0000
0000
0001
0000
0000
0001
0000
0000
0100
0000
0010
0000
0100
0000
0010
0000
0000
0010
0000
0000
,
1000
0000
0001
0100
0010
0100
0010
0000
0001
0000
0010
0000
1000
0001
1000
0000
,
0100
0010
0100
0000
1000
0001
0100
0000
1000
0000
0100
0001
1000
0000
0010
0000
,
0100
0000
0001
0010
0100
0010
0001
0000
1000
0000
0010
0100
0010
1000
0001
0000
,
0010
0000
0110
0000
0100
0000
0110
0000
0001
1000
0001
1000
0100
0000
0110
0000
,
0001
0000
0100
0000
1000
0000
1000
0100
0001
0000
0001
0000
1000
0000
1000
0000
,
0001
0000
0010
0000
1000
0000
1000
0010
0001
0000
0001
0010
0100
0000
1000
0000
,
0001
0000
0100
0010
0100
0000
1000
0000
0001
0000
0010
0100
0010
0000
1000
0000
,
0001
0001
0100
0010
0010
1000
0100
0010
0100
2000
0000
3000
,
0011
0000
0001
0010
0000
0000
0000
0000
0000
0000
0000
0000
0000
0000
0010
0000
,
1010
0000
1000
0010
0000
0000
0000
0000
0000
0000
0000
0000
0000
0000
0100
0000
,
0101
0000
0001
1000
0000
0000
0000
0000
0000
0000
0000
0000
0000
0000
0100
0000
,
1100
0000
0000
0000
0000
0000
1000
0000
0000
0100
0000
0000
0000
0000
0000
0100
0000
0000
0010
0000
0000
0000
0000
0000
0001
0000
0000
0000
0000
0000
0100
0000
0000
0000
0000
0000
0010
0000
0000
0000
1000
0000
0000
0000
0001
0000
0000
0000
,
0010
0000
0010
0100
0010
0000
0010
1000
0010
0000
0010
0001
0010
0000
0000
0000
,
0100
0000
0100
0010
0100
0000
0100
1000
0100
0000
0100
0001
0100
0000
0000
0000
,
1002
0000
0203
0000
,
0310
0000
0000
0000
,
1000
0000
0000
1000
0010
0000
0000
0010
0001
0000
0000
0001
1000
0000
0000
1000
,
0100
0000
0000
0100
0001
0000
0000
0001
1000
0000
0000
1000
0001
0000
0000
0001
,
0010
0000
0000
0010
1000
0000
0000
1000
0001
0000
0000
0001
0100
0000
0000
0100
,
0010
0000
0010
0100
0000
0000
0100
0001
0000
0000
0001
0100
0000
0000
0100
0000
,
0110
0000
0000
1000
0001
0000
0000
0010
0100
0000
0000
0001
1000
0000
0000
0010
,
0100
0000
0000
1000
0001
0000
0000
0100
0010
0000
0000
0001
1000
0000
0000
0100
,
0010
0000
0000
1000
0100
0000
0000
0001
0100
0000
0000
1000
0010
0000
0000
0001
,
0010
0000
0100
1000
0000
0000
1000
0100
0000
0000
0100
0001
0000
0000
1000
0000
,
1001
0001
0010
1000
1000
0010
0001
0001
,
1000
0001
0100
1000
1000
0100
0001
0001
,
1000
1000
0010
0001
0001
0010
1000
1000
,
0001
0000
0000
0001
0100
0000
0010
0000
0100
0000
0010
0000
0110
0000
0000
0000
,
1000
0100
0001
1000
0001
0100
1000
0001
,
1000
0010
0001
1000
0001
0010
1000
0001
,
0100
0010
0100
1000
0100
0010
0100
0001
,
1000
0000
1000
0000
1000
0000
0000
0001
0100
0000
0001
0000
0020
0000
0000
0000
,
0031
1000
0001
0000
0000
0000
1000
0001
1000
0000
0000
0000
,
0001
1000
0001
1000
0001
1000
0010
0000
0100
0000
0110
0000
,
0002
0000
0003
0000
;

//---------------dance-single - ----------------
#NOTES:
     dance-single:
     :
     Challenge:
     16:
     0.914560,0.909470,0.412776,0.085670,0.872281,822.000000,769.000000,53.000000,11.000000,0.000000,0.000000,0.914560,0.909470,0.412776,0.085670,0.872281,822.000000,769.000000,53.000000,11.000000,0.000000,0.000000:
// measure 0
0000
0000
0000
0000
,  // measure 1
0000
0000
0000
0000
,  // measure 2
0000
0000
0000
0000
,  // measure 3
0000
0000
0000
0000
,  // measure 4
1000
0100
1000
0000
0001
0000
1000
0010
1000
0000
0001
0000
0100
0000
0010
0000
,  // measure 5
1000
0010
1000
0000
0001
0000
1000
0100
1000
0000
0001
0000
0001
0000
1000
0000
,  // measure 6
0001
0100
0001
0000
1000
0000
0001
0010
0001
0000
0100
0000
0001
1000
0001
0000
,  // measure 7
0001
0100
0001
0000
1000
0010
1000
0000
0001
0010
0001
0000
0021
0000
0000
0000
,  // measure 8
0130
0000
1000
0000
0001
0000
1000
0000
1000
0100
0000
0100
0010
0000
0001
0000
,  // measure 9
0100
0000
0001
0000
1000
0000
0000
0001
0000
0100
0001
0100
0010
0000
0100
0000
,  // measure 10
0010
0000
1000
0000
0001
0000
1000
0000
1000
0010
0000
0010
0100
0000
0001
0000
,  // measure 11
0010
0000
0001
0000
1000
0000
1000
0001
0000
1000
0010
0000
0100
0000
0001
0000
,  // measure 12
0010
0000
0100
0000
1100
0000
0100
0000
1000
0001
0000
0001
0010
0000
0100
0000
,  // measure 13
1000
0000
0001
0000
0101
0000
0000
0100
0010
1000
0010
0000
0100
0000
0001
0000
,  // measure 14
1000
0000
0010
0000
1010
0000
0010
0000
1000
0001
0000
0001
0100
0000
0001
0000
,  // measure 15
0010
0000
0001
0000
1001
0000
0000
1000
0010
0000
0100
0000
0120
0000
0000
0000
,  // measure 16
1030
0000
0001
0100
0010
0000
1000
0000
0001
0010
0100
0000
0020
0000
0001
0000
,  // measure 17
0031
0000
1000
0100
0010
0000
0001
0000
1000
0010
0100
0000
0020
0000
1000
0000
,  // measure 18
1030
0000
0001
1000
0010
0000
1000
0000
0001
1000
0100
0000
0020
0000
0001
0000
,  // measure 19
0031
1000
0100
0011
0000
1010
0010
0100
,  // measure 20
0001
0000
0100
0010
1000
0000
0001
0000
1000
0010
0100
0000
0020
0000
1000
0000
,  // measure 21
1030
0000
0100
0010
0001
0000
1000
0000
0001
0010
0100
0000
0020
0000
0001
0000
,  // measure 22
0031
0000
0001
0000
1000
0000
1000
0000
0001
0100
0001
1000
0100
1000
0001
0100
,  // measure 23
0010
0000
1000
0000
1001
0000
0000
0000
1001
0000
0001
0000
0100
0010
0100
0001
,  // measure 24
2000
0000
0000
0000
3001
0000
0100
0000
0001
0000
0100
0001
0100
0000
0010
0000
,  // measure 25
0100
0000
0001
0000
0100
0000
0001
0000
1000
0001
1000
0001
0100
0001
0000
0100
,  // measure 26
0010
0000
0000
0000
1000
0000
0100
0000
1000
0000
0100
1000
0100
0000
0010
0000
,  // measure 27
0100
0000
1000
0000
1100
0000
1000
0000
0001
1000
0001
0000
0011
0000
0000
0000
,  // measure 28
0010
0100
0010
0100
0010
0000
0001
0000
0100
0000
0001
0100
0001
0000
0010
0000
,  // measure 29
0001
0000
0010
0000
0001
0000
0100
0000
0001
0100
0001
0000
0101
0000
1020
0000
,  // measure 30
0000
0000
0000
0000
1030
0000
1000
0000
1000
0000
0001
0100
0001
0000
1000
0000
,  // measure 31
0001
0001
0011
0010
0110
0000
1000
0000
,  // measure 32
0001
0010
0001
0000
0010
0100
0010
0000
0001
0000
1000
0100
0000
1000
0001
0000
,  // measure 33
1000
0010
1000
0000
0010
0100
0010
0000
1000
0010
0000
0100
0000
0100
0001
0000
,  // measure 34
0100
0001
0100
0000
0010
0100
0010
0000
1000
0000
0001
0100
0000
0001
0010
0000
,  // measure 35
0100
0010
0100
0000
1000
0100
1000
0000
0100
1000
0001
1000
0001
0010
0100
0000
,  // measure 36
1000
0100
0010
0000
0001
0010
0100
0000
0100
0000
1000
0001
0000
0001
0100
0000
,  // measure 37
0001
0100
0010
0000
1000
0010
0100
0000
0001
1000
0000
0100
0000
0100
0010
0000
,  // measure 38
0001
1000
0010
0000
1000
0010
0100
0000
0010
0100
0001
1000
0000
1000
0001
0010
,  // measure 39
0100
0000
0010
0100
1000
0000
0100
1000
0001
0000
1000
0001
0100
0000
0001
0100
,  // measure 40
0010
0000
0000
0000
1010
0000
0000
0000
0100
0001
0100
0001
0100
0000
0000
0000
,  // measure 41
1000
0000
0000
0000
0011
0000
0000
0000
0100
1000
0000
1000
0100
0000
0000
0000
,  // measure 42
0011
0000
0100
0100
1010
0000
0100
0100
,  // measure 43
0011
0000
0000
0001
0101
0000
0000
1000
0010
0000
0010
0000
0001
0010
1000
0010
,  // measure 44
0100
0000
0000
0001
1000
0000
0001
0000
0010
0000
0000
0001
1000
0000
0001
0000
,  // measure 45
0100
0000
1000
0000
1000
0000
0100
0000
0001
0000
0000
1000
0100
0000
0001
0000
,  // measure 46
1000
0000
0010
0000
0001
0000
0010
0000
0100
0000
1000
0001
0100
0000
0110
0000
,  // measure 47
1000
0000
0000
0110
0000
0000
0001
0000
0000
0110
0000
0000
1000
0000
0001
0000
1000
0000
0010
0000
0000
0010
0000
0000
,  // measure 48
0100
0000
0100
0001
0010
0000
0100
0000
0010
0000
0100
1000
0010
0000
0100
0000
,  // measure 49
0001
0000
0101
0000
1000
0000
1100
0000
0001
0000
0000
0110
0000
0000
1000
0000
,  // measure 50
0001
0000
0010
0001
0100
0000
0001
0000
1000
0000
0010
1000
0100
0000
1000
0000
,  // measure 51
0001
0010
0100
0000
1000
0010
0100
0000
0001
1000
0001
1000
1010
0000
0110
0000
,  // measure 52
0001
0000
1000
0010
0001
0000
1000
0000
0100
0000
1000
0100
0001
0000
1000
0000
,  // measure 53
1000
0000
0001
0010
1000
0000
0001
0000
0100
0010
0100
0010
0100
0000
1000
0000
,  // measure 54
0001
0000
0100
0010
0001
0010
0100
0000
0001
0000
0010
0100
0001
0100
0010
0000
,  // measure 55
0001
0000
1000
0100
0010
0001
1000
0000
0010
0100
0010
0100
0010
0000
1001
0000
,  // measure 56
1001
0000
0000
1000
0100
0000
0100
1000
0001
0000
0000
0001
0100
0000
0100
0001
,  // measure 57
1000
0000
0000
0010
0001
0000
0001
0010
1000
0000
1000
0001
1000
0001
1000
0000
,  // measure 58
0001
0000
0000
0010
1000
0000
1000
0010
0001
0000
0001
1000
0001
1000
0001
0000
,  // measure 59
0100
0000
0100
0000
0010
0000
0100
0000
0100
0000
1000
0000
0100
0000
0100
0000
0001
0000
2000
0000
0000
3000
0000
0000
,  // measure 60
1001
0000
0001
0100
0000
0000
0000
0010
0000
0010
0100
0000
0001
0000
0101
0000
,  // measure 61
1001
0000
1000
0100
0000
0000
0000
0010
0000
0010
0100
0000
1000
0000
1001
0000
,  // measure 62
0101
0000
0000
0010
0000
0000
1000
0100
0000
0010
0001
0000
1000
0000
0001
1000
,  // measure 63
0001
0000
0000
0000
0000
0000
0001
0000
0000
0100
0000
0000
0000
0000
0000
0010
0000
0000
0100
0000
0000
0000
0000
0000
0001
0000
0000
0000
0100
0000
0000
0000
1000
0000
0000
0000
0001
0000
0000
0000
0010
0000
0000
0000
1000
0000
0000
0000
,  // measure 64
0001
0000
0010
0001
0100
0000
0010
1000
0100
0000
0010
0001
0100
0000
0010
1000
,  // measure 65
0001
0000
0100
0001
0010
0000
0100
1000
0010
0000
0100
0001
0010
0000
0100
1000
,  // measure 66
0010
0100
0001
0010
0100
1000
0001
0010
1000
0001
0100
1000
,  // measure 67
0000
0000
0000
0000
,  // measure 68
0001
0000
0010
0100
0000
0000
0010
0001
0000
0000
1000
0010
0000
0000
0010
0100
,  // measure 69
0000
0000
0100
0001
0000
0000
0100
0010
0000
0000
1000
0001
0000
0000
0010
0100
,  // measure 70
0000
0000
1000
0100
0000
0000
0001
0100
0000
0000
1000
0100
0000
0000
0010
0100
,  // measure 71
1000
0000
0001
0100
0001
0000
1000
0010
1000
0000
0001
0010
0001
0000
1000
0000
,  // measure 72
1100
0000
0000
0001
1000
0000
0100
0010
0000
0000
0100
0001
0000
0000
0100
1000
,  // measure 73
0000
0000
0001
0010
0000
0000
0010
1000
0000
0000
0001
0100
0000
0000
0100
1000
,  // measure 74
0000
0000
0010
0001
0000
0000
0010
1000
0000
0000
0001
0010
0000
0000
0010
0100
,  // measure 75
0000
0000
1000
0001
0010
0000
0001
1000
0010
0000
0001
1000
0010
0000
0010
0100
,  // measure 76
0001
0100
0110
0100
0001
1000
1100
1000
,  // measure 77
0001
0010
0110
0010
0001
1000
1010
0010
,  // measure 78
0100
0001
1001
0001
0010
0100
1100
0100
,  // measure 79
0010
0000
0001
0010
0100
0000
1000
0010
0100
0010
1000
0000
0001
0000
0000
0000
,  // measure 80
1000
0010
0011
0001
1000
0010
1010
1000
,  // measure 81
0001
0010
0011
0010
0001
1000
1001
0001
,  // measure 82
1000
0010
0110
0100
0110
0010
0110
0100
,  // measure 83
0001
0000
0001
0000
0001
0000
0000
0100
0010
0000
1000
0000
0001
1000
0001
1000
,  // measure 84
0100
1000
0100
0010
0000
0000
0001
0100
0001
0010
0000
0000
,  // measure 85
0100
1000
0001
0100
0001
1000
0100
0000
0110
0000
1001
0000
,  // measure 86
0200
0000
0300
0000
;

//---------------dance-single - ----------------
#NOTES:
     dance-single:
     :
     Medium:
     13:
     0.577441,0.673681,0.186917,0.124612,0.237541,519.000000,495.000000,24.000000,16.000000,0.000000,0.000000,0.577441,0.673681,0.186917,0.124612,0.237541,519.000000,495.000000,24.000000,16.000000,0.000000,0.000000:
0000
0000
0000
0000
,
0000
0000
0000
0000
,
0000
0000
0000
0000
,
0000
0000
0000
0000
,
1000
0100
0010
0000
0010
0100
1000
0000
,
0001
0100
0010
0000
0010
0100
0001
0000
,
1000
0000
0001
0000
1000
0100
0001
0100
,
1000
1000
0001
1001
,
1000
0000
0000
0000
0010
0000
0100
0000
0000
0100
0000
0000
0001
0000
1000
0000
,
0100
0000
0000
0000
0010
0000
0000
0100
0000
0000
0100
0000
1000
0000
0001
0000
,
0100
0000
0000
0000
0010
0000
0100
0000
0000
0100
0000
0000
0001
0000
1000
0000
,
0100
0000
0000
0000
0010
0000
0000
0001
0000
0000
0100
0000
0010
0000
0000
0100
,
0001
0000
0000
0000
1001
0000
0100
0000
0000
0100
0000
0000
0110
0000
0000
0000
,
0001
0000
0000
0000
1010
0000
0000
0100
0000
0000
0100
0000
0011
0000
0000
0000
,
1000
0000
0000
0000
0011
0000
1000
0000
0000
1000
0000
0000
0101
0000
0100
0000
,
0010
0000
0000
0000
1000
0000
0000
0100
0020
0000
0000
0000
0031
0000
0000
0000
,
0002
0000
1000
0000
0000
0000
0103
0020
,
0000
0000
1000
0000
0000
0000
0130
0002
,
0000
1000
0000
0023
,
0130
0001
0100
1000
0000
1000
0001
0000
,
1000
0010
1000
0000
0001
0010
0001
0000
,
0100
0010
0100
0000
0010
0100
0010
0000
,
1000
0100
0001
0100
1000
0010
0100
0001
,
1000
0000
0001
0000
0001
0001
0002
0000
,
0000
0000
1003
0100
0010
0100
1000
0100
,
0010
0001
0100
0010
0100
0001
2000
0010
,
0000
0000
3001
0100
0010
0100
0001
0010
,
0100
1000
0100
0010
0100
2000
0000
0000
,
3100
0100
0100
0010
0100
1000
0001
0100
,
0010
0100
0001
1000
0100
1000
0001
0020
,
0000
0000
0130
0010
0001
1000
0010
0100
,
0010
0000
0100
0100
0020
0000
0030
0000
,
1000
0010
1000
0100
0001
0100
1000
0000
,
0001
0010
0100
0001
0100
1000
0001
0000
,
1000
0010
0100
1000
0100
0001
1000
0000
,
0001
0010
0001
0100
1000
0100
0010
0000
,
1000
0100
0010
0001
0010
0100
1000
0000
,
0001
0100
0010
1000
0010
0100
0001
0000
,
1000
0100
0001
0100
1000
0010
0100
0000
,
0001
0000
1000
0000
0001
0001
1000
1000
,
1001
0100
0000
0100
,
1010
0000
0100
0000
0000
0100
0000
0000
,
0011
0100
1010
0001
,
1100
0000
0000
0000
1001
0000
0000
0001
0100
0000
0010
0000
2000
0000
0000
0000
,
3001
0000
0010
0000
0100
0000
0010
0000
0001
0000
0000
0001
0100
0000
0010
0000
,
1000
0000
0010
0000
0100
0000
0010
0000
1000
0000
0000
1000
0001
0000
0010
0000
,
0100
0000
0000
0100
0010
0000
0001
0000
0100
0000
0000
0100
0010
0000
1000
0000
,
0001
0010
1000
0010
0001
1000
0001
1000
,
0001
0100
0010
0000
0001
0010
0100
0000
,
1000
0100
0010
0000
1000
0001
1000
0000
,
0001
0000
0000
0001
0010
0000
0000
0010
0100
0000
0000
0100
1000
0000
0000
1000
,
0001
1000
0001
0000
0010
0010
0010
0000
,
0110
0000
0000
1000
0001
0000
0000
0000
0010
0000
0000
0001
1000
0000
0000
0000
,
0010
0000
0000
0100
0001
0000
0000
0000
0010
0000
0000
0100
1000
0000
0001
0000
,
1000
0000
0000
0010
0001
0000
0010
0000
1000
0000
0000
0010
0001
0000
0010
0000
,
0100
0000
0100
0000
0110
0000
0000
0000
0001
1000
0001
1000
0001
0000
1000
0000
,
1001
0000
0000
0100
0010
0000
0100
0000
0001
0000
0000
0100
0010
0000
0100
0000
,
1000
0000
0000
0100
0010
0000
0100
0000
0001
0000
0000
0000
0110
0000
0000
0000
,
1000
0100
0001
0000
0001
0010
1000
0000
,
0001
0000
0001
1000
0000
1000
0002
0000
0000
0203
0000
0000
,
0310
0000
0000
0010
0000
0000
0000
0000
0000
0000
0000
0000
0000
0000
1000
0000
,
1001
0000
0000
0001
0000
0000
0000
0000
0000
0000
0000
0000
0000
0000
0100
0000
,
0110
0000
0000
0010
0000
0000
0000
0000
0000
0000
0000
0000
0000
0000
0001
0000
,
1001
1000
0100
0000
0010
0001
0010
0000
,
1100
0000
0001
0100
0010
0000
1000
0000
,
0101
0000
1000
0100
0010
0000
0001
0000
,
1000
0010
0001
0100
,
0000
0000
0000
0000
,
1000
0000
0000
1000
0010
0000
0000
0010
0100
0000
0000
0100
0001
0000
0000
0001
,
1000
0000
0000
1000
0100
0000
0000
0100
0010
0000
0000
0010
0001
0000
0000
0001
,
0100
0000
0000
0100
0010
0000
0000
0010
1000
0000
0000
1000
0010
0000
0000
0010
,
0100
0010
0000
1000
0000
0001
0000
0010
,
0100
0000
0000
1000
0001
0000
0000
0001
0010
0000
0000
0010
0100
0000
0000
0100
,
1000
0000
0000
1000
0010
0000
0000
0010
0100
0000
0000
0100
0001
0000
0000
0001
,
1000
0000
0000
1000
0100
0000
0000
0100
0001
0000
0000
0001
0100
0000
0000
0100
,
0000
0100
0000
1000
0000
0100
0000
1000
,
0001
0010
0100
0010
1000
0010
0001
0000
,
0001
0100
0010
0100
1000
0100
0001
0000
,
1000
0010
0001
0010
1000
0010
0100
0000
,
0001
0000
0000
0100
0010
0000
0000
0000
1000
0000
0001
0000
1000
0000
0000
0000
,
0001
0010
1000
0010
0001
0010
1000
0000
,
0001
0100
1000
0100
0001
0100
1000
0000
,
0001
0100
1000
0100
0010
0100
0010
0100
,
0001
0001
0001
0000
1000
0100
0020
0000
,
0031
0100
1000
0010
,
0100
0000
0000
0100
0000
0000
0110
0000
1000
0000
0001
0000
,
2002
0000
3003
0000
;

//---------------dance-single - ----------------
#NOTES:
     dance-single:
     :
     Easy:
     8:
     0.367159,0.572629,0.171341,0.506234,0.000000,330.000000,308.000000,22.000000,65.000000,0.000000,0.000000,0.367159,0.572629,0.171341,0.506234,0.000000,330.000000,308.000000,22.000000,65.000000,0.000000,0.000000:
0000
0000
0000
0000
,
0000
0000
0000
0000
,
0000
0000
0000
0000
,
0000
0000
0000
0000
,
1000
0001
0010
0001
,
0100
0010
1000
0010
,
0100
0001
1000
0100
,
0010
0010
0020
0030
,
0001
0200
0300
0100
,
0010
0200
0300
0100
,
1000
0200
0300
0100
,
0001
0100
1000
0100
,
0001
0020
0030
0010
,
0100
0020
0030
0010
,
1000
0020
0030
0010
,
0001
1000
0010
0100
,
0001
0000
0101
0000
0001
0000
1000
0020
,
0000
0000
1030
0000
0001
0000
1000
0020
,
0000
1030
0001
0100
,
0001
1000
0001
1001
,
1000
0000
1100
0000
1000
0000
0001
0020
,
0000
0000
0031
0000
1000
0000
0001
0200
,
0000
0000
0310
0000
0100
0000
0001
2000
,
0000
3001
0001
0001
,
1001
1000
0100
0010
,
0100
1000
0100
0010
,
0002
1003
0010
0100
,
0001
0100
0010
2000
,
3002
0013
0100
0010
,
0001
0000
1000
0000
0010
0000
0100
0020
,
0000
1030
0001
1000
,
1100
1001
0202
0303
,
0001
0100
0010
1000
,
0001
0000
0100
0000
0010
0000
1000
0001
,
1000
0001
0010
0100
,
1000
0000
0001
0000
0010
0000
0100
0010
,
0100
1000
0001
0100
,
0001
0000
1000
0000
0001
0000
0100
0001
,
0010
0001
1000
0010
,
1000
0001
0010
0100
,
0020
0000
0030
0000
0000
0000
0000
0100
,
0020
0000
0030
0000
0000
0000
0000
0100
,
0020
0000
0030
0100
0020
0000
0030
0000
,
0100
0000
0100
0000
0100
0010
0100
0010
,
0100
1000
0010
1000
,
0100
1000
0010
1000
,
0001
0100
0001
0010
,
0001
0100
0001
0010
,
0100
1000
0001
1000
,
0100
1000
0001
1000
,
0001
0100
0001
1000
,
0010
0010
0020
0030
,
2000
0100
0001
0100
,
0001
0010
0001
3010
,
0002
0100
1000
0100
,
1000
0010
1000
0013
,
2000
0100
0001
0010
,
0001
0100
0001
3010
,
0002
0100
1000
0013
,
1000
1100
0001
0101
,
2000
0000
3000
0000
0000
0000
0000
0001
,
0200
0000
0300
0000
0000
0000
0000
0001
,
0020
0000
0030
0000
0000
0000
0000
0001
,
0002
0023
0230
2300
,
3001
0101
0101
0110
,
0110
1010
1010
1001
,
2002
0000
0000
0000
,
3003
0000
0000
0000
,
1000
0100
0010
0100
,
1000
0010
0100
0010
,
1000
0100
0001
0100
,
1000
1000
0002
1003
,
0001
0100
0010
0100
,
0001
0010
1000
0010
,
0001
1000
0010
0100
,
0002
2003
3002
1003
,
0001
1000
0002
0000
0203
0000
0320
0000
,
2030
3200
0302
0203
,
2300
3020
0230
0302
,
0103
0100
0101
1100
,
0100
0010
0200
0000
2300
0000
3002
0000
,
0203
0320
0230
0302
,
2003
3200
0320
0032
,
1003
0100
1000
0000
0001
0100
0001
0000
,
0101
0000
1100
0000
,
1000
0001
0020
0030
,
2002
0000
3003
0000
;

//---------------dance-single - ----------------
#NOTES:
     dance-single:
     :
     Beginner:
     6:
     0.258124,0.334894,0.116823,0.046729,0.000000,232.000000,217.000000,15.000000,6.000000,0.000000,0.000000,0.258124,0.334894,0.116823,0.046729,0.000000,232.000000,217.000000,15.000000,6.000000,0.000000,0.000000:
0000
0000
0000
0000
,
0000
0000
0000
0000
,
0000
0000
0000
0000
,
0000
0000
0000
0000
,
1000
0000
0100
0000
,
0001
0001
0100
0000
,
1000
0000
0010
0000
,
0001
0001
1000
1000
,
0010
0000
0000
0010
,
1000
0000
0000
1000
,
0001
0000
0000
0001
,
0100
0000
0001
0000
,
0010
0000
0000
0010
,
0001
0000
0000
0001
,
1000
0000
0000
1000
,
0100
0000
0100
0000
,
1000
1000
1000
0000
,
0010
0010
0010
0000
,
0001
0001
0001
0000
,
0100
0000
0100
0000
,
0001
0001
0001
0000
,
0010
0010
0010
0000
,
1000
1000
1000
0000
,
1001
0000
0000
0000
,
0010
0000
0000
0000
,
0010
1000
0010
1000
,
0100
0000
0000
0000
,
0010
0001
0010
0002
,
0003
0000
0000
0000
,
0100
0000
0010
0000
0100
0000
0010
2000
,
0000
3000
0000
0000
,
1001
0110
1001
0000
,
0001
0100
0000
0100
,
0001
0010
0000
0010
,
0001
0000
0001
0000
,
1000
0000
1000
0000
,
0100
1000
0000
0100
,
1000
0010
0000
0010
,
1000
0000
1000
0000
,
0001
0001
0001
0000
,
1001
0000
0000
0000
,
1001
0000
0000
0000
,
1001
0000
0110
0000
,
0001
0010
0100
1000
,
0001
0000
0001
0000
,
1000
0100
1000
0010
,
1000
0000
1000
0000
,
0001
0010
0001
0100
,
0001
0000
0001
0000
,
1000
0100
0001
0100
,
1000
0000
1000
0000
,
1000
0010
0001
0010
,
1000
1000
0010
0010
,
0100
0100
0002
0003
,
0001
0001
0010
0010
,
0100
0100
2000
3000
,
1000
0001
0100
0001
,
1000
0100
2000
3000
,
0001
0010
0001
1000
,
0010
1000
0002
0003
,
1001
0000
0000
0000
,
0101
0000
0000
0000
,
1100
0000
0000
0000
,
1010
0000
0000
0000
,
0011
0001
1000
0001
,
1000
0010
0100
0010
,
0100
0100
0010
0010
,
0110
0000
0000
0000
,
1000
0100
0000
0100
,
0000
1000
0000
1000
,
0000
0001
0000
0001
,
0100
0010
0100
0010
,
0000
1000
0000
1000
,
0000
0001
0000
0001
,
0000
0010
0000
0010
,
0100
0100
0100
0100
,
1000
0000
1000
1000
,
0100
0000
0010
0010
,
0001
0000
1000
1000
,
0010
0100
0010
0100
,
0001
0000
0001
0001
,
0100
0000
0010
0010
,
1000
0000
0001
0001
,
1000
0010
0001
0010
,
1000
0000
0001
0000
,
0010
0010
0010
0000
,
1001
0000
0000
0000
;
