#VERSION:0.83;
#TITLE:FLOW;
#SUBTITLE:(V.I.P. Mix);
#ARTIST:SICK INDIVIDUALS & Mightyfools;
#TITLETRANSLIT:;
#SUBTITLETRANSLIT:;
#ARTISTTRANSLIT:;
#GENRE:Big Room Moombahton;
#ORIGIN:;
#CREDIT:darkanine;
#BANNER:FLOW (V.I.P. Mix).png;
#BACKGROUND:FLOW (V.I.P. Mix)-bg.png;
#PREVIEWVID:;
#JACKET:FLOW (V.I.P. Mix)-jacket.png;
#CDIMAGE:;
#DISCIMAGE:;
#LYRICSPATH:;
#CDTITLE:;
#MUSIC:FLOW (V.I.P. Mix).ogg;
#OFFSET:0.000000;
#SAMPLESTART:98.400002;
#SAMPLELENGTH:18.881508;
#SELECTABLE:YES;
#BPMS:0.000=126.683,
0.500=124.058,
1.000=121.433,
1.500=118.808,
2.000=116.183,
2.500=113.557,
3.000=110.932,
3.500=108.307,
4.000=107.000,
176.000=107.406,
176.500=108.218,
177.000=109.031,
177.500=109.843,
178.000=110.656,
178.500=111.468,
179.000=112.281,
179.500=113.093,
180.000=113.500,
188.000=113.862,
188.500=114.587,
189.000=115.312,
189.500=116.037,
190.000=116.762,
190.500=117.487,
191.000=118.212,
191.500=118.937,
192.000=119.662,
192.500=120.387,
193.000=121.112,
193.500=121.837,
194.000=122.562,
194.500=123.287,
195.000=124.012,
195.500=124.737,
196.000=125.462,
196.500=126.187,
197.000=126.912,
197.500=127.637,
198.000=128.000;
#STOPS:;
#DELAYS:;
#WARPS:;
#TIMESIGNATURES:0.000=4=4;
#TICKCOUNTS:0.000=4;
#COMBOS:0.000=1;
#SPEEDS:0.000=1.000=0.000=0;
#SCROLLS:0.000=1.000;
#FAKES:;
#LABELS:0.000=Song Start;
#BGCHANGES:;
#KEYSOUNDS:;
#ATTACKS:
;

//---------------dance-single - ----------------
#NOTEDATA:;
#CHARTNAME:;
#STEPSTYPE:dance-single;
#DESCRIPTION:;
#CHARTSTYLE:;
#DIFFICULTY:Hard;
#METER:13;
#RADARVALUES:0.542329,0.526977,0.153386,0.030677,0.571363,495.000000,475.000000,20.000000,4.000000,0.000000,0.000000,0.000000,0.000000,0.000000,0.542329,0.526977,0.153386,0.030677,0.571363,495.000000,475.000000,20.000000,4.000000,0.000000,0.000000,0.000000,0.000000,0.000000;
#CREDIT:;
#NOTES:
0000
0000
0000
0000
,
0000
0000
0000
0000
,
1000
0000
0000
1000
0100
0000
1000
0000
0001
0000
0000
0001
0100
0000
0001
0000
,
1000
0000
0000
1000
0010
0000
1000
0000
0001
0000
0000
0001
0010
0000
0001
0000
,
1000
0000
0000
1000
0100
0000
0010
0000
0001
0000
0000
0001
0100
0000
0010
0000
,
1000
0000
0000
1000
0001
0000
1000
0000
0001
0100
0000
0001
1000
0000
0001
0000
,
1000
0000
0100
0010
0001
0000
1000
0000
0001
0000
0100
0010
1000
0000
0001
0000
,
1000
0000
0100
0010
0001
0000
1000
0000
0001
0100
0010
0100
0001
0000
1000
0000
,
0001
0000
1000
0010
0100
0000
0010
0000
1000
0000
0001
0010
0100
0000
0010
0000
,
0000
0000
0000
0000
,
0001
0000
0010
0000
1000
0000
0010
0100
0000
0100
1000
0000
1000
0000
0000
0000
,
0001
0100
0010
0000
0001
0000
0010
0100
0000
0100
0001
0000
0001
0000
0000
0000
,
1000
0000
0000
0000
1000
0000
0010
0001
0000
0010
0000
0000
0010
0000
0000
0000
,
0100
0000
0100
0000
0100
0000
1000
0100
0000
0001
0100
0000
0100
0000
0000
0000
,
0010
0000
0000
1000
0000
0000
0001
0000
0010
0000
0000
0001
0000
0000
1000
0000
,
0010
0000
0000
0100
0000
0000
0001
0000
0010
0000
0000
0100
0000
0000
1000
0000
,
0001
0010
0100
0000
1000
0100
0010
0000
0001
0100
0010
0000
1000
0010
0100
0000
,
0001
0000
0000
0001
0000
0000
0001
0000
1000
0000
0001
0000
1001
0000
0000
0000
,
1000
0000
0010
0000
0010
0000
1000
0000
0000
0001
0000
0000
0100
0000
0010
0000
0010
0000
0100
0000
0000
0001
0000
0000
,
1000
0000
0000
0000
0100
0000
0000
0000
0100
0000
0000
0000
0010
0000
0000
0000
0000
0000
0001
0000
0000
0000
0000
0000
1000
0000
0000
0000
0010
0000
0100
0000
0000
0001
0000
0000
0100
0000
0000
0000
0000
0000
0100
0000
0000
0000
0000
0000
,
0001
0000
1000
0000
1000
0000
0001
0000
0000
0010
0000
0000
0100
0000
1000
0000
1000
0000
0100
0000
0000
0010
0000
0000
,
0001
0010
0100
1000
0010
0100
0001
0010
1000
0001
0100
1000
,
0001
0000
0010
0000
0010
0000
1000
0000
0000
0010
0000
0000
1000
0000
0010
0000
0010
0000
0001
0000
0000
1000
0000
0000
,
0001
0000
0100
0000
0100
0000
1000
0000
0100
0000
0100
0000
0010
0000
1000
0000
1000
0000
0001
0000
0000
0001
0000
0000
,
0010
0000
1000
0000
1000
0000
0010
0000
0000
0001
0000
0000
0100
0000
1000
0000
1000
0000
0100
0000
0000
0001
0000
0000
,
1000
0000
0000
0010
0000
0000
0001
0000
1000
0000
0000
0100
0000
0000
0001
0000
,
2000
0000
0000
0000
,
3002
0000
0000
0000
,
1003
0100
1000
0000
0100
0000
0100
0010
0000
0010
0001
0000
0001
0000
0000
0000
,
1000
0010
1000
0000
0010
0000
0010
0100
0000
0100
0001
0000
0001
0000
0000
0000
,
1000
0100
1000
0000
1000
0000
0100
0010
0100
0000
0100
1000
0001
0000
0000
0000
,
0001
0100
0001
0000
0001
0000
0100
0010
0100
0000
0100
0001
1000
0000
0000
0000
,
1000
0100
0010
0000
0100
0000
0100
0001
0000
0001
0100
0000
1000
0000
0000
0000
,
0001
0100
0010
0000
0100
0000
0100
1000
0000
1000
0100
0000
0001
0000
0000
0000
,
1000
0010
0001
0000
0001
0000
0001
0010
0100
0000
0100
0001
1000
0000
0000
0000
,
0100
0000
0000
0010
0000
0000
0001
0000
0100
0000
0010
0000
0110
0000
0000
0000
,
1000
0000
0000
0010
0000
0000
0100
0000
1000
0000
0000
0000
0100
0000
0001
0000
0000
0000
1000
0000
0100
0000
0000
0000
0002
0000
0000
0000
0000
0000
0000
0000
,
0103
0000
0000
0010
0000
0000
0001
0000
0100
0000
0000
0000
0010
0000
1000
0000
0000
0000
0001
0000
0100
0000
0000
0000
0100
0000
0000
0000
0000
0000
0000
0000
,
1010
0000
0000
0000
1010
0000
0010
1000
0000
0001
0000
0000
1001
0000
0000
0000
,
0001
0000
0010
0001
1000
0000
0010
0100
0000
0100
0001
0000
1001
0000
0000
0000
,
0001
0000
0000
1000
0000
0000
0010
0000
0001
0000
0000
0000
0010
0000
0100
0000
0000
0000
0001
0000
0010
0000
0000
0000
2000
0000
0000
0000
0000
0000
0000
0000
,
3010
0000
0000
0100
0000
0000
1000
0000
0001
0000
0000
0000
0100
0000
0010
0000
0000
0000
0010
0000
0100
0000
0000
0000
0100
0000
0000
0000
0000
0000
0000
0000
,
0011
0000
0000
0000
0011
0000
0010
0001
0000
1000
0000
0000
1001
0000
1000
0010
,
0100
0000
0001
0010
0100
0000
1000
0001
1000
0000
0100
0000
0010
0100
0010
0000
,
0001
0100
0010
0100
0010
0100
0001
0000
,
1000
0100
0010
0100
0010
0100
1000
0000
,
0001
0010
1000
0010
0100
0010
0001
0000
,
1000
0010
0001
0010
0100
0010
1000
0000
,
0001
0000
0000
0010
0000
0000
0100
0000
1000
0000
0000
0010
0000
0000
0100
0000
,
0001
0000
0000
0010
0000
0000
1000
0000
0001
0000
0000
0100
0000
0000
1000
0000
,
0001
0100
0001
0000
1000
0100
1000
0000
0001
0010
0001
0000
1000
0010
1000
0000
,
0001
0000
0000
0001
0000
0000
0001
0000
1000
0000
0001
0000
1001
0000
0000
0000
,
1010
0000
0000
0100
0001
0000
1000
0000
1010
0000
0000
1000
0100
0000
1000
0000
,
0001
0000
0000
0000
0100
0000
0000
0000
0001
0000
0000
0000
0100
0000
0000
0000
0000
0000
0010
0000
0000
0000
0000
0000
1000
0000
0000
0100
0000
0000
0000
0000
0000
0100
0000
0000
1000
0000
0000
0000
0000
0000
0001
0000
0000
0000
0000
0000
,
0011
0000
0000
0100
1000
0000
0001
0000
0011
0000
0000
0001
0100
0000
0010
0000
,
1000
0000
0010
0100
0001
0000
0100
0010
1000
0000
0001
0000
1001
0000
0000
0000
,
0110
0000
0000
0001
0010
0000
0001
0000
0110
0000
0000
1000
0010
0000
0100
0000
,
0001
0000
0000
0000
0010
0000
0000
0000
0001
0000
0000
0000
1000
0000
0000
0000
0010
0000
0000
0000
1000
0000
0000
0000
0001
0000
0000
0010
0000
0000
0000
0000
0000
0010
0000
0000
0100
0000
0000
0000
0000
0000
0010
0000
0000
0000
0000
0000
,
0011
0000
0000
0100
1000
0000
0001
0000
1010
0000
0000
0100
0001
0000
1000
0000
,
0100
0000
0000
0010
0000
0000
0001
0000
0100
0000
0010
0000
0110
0000
0000
0000
;

//---------------dance-single - ----------------
#NOTEDATA:;
#CHARTNAME:;
#STEPSTYPE:dance-single;
#DESCRIPTION:;
#CHARTSTYLE:;
#DIFFICULTY:Medium;
#METER:9;
#RADARVALUES:0.379083,0.412417,0.253087,0.084362,0.145717,346.000000,313.000000,33.000000,11.000000,0.000000,0.000000,0.000000,0.000000,0.000000,0.379083,0.412417,0.253087,0.084362,0.145717,346.000000,313.000000,33.000000,11.000000,0.000000,0.000000,0.000000,0.000000,0.000000;
#CREDIT:;
#NOTES:
// measure 0
0000
0000
0000
0000
,  // measure 1
0000
0000
0000
0000
,  // measure 2
1000
0000
1000
0000
1000
0100
1000
0000
,  // measure 3
0001
0000
0001
0000
0001
0100
0001
0000
,  // measure 4
1000
0000
1000
0000
1000
0010
0100
0000
,  // measure 5
0001
0000
0001
0000
0001
0010
0100
0000
,  // measure 6
1000
0001
1000
0000
0100
1000
0100
0000
,  // measure 7
1000
0001
1000
0000
0001
0100
0001
0000
,  // measure 8
1000
0010
0100
0000
0001
0010
0100
0000
,  // measure 9
0000
0000
0000
0000
,  // measure 10
1000
0100
0001
0000
0001
0100
1000
0000
,  // measure 11
1000
0010
0001
0000
0001
0010
0100
0000
,  // measure 12
0001
0000
0001
0000
1000
0100
1000
0000
,  // measure 13
0010
0100
0010
0000
0200
0000
0300
0000
,  // measure 14
0001
0000
0000
0100
0000
0000
0001
0000
1000
0000
0000
0100
0000
0000
1000
0000
,  // measure 15
0001
0000
0000
0010
0000
0000
0001
0000
1000
0000
0000
0010
0000
0000
1000
0000
,  // measure 16
0001
0010
0100
0100
1000
0010
0100
0100
,  // measure 17
0001
0000
0001
1001
,  // measure 18
1010
0000
0000
1000
0010
0000
0000
0000
0101
0000
0000
0001
0100
0000
0000
0000
,  // measure 19
1100
0000
0000
1000
0100
0000
0000
0000
0011
0000
0000
0000
0001
0000
1000
0000
,  // measure 20
1001
0000
0000
0001
0100
0000
0000
0000
0110
0000
0000
0010
1000
0000
0000
0000
,  // measure 21
2000
3200
0320
0031
,  // measure 22
0001
0000
0000
0100
0010
0000
0100
0000
1000
0000
0000
0100
0010
0000
0100
0000
,  // measure 23
0001
0000
0000
0010
0100
0000
0010
0000
1000
0000
0000
0010
0100
0000
0010
0000
,  // measure 24
0001
0000
0000
0100
1000
0000
0100
0000
0001
0000
0000
0010
1000
0000
0010
0000
,  // measure 25
0100
0100
0100
0110
,  // measure 26
0000
0000
0000
0000
,  // measure 27
0000
0000
0000
0000
,  // measure 28
2000
0000
0100
0100
0100
0000
3001
0000
,  // measure 29
0002
0000
0010
0010
0010
0000
1003
0000
,  // measure 30
0020
0000
1000
0000
0100
0100
0130
0000
,  // measure 31
0200
0000
0001
0000
0010
0010
0310
0000
,  // measure 32
0002
0000
0100
0100
0100
0000
1003
0000
,  // measure 33
2000
0000
0100
0100
0100
0000
3001
0000
,  // measure 34
0200
0000
0001
0000
0010
0010
0310
0000
,  // measure 35
1000
0000
0001
1001
,  // measure 36
1000
0000
0000
1000
0010
0000
0000
0010
0001
0000
0000
0000
0110
0000
0000
0000
,  // measure 37
1001
0000
0000
0001
0100
0000
0000
0100
0010
0000
0000
0000
0110
0000
0000
0000
,  // measure 38
1010
0000
0000
0000
1010
0000
0000
1000
0000
0001
0000
0000
1001
0000
0000
0000
,  // measure 39
0001
0010
0100
0000
0010
0100
1000
0000
,  // measure 40
0001
0000
0000
0100
0010
0000
0000
0000
1000
0000
0001
0000
1001
0000
0000
0000
,  // measure 41
1000
0000
0000
0001
0100
0000
0000
0000
0010
0000
0100
0000
0110
0000
0000
0000
,  // measure 42
0101
0000
0000
0000
0101
0000
0000
0001
0000
1000
0000
0000
1001
0000
0000
0000
,  // measure 43
1000
0100
0010
0100
0001
0100
1000
0000
,  // measure 44
1000
0010
0100
0000
0001
0010
0100
0000
,  // measure 45
1000
0100
0010
0000
0001
0100
0010
0000
,  // measure 46
1000
0100
0001
0000
1000
0010
0001
0000
,  // measure 47
0001
0100
1000
0000
0001
0010
1000
0000
,  // measure 48
1000
0000
0000
0100
0000
0000
0100
0000
1000
0000
0000
0001
0000
0000
0001
0000
,  // measure 49
0100
0000
0000
0010
0000
0000
0010
0000
0100
0000
0000
0001
0000
0000
0001
0000
,  // measure 50
1000
0100
1000
0010
1000
0001
0100
0001
,  // measure 51
0010
0000
0010
0110
,  // measure 52
1010
1001
0011
1001
,  // measure 53
0100
0000
0000
0100
0010
0000
0100
0000
0010
0000
0000
0000
0110
0000
0000
0000
,  // measure 54
0011
0110
1010
0110
,  // measure 55
0001
0100
1000
0000
1000
0100
0001
0000
,  // measure 56
0011
0000
0000
0001
1000
0000
0001
0000
1001
0000
0000
0001
1000
0000
0001
0000
,  // measure 57
0100
0000
0000
0000
0000
0000
0000
0000
0100
0000
0000
0000
0010
0000
0000
0000
0000
0000
0000
0000
0010
0000
0000
0000
1000
0000
0000
0000
0000
0000
0000
0000
0000
0001
0000
0000
0000
0000
0000
0000
0000
0000
1000
0000
0000
0000
0000
0000
,  // measure 58
0001
0000
0000
0100
0010
0000
0100
0000
1000
0000
0000
0100
0010
0000
0100
0000
,  // measure 59
0001
0000
0000
0010
0000
0000
1000
0000
0001
0000
0100
0000
0110
0000
0000
0000
;
