#TITLE:FIRE (REFLEC Version);
#SUBTITLE:;
#ARTIST:Mutsuhiko Izumi;
#TITLETRANSLIT:;
#SUBTITLETRANSLIT:;
#ARTISTTRANSLIT:;
#GENRE:;
#CREDIT:;
#MUSIC:FIRE (REFLEC Version).ogg;
#BANNER:FIRE (REFLEC Version).png;
#BACKGROUND:;
#CDTITLE:;
#SAMPLESTART:74.931;
#SAMPLELENGTH:15.000;
#SELECTABLE:YES;
#OFFSET:0.714;
#BPMS:0.000=184.000;
#STOPS:;
#BGCHANGES:;
#FGCHANGES:;

//--------------- dance-single - ----------------
#NOTES:
     dance-single:
     :
     Beginner:
     5:
     0.186435,0.259097,0.063002,0.099004,0,145,138,7,11,0,0,0.186435,0.259097,0.063002,0.099004,0,145,138,7,11,0,0:
0000
0000
0000
0000
,
0000
0000
0000
0000
,
0010
0000
0100
0000
,
0001
0000
0000
0000
,
1000
0000
0100
0000
,
0010
0000
0000
0000
,
0001
0000
0001
0000
,
1000
0000
0000
0000
,
0001
0000
1000
0000
,
0010
0000
0000
0000
,
1000
0000
0001
0000
,
0010
0010
0010
0000
,
0100
0000
0100
0000
,
1000
1000
1000
0000
,
0001
0000
0001
0000
,
0100
0100
0100
0000
,
0001
0000
0001
0000
,
0110
0000
0000
0000
,
1000
0000
0010
0000
,
1000
0000
0001
0000
,
0100
0000
0001
0000
,
1000
1000
1000
0000
,
0001
0000
0100
0000
,
0001
0000
1000
0000
,
0010
0000
1000
0000
,
0100
0000
0000
0000
,
0010
0000
0001
0000
,
0010
0000
0100
0000
,
1000
0000
0100
0000
,
0010
0010
0010
0000
,
0001
0000
1000
0000
,
0001
0000
0100
0000
,
0010
0000
1000
0000
,
0001
0000
0000
0000
,
0020
0000
0000
0000
,
0030
0000
0000
0000
,
0200
0000
0000
0000
,
0300
0000
0000
0000
,
0020
0000
0000
0000
,
0130
0000
0000
0000
,
0200
0000
0000
0000
,
0310
0000
0000
0000
,
1001
0000
0000
0000
,
0001
0000
1000
0000
,
1001
0000
0000
0000
,
0110
0000
0000
0000
,
1000
0100
1000
0000
,
0001
0010
0001
0000
,
0100
0000
0100
0000
,
0020
0000
0030
0000
,
1000
0001
1000
0000
,
0010
0000
0100
0000
,
0001
1000
0001
0000
,
0100
0000
0000
0000
,
0010
0010
0010
0000
,
1000
1000
1000
0000
,
0001
0001
0001
0000
,
1001
0000
0000
0000
,
0020
0000
0000
0000
,
0130
0000
0001
0000
,
0200
0000
0000
0000
,
0310
0000
1000
0000
,
0001
0010
0001
0000
,
1000
0010
1000
0000
,
0100
0000
0100
0000
,
0020
0000
0030
0000
,
0001
0100
0001
0000
,
1000
0000
0010
0000
,
1000
0100
1000
0000
,
0010
0000
0100
0000
,
0002
0000
1003
0000
,
2000
0000
3001
0000
,
1000
1000
0001
0001
,
2002
0000
3003
0000
,
0020
0000
0000
0000
,
0030
0000
0000
0000
,
0200
0000
0000
0000
,
0300
0000
0000
0000
,
0001
0000
1000
0000
,
0010
0000
0100
0000
,
0100
0000
0010
0000
,
1000
0000
1000
0000
,
0001
1001
0000
0000
;

//--------------- dance-single - ----------------
#NOTES:
     dance-single:
     :
     Easy:
     8:
     0.365156,0.407771,0.135005,0.162006,0,284,269,15,18,0,0,0.365156,0.407771,0.135005,0.162006,0,284,269,15,18,0,0:
0000
0000
0000
0000
,
0000
0000
0000
0000
,
0001
0100
0010
1000
,
0001
0001
0001
0000
,
1000
0100
0010
0001
,
1000
1000
1000
0000
,
0010
0100
0001
0010
,
0001
0100
0010
0000
,
0100
0010
1000
0100
,
1000
0010
0100
0000
,
0001
0000
1000
0000
0000
1100
0000
0000
,
0011
0000
0000
1000
0000
0010
0000
0100
,
0000
0000
0001
0000
0000
0101
0000
0000
,
1010
0000
0000
0001
0000
0010
0000
0010
,
0100
0000
1000
0000
0000
1100
0000
0000
,
0110
0000
0000
0001
0000
0010
0000
0001
,
0000
0000
0101
0000
0000
0110
0000
0000
,
1010
0000
0000
2002
0000
0000
3003
0000
,
1000
0100
0001
0100
,
1000
0010
0100
0001
,
0010
0000
0010
0100
0010
0000
0100
0000
,
2000
0001
0001
3001
,
0100
0010
1000
0100
,
0010
0001
0100
1000
,
0100
0001
0202
0303
,
1000
0100
2200
3300
,
1000
0001
0100
0010
,
1000
0001
0100
0001
,
0010
0000
0010
0100
0010
0000
0001
0000
,
0200
0010
0010
0310
,
1000
0001
0100
0010
,
1000
0100
1000
0010
,
0100
0000
0100
0010
0100
0000
0001
0000
,
1000
0100
0010
0000
,
0002
0000
0000
0100
0000
0000
1003
0000
,
0010
1000
0001
0100
,
0020
0000
0000
0001
0000
0000
0130
0000
,
0001
1000
0100
0100
,
0010
0001
1000
0010
,
1000
0000
0000
0100
0000
0000
0010
0000
,
0001
0000
0000
0100
0000
0000
0010
0000
,
0220
0000
0330
0000
,
1000
0010
1000
0100
,
1000
0010
0100
0100
,
0001
0010
0001
0100
,
0001
0010
0100
0100
,
1000
0001
1000
0010
,
1000
0001
0100
0100
,
0001
1000
0001
0010
,
0001
1000
0100
0100
,
0010
0100
0010
0000
0002
0000
0000
0000
,
0100
0100
0103
0000
,
0010
0100
0010
0000
2000
0000
0000
0000
,
0100
0100
3100
0000
,
0010
0001
0100
0001
,
1000
0010
1000
0100
,
0010
0100
0010
0000
0100
0000
0110
0000
,
2002
0000
3003
0000
,
1000
0010
0001
0010
,
1000
0100
1000
0001
,
0100
0100
0010
0010
,
1000
0000
1000
0001
1000
0000
0000
0000
,
0001
0100
0001
0010
,
1000
0010
0001
0100
,
0001
0001
0010
0010
,
0100
0000
0100
0010
0100
0000
0000
0000
,
2000
0010
0010
0000
,
0001
0001
3001
0100
,
0002
0010
0010
0000
,
1000
1000
1003
0100
,
1000
0010
0100
0001
,
1000
0010
0100
0001
,
0010
0100
1000
1000
,
0220
0000
0000
0330
,
0001
0100
0010
1000
,
0001
1000
0010
0000
,
1000
0001
0100
0010
,
1000
1000
1000
0000
,
0010
0000
0100
0000
0000
0001
0000
0000
,
1000
0000
0000
0010
0000
1000
0000
0100
,
0000
0000
1100
0000
0000
0110
0000
0000
,
0011
0000
0000
2002
0000
0000
3003
0000
,
1000
0010
0100
0001
0000
0000
0000
0000
;

//--------------- dance-single - ----------------
#NOTES:
     dance-single:
     :
     Medium:
     11:
     0.529734,0.593122,0.225008,0.117004,0,412,387,25,13,0,0,0.529734,0.593122,0.225008,0.117004,0,412,387,25,13,0,0:
0000
0000
0000
0000
,
0000
0000
0000
0000
,
1000
0010
0000
1000
0100
0000
0010
0000
,
0001
1000
0001
0100
,
0001
0010
0000
0100
1000
0000
0100
0000
,
0010
0001
0100
0010
,
1000
0100
0000
1000
0010
0000
0200
0000
,
0010
0010
0001
0310
,
0010
0100
0000
0001
1000
0000
0200
0000
,
0010
1000
0010
0310
,
0001
0100
0010
0000
1000
0100
0000
0010
,
0001
0000
0100
0010
0000
0001
0000
0010
,
0010
1000
0100
0000
0010
0001
0000
1000
,
0100
0000
1000
0010
0000
0100
0000
0001
,
1000
0100
0010
0000
0001
0100
0000
0010
,
1000
0000
0100
0010
0000
1000
0000
0010
,
0010
0001
0100
0000
0010
1000
0000
0100
,
0010
0100
0010
0001
0000
0000
0000
0000
,
0100
0001
0100
0020
0000
0000
1000
0000
,
0100
0000
1030
0000
0100
0000
0010
0001
,
1000
0100
0010
0001
,
1000
0000
0010
0000
0100
0001
1000
0000
,
0100
1000
0100
0020
0000
0000
0001
0000
,
0100
0031
1000
0010
,
1000
0100
0001
0000
0001
0100
1000
0000
,
1000
0010
0100
0000
0220
0000
0330
0000
,
0001
0100
0001
0100
0001
0000
0010
0000
,
0100
1000
0001
0000
0010
0100
1000
0000
,
0002
0100
1000
0013
,
0100
0000
0110
0000
1000
0010
0100
0010
,
1000
0100
1000
0100
1000
0000
0001
0000
,
0100
0010
1000
0000
0001
0100
0010
0000
,
2000
0100
0001
0010
,
3002
0100
1000
0013
,
1100
0000
0000
0011
0000
0000
1001
0000
,
1000
0100
0010
0000
0001
0100
0010
0000
,
1010
0000
0000
0101
0000
0000
1001
0000
,
0001
0100
0010
0000
1000
0100
0010
0000
,
0001
0100
0001
0010
,
1100
0000
0000
0101
0000
0000
0011
0000
,
1010
0000
0000
1100
0000
0000
1001
0000
,
0220
0000
0000
0330
,
1000
0010
0001
0010
,
1000
0000
0100
0000
0010
0100
0010
0000
,
0001
0100
0001
0010
,
0200
0000
0000
0010
0310
0000
1001
0000
,
1000
0010
0001
0000
0001
0010
1000
0000
,
0100
1000
0010
0100
,
0001
0010
1000
0000
1000
0010
0001
0000
,
0100
0010
0100
0010
0100
0000
1001
0000
,
0010
1000
0010
1000
0200
0000
1000
0000
,
0010
0010
1000
0310
,
0001
0000
1000
0000
0010
1000
0001
0000
,
0100
0001
1000
0000
2002
0000
3003
0000
,
0001
0100
0010
1000
0100
0000
1000
0100
,
1000
0100
0010
0000
0001
0010
0001
0100
,
0010
0100
0010
1000
0001
0100
0001
0000
,
0020
0000
0000
0000
0100
0100
0100
0000
,
0130
1000
0010
1000
,
0001
0100
1000
0000
1000
0100
0001
0000
,
0010
0000
0001
0000
1000
0100
1000
0100
,
1000
0010
1000
0010
0100
0010
0100
0000
,
0001
0010
0001
0100
0010
0000
1000
0000
,
0001
0100
0010
0000
1000
0000
1000
0010
,
0100
0000
0001
0000
0001
0010
0100
0010
,
0100
0010
2002
3003
,
0001
0000
1000
0000
0100
0010
0100
1000
,
0001
0010
0001
1000
,
0010
1000
0001
0000
0010
0001
1000
0000
,
0100
1000
0010
1000
0100
0000
0110
0000
,
0001
0100
1000
0000
0100
0000
0001
0000
,
1000
0100
0001
0000
0100
0000
1000
0000
,
0010
0100
0010
0100
0001
0100
0001
0100
,
0020
0000
0000
0000
0100
0100
0130
0000
,
1000
0100
0010
0000
0001
0100
0000
0010
,
1000
0000
0100
0010
0000
0001
0000
0100
,
0001
0010
0100
0000
1000
0010
0000
0001
,
0010
0000
0100
1000
0000
0100
0000
0001
,
1000
0000
1001
0000
0000
0011
0000
0000
,
0110
0000
0000
1100
0000
1000
0000
0010
,
0100
0001
0100
0001
0010
0100
0010
0100
,
1000
0001
0010
0100
0000
0000
1000
0010
,
0100
0001
0100
0010
0000
0000
0000
0000
;

//--------------- dance-single - ----------------
#NOTES:
     dance-single:
     :
     Hard:
     16:
     0.851174,0.926753,0.342013,0.252009,0.319512,662,624,38,28,0,0,0.851174,0.926753,0.342013,0.252009,0.319512,662,624,38,28,0,0:
0000
0000
0000
0000
,
0000
0000
0000
0000
,
1000
0010
1000
0100
0010
0000
0001
1000
,
0001
0100
0010
1000
0100
0010
0100
0000
,
0010
0001
0100
0010
1000
0000
0100
0010
,
0001
0100
0001
0010
0100
1000
0100
0000
,
0010
0001
1000
0010
1010
0000
0101
0001
,
1000
0100
0010
0100
0010
0001
0100
0000
,
0001
1000
0100
0010
0110
0000
1001
0001
,
0100
0000
0001
0000
0010
0000
0001
0000
0100
0000
0100
0010
0100
0000
0000
0000
,
0010
2000
0100
3100
2000
0010
3010
2000
,
0100
3100
1000
0010
0001
1000
0000
0100
,
0002
0010
0013
0002
0100
0103
0002
0010
,
0013
0000
0100
0000
1000
0000
0010
0000
0000
0000
0100
0000
0001
1000
0001
1000
,
0200
0010
0310
0200
1000
1300
0200
0001
,
0301
0100
1000
0010
0000
0001
0010
1000
,
0200
0001
0301
0200
1000
1300
0200
0010
,
0310
0001
1000
0020
0000
0000
0030
0000
,
0100
0001
0100
0010
0001
0010
0100
0010
,
0001
0010
1000
0100
0010
0100
0010
0000
,
0001
1000
1100
0000
1000
0001
0011
0000
,
0001
0000
0000
0100
0000
0000
0001
0000
0000
0010
0000
0000
0001
0000
0100
0000
0010
0000
1000
0000
0010
0000
0100
0000
,
0001
1000
0010
1000
0010
0100
1000
0100
,
0010
1000
0010
0100
0001
0010
0100
0000
,
1000
0100
1000
0010
1000
0001
0100
0010
,
1000
0000
0001
0000
1000
0000
0001
0000
0010
0001
0010
0000
0100
1000
0100
0000
,
0010
0001
1000
0010
0100
1000
0001
0010
,
1000
0100
1000
0010
0100
0001
0010
0000
,
0100
1000
1001
0000
0010
0001
1001
0000
,
1000
0000
0000
0010
0000
0000
1000
0000
0000
0100
0000
0000
1000
0000
0010
0000
0100
0000
0001
0000
0100
0000
0010
0000
,
1000
0001
1000
0001
0100
0010
0001
0010
,
0100
0001
0010
0100
0010
0100
1000
0000
,
0100
0010
0001
1000
0100
0010
0001
1000
,
0010
0000
0010
0000
0010
0000
0010
0000
0100
0001
1000
0100
1000
0000
0100
0000
,
2200
0000
3300
0022
0000
0033
1001
0000
,
0001
0100
0010
1000
0001
0100
0010
1000
,
2020
0000
3030
0202
0000
0303
1001
0000
,
1000
0100
0010
0001
1000
0100
0010
0001
,
0200
0010
1000
0301
,
0101
0100
0010
1000
0001
1000
1100
0000
,
1010
0010
0100
0001
1000
0001
0011
0000
,
2002
0000
0000
3003
,
1000
0010
1000
0000
0100
0000
1000
0000
0001
0000
0100
0000
0001
0000
1000
0000
,
0100
0010
0100
0010
0001
0100
0010
0000
,
0100
0001
0100
0000
0001
0000
0010
0000
0001
0000
1000
0000
0010
0000
0100
0000
,
0010
0001
0010
1000
0100
0000
0010
0100
,
0010
0001
0100
1000
0001
0010
1000
0001
,
0100
0001
0100
0000
0010
0000
1000
0000
0100
1000
0100
0000
0010
0000
0001
0000
,
1000
0000
0010
0000
1000
0100
1000
0100
1000
0010
0100
0000
0001
0000
0100
0000
,
0020
0000
0100
0000
0100
0100
0130
0000
,
0001
0100
0010
1000
0100
0010
0002
0000
0000
0100
0000
0000
,
1000
0000
0013
1000
0010
0001
1000
0100
,
1000
0010
0100
0000
0001
0000
1000
0000
0001
0010
0100
0000
1000
0000
0001
0000
,
0100
0010
0110
0000
1000
0001
1001
0000
,
1000
0001
0100
0000
0010
0000
0100
0000
0001
1000
0100
0000
0010
0000
0100
0000
,
0010
0001
1000
0000
0010
0000
0100
0000
0010
1000
0001
0000
0010
0000
0100
0000
,
1000
0010
1000
0010
0100
0000
0001
0000
0010
0001
0010
0001
0100
0000
0010
0000
,
1000
0000
0000
1001
0000
0000
0001
1000
0100
0001
0100
1000
,
0010
0001
0010
0001
1000
0100
0010
1000
,
0100
1000
0100
0010
1000
0010
0001
1000
,
0100
1000
0020
0100
0100
0100
0130
0010
,
1000
0100
1000
0001
0100
0001
1001
0000
,
1000
0010
1000
0000
0010
0100
0010
0000
0100
0001
0100
0000
0001
0000
1000
0000
,
0001
0100
0001
1000
0100
0010
0110
0000
,
0001
0000
0010
0000
0001
0000
0010
0000
0001
1000
0100
0000
1000
0000
0010
0000
,
1000
0001
0100
0000
0001
0000
0010
0000
0100
0000
0100
0000
0100
0000
0000
0000
,
0020
0001
1000
0100
,
0031
0100
0001
1000
0010
1000
0100
0001
,
1000
0010
1000
0010
0001
1000
0100
1000
,
0010
0100
0010
0100
0010
0000
0100
0000
0001
0000
0001
0000
0001
0000
0000
0000
,
1000
0010
1000
0000
0001
0000
0100
0000
0001
0010
0001
0000
1000
0000
0010
0000
,
1000
0100
1000
0000
0001
0000
0100
0000
0001
0010
0001
0000
0100
0000
0010
0000
,
1000
0100
0010
0001
1000
0000
0001
0100
0010
1000
0001
0000
0100
0010
0100
0010
,
0100
0000
0000
1001
0000
0000
0001
0100
1000
0001
0010
1000
,
0001
0020
0100
0130
2000
0010
3010
0200
,
0001
0301
0010
0110
0000
1001
0000
0010
,
1000
0200
0010
0310
0002
0100
0103
0020
,
1000
1030
0100
1100
0000
0011
0000
0001
,
0100
0010
0110
1000
0001
0110
0001
1000
,
0110
1000
0001
0101
0000
1010
0000
1001
,
0001
0100
1000
0100
0010
1000
0100
0001
0100
0010
0001
0100
,
0010
0000
0010
0000
0100
0000
0020
0000
0000
0000
0000
0000
1030
0100
0010
0001
,
1000
1000
1000
0110
0000
0000
0000
0000
;
