#TITLE:FINALLY BLAZE;
#ARTIST:BlackY;
#BANNER:FINALLY BLAZE.png;
#BACKGROUND:FINALLY BLAZE-bg.png;
#JACKET:FINALLY BLAZE-jacket.png;
#CDTITLE:./CDTITLES/BEATMANIA IIDX.PNG;
#MUSIC:FINALLY BLAZE.ogg;
#SAMPLESTART:97.297;
#SAMPLELENGTH:15;
#BPMS:0=185;

//---------------dance-single - t7r----------------
#NOTES:
     dance-single:
     t7r:
     Beginner:
     5:
     :
0000
0000
0000
0000
,
0000
0000
0000
0000
,
0000
0000
0000
0000
,
0000
0000
0000
0000
,
0000
0000
0000
0000
,
0010
0000
0010
0000
,
1000
0000
1000
0000
,
0001
0001
0001
0001
,
0001
0000
0000
0000
,
0000
0000
1000
1000
,
0000
0001
0000
0100
,
0100
0000
0100
0000
,
0010
0000
0010
0000
,
0000
1000
1000
0000
,
1000
0000
1000
0000
,
0001
0000
0001
0000
,
0001
0000
0000
0000
,
0000
1000
0000
0100
,
0000
1000
0000
1000
,
0000
0001
0000
0001
,
0000
0100
0000
0001
,
0000
0010
0010
0000
,
0010
0000
0010
0000
,
0001
0001
0001
0000
,
1000
0000
0001
0000
,
1000
0000
1000
0000
,
0100
0000
0100
0000
,
0010
0000
0010
0000
,
0001
0000
0001
0000
,
0100
0000
0100
0000
,
0010
0000
0010
0000
,
1000
0000
0001
0000
,
0010
0000
0001
0000
,
1000
0001
1000
0000
,
1000
0000
1000
0000
,
0001
1000
0001
0000
,
0001
0000
0001
0000
,
0100
0010
0100
0000
,
0010
0000
0010
0000
,
0100
0000
0000
0000
,
0001
0000
0000
0000
,
1000
0000
0100
0000
,
1000
1000
1000
0000
,
0001
0000
0100
0000
,
0001
0001
0001
0000
,
0010
0000
0001
0000
,
1000
1000
1000
0000
,
0010
0000
1000
0000
,
0001
0001
0001
0000
,
0000
0000
0100
0000
,
0100
0000
0100
0000
,
0000
0000
0010
0000
,
0010
0000
0010
0000
,
1000
0000
1000
0000
,
0001
0000
0001
0000
,
0010
0010
0010
0010
,
0010
0000
0000
0000
,
1001
0000
0000
0000
,
0000
0000
0000
0000
,
0000
0000
0000
0000
,
0000
0000
0000
0000
,
0100
0000
0000
0000
,
0010
0000
0000
0000
,
1000
0000
0000
0000
,
0001
0000
0000
0000
,
0010
0000
0010
0000
,
0010
0000
0010
0000
,
0001
0000
0001
0000
,
0001
0000
0001
0000
,
1000
0000
0000
0000
,
0000
0000
0010
0010
,
0010
0000
0000
0000
,
0100
0000
0000
0000
,
0000
0000
0000
0000
,
0001
0001
0001
0000
,
1000
1000
1000
0000
,
0100
0000
0010
0000
,
0001
0001
0001
0000
,
0100
0000
0010
0000
,
0100
0100
0100
0000
,
0001
0000
1000
0000
,
0100
0000
0010
0000
,
0100
0000
1000
0000
,
0010
0000
0000
0000
,
0100
0000
0010
0000
,
1000
0000
0000
0000
,
0001
0000
0010
0000
,
0100
0000
0000
0000
,
0000
0000
1000
1000
,
1000
0000
0000
0000
,
0001
0000
0000
0000
,
0100
0000
0000
0000
,
0000
0000
0000
0000
,
0000
0000
0000
0000
,
0010
0000
0000
0000
;

//---------------dance-single - t7r----------------
#NOTES:
     dance-single:
     t7r:
     Easy:
     9:
     :
0000
0000
0000
0000
,
0000
0000
0000
0000
,
0000
0000
0000
0000
,
0000
0000
0000
0000
,
0000
0000
0000
0000
,
0100
0100
0010
0010
,
1000
1000
0001
0001
,
0010
0100
0010
0001
,
2000
0000
0000
3001
,
0200
0000
0310
1000
,
0001
0010
0100
0100
,
1000
0010
0100
0001
,
1000
0000
0000
0000
0100
0000
0000
0000
0010
0000
0000
0010
0000
0000
0001
0000
,
1000
0010
0100
0001
,
1000
0001
0010
0010
,
0001
0000
0000
0000
0100
0000
0000
0000
0010
0000
0000
0010
0000
0000
1000
0000
,
0002
0000
2000
3003
,
0100
0110
0001
1000
,
0100
0010
0001
0001
,
1000
0010
0001
0010
,
1000
0000
0000
0000
0100
0000
0000
0000
0010
0000
0000
0010
0000
0000
0001
0000
,
2000
3010
1000
1010
,
0001
0010
0001
0011
,
0200
0000
0000
0000
,
0310
0000
0000
0010
0000
0000
0000
0000
1000
0000
0000
0001
0000
0000
0000
0000
,
1000
0100
1000
0010
,
1000
0100
0010
0001
,
0100
0001
0010
0001
,
0100
0010
1000
0001
,
0010
0100
0010
0010
,
0001
1000
0010
0010
,
0100
0000
0010
0000
1000
1000
0000
0000
,
0001
0000
0000
0001
0000
0000
0000
0000
2002
0000
0000
0000
3003
0000
0000
0000
,
0100
0010
2000
0000
,
0010
0001
3100
0000
,
0010
0001
0200
0000
,
1000
0010
0301
0000
,
1001
0010
2001
0000
,
3100
0010
1002
0000
,
0023
0000
0000
0032
,
0000
0000
2000
3003
,
0001
0100
1000
1000
,
0001
0010
0100
0001
,
1000
0100
0001
0001
,
1000
0010
0100
1000
,
0001
0010
1000
1000
,
0001
0100
0010
0001
,
1000
0010
0001
0001
,
1000
0100
0010
1000
,
0002
0000
0000
0000
1000
0000
0000
1000
0000
0000
1003
0000
0001
0000
0000
0000
,
0100
0010
1000
1001
,
2000
0000
0000
0000
0001
0000
0000
0001
0000
0000
3001
0000
1000
0000
0000
0000
,
0010
0100
0220
0330
,
0010
0010
1000
1000
,
0100
0100
0001
0001
,
0010
1000
0100
0001
,
0020
0000
0200
0330
,
2001
0000
0000
3010
,
0200
0000
0302
0000
,
0023
0000
0000
2030
,
3020
0000
0230
0000
,
2300
0001
3100
0000
,
0002
1000
0103
0010
,
2000
0010
3100
0000
,
0002
0010
0103
0000
,
1001
0010
1000
1000
,
0001
0100
0010
0000
,
1000
0100
0010
0010
,
0001
1000
0010
0000
,
0100
0100
0001
0001
,
0010
0010
1000
1000
,
0100
0001
0010
1000
,
0010
0000
0000
0010
0000
0000
0010
0000
0100
0000
0000
0100
0000
0000
0100
0000
,
0000
0000
0000
0000
,
1000
0001
0100
1001
,
0001
0100
1000
0100
,
0001
0000
0000
0001
0000
0000
0000
0000
1000
0000
0000
1000
0000
0000
0000
0000
,
0001
0010
1000
0010
,
0001
0000
0000
0001
0000
0000
0000
0000
0100
0000
0000
0100
0000
0000
0000
0000
,
0010
1000
0100
0001
,
0100
0000
0000
0100
0000
0000
0000
0000
0010
0000
0000
0010
0000
0000
0000
0000
,
0001
0000
0000
0001
0000
0000
0001
0000
0100
0000
0000
0000
0010
0000
1000
0000
,
0000
0000
1000
0000
0000
1000
0000
0000
0100
0000
0000
0100
0000
0000
0010
0000
,
0001
0100
1001
0000
,
1000
0010
0110
0000
,
0001
0000
0010
0000
1100
0000
0000
2000
,
0000
0000
0000
0000
3001
0001
0000
0000
,
0100
0000
0000
0000
0110
0000
0000
0000
0001
0000
0000
0001
0000
0000
0001
0000
,
1000
0000
0000
0000
1100
0000
0000
0000
1000
0000
0000
1000
0000
0000
1000
0000
,
0020
0000
0000
0000
0130
0000
0001
0020
,
0000
0000
0000
0000
,
0032
0000
0100
0000
,
0000
0000
1000
0000
,
0000
0000
0013
0000
,
0200
0000
0000
0000
,
0300
0000
0000
0000
;

//---------------dance-single - t7r----------------
#NOTES:
     dance-single:
     t7r:
     Medium:
     13:
     :
0000
0000
0000
0000
,
0000
0000
0000
0000
,
0000
0000
0000
0000
,
0000
0000
0000
0000
,
0000
0000
0000
0000
,
1000
0100
0010
0010
,
0001
0100
0010
0010
,
1000
0001
1000
0001
1000
0001
1000
0001
,
0200
0000
0000
0310
,
2001
0000
3100
0010
,
0001
0100
0001
0000
1000
0100
1000
0000
,
0001
0000
0010
0000
0100
0010
0001
0000
,
1000
0000
0000
0000
0010
0000
0000
0000
0100
0000
0000
0010
0000
0000
0100
0000
,
0001
0100
0100
0000
0010
1000
0001
0000
,
0010
0001
0100
0000
0010
1000
0001
0000
,
1000
0000
0100
0000
0100
0000
0000
0000
0010
0000
0000
0010
0000
0000
0001
0000
,
2000
0000
0002
3003
,
1000
0000
1100
0000
0001
0100
0010
1000
,
0001
0000
0010
0000
0100
0010
0001
0000
,
1000
0000
0010
0000
0001
0010
1000
0000
,
0001
0000
0000
0000
0010
0000
0000
0000
1000
0000
0000
0010
0000
0000
0001
0000
,
1000
0000
1001
0000
1100
0000
0010
0001
,
1000
0000
1001
0000
0101
0000
0001
0100
,
0020
0000
0000
0000
0000
0000
0000
0130
,
0100
0000
0000
0110
0000
0000
0001
0000
1000
0000
0000
1001
0000
0000
1000
0000
,
0001
0000
0000
0100
0000
0000
0010
0000
0100
0000
0000
0001
0000
0000
1000
0000
,
0001
0000
0000
0010
0000
0000
0100
0000
1000
0000
0000
0100
0000
0000
0001
0000
,
0100
0000
0000
0010
0000
0000
0001
0000
1000
0000
0000
0010
0000
0000
0100
0000
,
0010
0000
0000
1000
0000
0000
0010
0000
0001
0000
0000
0010
0000
0000
0100
0000
,
0001
0000
0000
0010
0000
0000
0100
0000
0001
0000
0000
0100
0000
0000
0010
0000
,
0001
0000
0000
1000
0000
0000
0010
0000
0100
0000
0000
1000
0000
0000
0100
0000
,
0010
0000
0000
0010
0000
0000
1000
0000
0001
0000
0001
0000
0000
0000
0010
0000
,
0100
0000
0000
0110
0000
0000
0001
0000
1000
0000
0020
0000
0000
0000
0000
0000
,
1030
0000
0000
0100
0000
0000
0010
0000
2000
0000
0000
0000
0000
0000
0000
0000
,
3010
0000
0000
0001
0000
0000
1000
0000
0010
0000
0000
0010
0000
0000
0100
0000
,
0001
0000
0000
0100
0000
0000
0010
0000
0002
0000
0000
0000
0000
0000
0000
0000
,
0013
0000
0000
1000
0001
0000
0000
0000
0100
0010
0000
0000
1000
0000
0000
0000
,
1001
0000
0000
0100
0000
0000
0010
0000
2001
0000
0000
0000
0000
0000
0000
0000
,
3010
0000
0100
0001
0020
0000
0000
0000
,
0031
0000
0100
0100
0000
0010
2000
0000
,
0000
0000
0000
0000
3001
1000
0001
0000
,
0200
0000
0000
0000
2300
0000
0000
3100
0000
0000
0100
0000
0001
0000
0010
0000
,
0100
0000
0001
0000
0100
0000
0000
1000
0000
0000
0100
0000
0010
0000
0001
0000
,
2000
0000
0000
0000
3020
0000
0000
0031
0000
0000
0010
0000
0100
0000
0001
0000
,
1000
0100
1000
0100
0010
0001
0100
0001
,
0020
0000
0000
0000
2030
0000
0000
3010
0000
0000
0010
0000
0001
0000
0100
0000
,
0010
0000
0001
0000
0010
0000
0000
1000
0000
0000
0010
0000
0100
0000
0001
0000
,
1000
0000
1000
0000
0100
0000
0000
0001
0000
0000
1000
0000
0010
0000
0000
0000
,
0001
0001
0100
0000
0010
0000
1001
0000
,
0200
0000
0000
0000
0310
0000
0000
0110
0000
0000
0110
0000
0002
0000
0000
0000
,
1003
0000
0100
0000
1000
0000
0000
0001
0000
0000
0001
0000
0100
0000
0010
0000
,
0200
0000
0000
0000
0310
0000
0000
0110
0000
0000
0110
0000
2000
0000
0000
0000
,
3001
0010
0100
0000
1000
0010
0100
0001
,
1000
0100
1000
0100
0001
0100
0010
0000
,
0001
0100
0001
0100
1000
0100
0010
0000
,
1000
0100
0001
0100
1000
0010
0001
0010
,
2000
0000
0002
3003
,
0210
0000
0000
0000
0000
0000
0310
1000
,
0002
0000
0000
0023
0000
0230
0000
0310
,
0002
0000
0000
0000
0000
0000
0103
0010
,
2000
0000
0000
3020
0000
0032
0000
0013
,
0200
0001
0310
0000
,
2000
0100
3001
0100
,
0020
1000
0130
0000
,
0002
0010
1003
0000
,
0100
0000
1100
0000
2000
0000
3001
1000
,
0010
0000
0000
0000
0110
0000
0000
0000
0100
0000
0000
0100
0000
0000
0100
0000
,
0001
0000
0011
0000
0002
0000
1003
0010
,
1000
0000
0000
0000
1001
0000
0000
0000
1000
0000
0000
1000
0000
0000
1000
0000
,
0020
0100
0001
0000
,
0001
0000
0100
0000
2030
0000
3001
0010
,
0001
0100
1000
0100
0001
0010
1000
0010
,
0001
0000
0000
0101
0000
0000
1000
0000
0100
0000
0000
1100
0000
0000
1000
0000
,
0001
0100
0001
0100
0010
1000
0001
0000
,
1100
0000
0000
1100
0000
0000
0001
0000
0010
0000
0000
0000
1001
0000
0000
0000
,
0001
0000
0101
0000
1100
0000
0001
0100
,
1000
0000
0000
0100
0000
0000
0010
0000
1000
0000
0000
0001
0000
0000
0010
0000
,
0001
0000
1100
0000
0101
0000
1000
0100
,
0001
0000
0000
0100
0000
0000
0010
0000
0001
0000
0000
1000
0000
0000
0010
0000
,
0100
0000
0011
0000
1010
0000
1000
0010
,
0100
0000
0000
1000
0000
0000
0100
0000
0010
0000
0000
1000
0000
0000
0001
0000
,
0010
0000
0110
0000
0001
0001
1000
1000
,
0000
0000
0110
0000
0000
0001
0000
0000
1000
0000
0000
2010
0000
0000
3001
0000
,
1000
0000
0000
1000
0100
0000
0000
0000
0110
0000
0000
0000
0001
1000
0001
0000
,
0200
0000
0310
2000
0000
3002
0000
0013
,
0001
0000
0000
0001
0100
0000
0000
0000
0110
0000
0000
0000
1000
0000
2001
0000
,
0000
0000
0000
0000
3010
0000
0100
0010
0100
0000
0001
0000
0001
0000
1000
0001
,
1000
0000
0000
1000
0010
0000
0000
0000
1000
0001
0000
0100
0000
0000
0001
0000
,
1000
0000
1000
0000
0100
0000
0000
0000
0010
0001
0000
1000
0000
0000
0001
0000
,
1000
0000
0010
0000
0001
0000
0010
0000
1000
0000
0000
0001
1000
0000
1002
0000
,
0000
0013
0100
1000
0100
0001
0100
0010
,
0001
0000
0100
0000
0100
0000
0000
0000
0100
0000
0100
0000
0000
0100
0000
0000
,
0000
0100
0000
0000
0100
0000
0000
0000
0100
0000
0000
0100
0000
0000
0100
0000
,
0000
0000
0010
0000
0010
0000
0000
0000
0010
0000
0010
0000
0000
0010
0000
0000
,
2000
0000
0000
0000
,
3000
0000
0000
0000
;

//---------------dance-single - t7r----------------
#NOTES:
     dance-single:
     t7r:
     Hard:
     16:
     :
0000
0000
0000
0000
,
0000
0000
0000
0000
,
0000
0000
0000
0000
,
0000
0000
0000
0000
,
0000
0000
0000
0000
,
1000
0100
1100
0101
,
0001
0010
0011
1010
,
0001
0100
1000
0100
0001
0010
1000
0010
,
0002
0000
0000
2003
0000
0000
3010
0000
,
0200
0000
0000
0000
0310
1000
0010
0001
,
0010
0100
0100
0001
0010
0100
1000
0100
,
0010
0000
0001
0000
0100
0001
0000
0100
0000
0000
1000
0000
0100
0000
0010
0000
,
1000
0000
0100
0000
0010
0000
0100
0000
1000
0000
0000
1100
0000
0000
0001
0000
,
0020
0100
0130
0010
0001
0010
1000
0010
,
0100
1000
0010
0001
0010
0010
0100
0100
,
0001
0000
0010
0000
0100
0000
0000
1000
0100
0000
0000
0101
0000
0000
0100
0000
,
0120
0000
0000
0001
0000
0000
0031
0000
0201
0000
0000
1000
0000
0000
1300
0000
,
0100
0000
2001
0000
3001
0100
0010
1000
,
0001
0000
0010
0000
0100
0001
0100
0000
0010
0000
0001
0000
0001
0000
1000
0000
,
0001
0000
0100
0000
1000
0100
0000
1000
0000
0000
0100
0000
0010
0000
1000
0000
,
0001
0000
0010
0001
0010
0000
0001
0000
1000
0000
0000
1010
0000
0000
0110
0000
,
0200
0000
0300
0000
0110
0000
0000
0000
1001
0000
0000
1000
0100
0000
1000
0000
,
0001
0100
0001
0000
1000
0000
0001
0000
1000
0100
1000
0000
0001
0000
0010
0000
,
0002
0000
0000
0003
,
0110
0000
0000
0101
0000
0000
0100
0000
0110
0000
0000
1010
0000
0000
0001
0000
,
1001
0000
0000
1000
0100
0000
1000
0000
0010
0000
0000
0100
0001
0000
0010
0000
,
0001
0000
0100
0001
0000
0100
0010
0000
0100
0000
1000
0100
0000
0010
0100
0000
,
0001
0000
0000
0001
0010
0000
0001
0000
0100
0000
0000
0010
1000
0000
0100
0000
,
1000
0000
0001
0010
0000
1000
0010
0000
0100
0000
0010
0001
0000
1000
0001
0000
,
1000
0000
0000
1000
0100
0000
0001
0000
0100
0000
0000
0010
0001
0000
1000
0000
,
0001
0000
0100
0010
0000
0001
0010
0000
0100
0000
0010
1000
0000
0001
1000
0000
,
0100
0000
0000
0100
0010
0000
0000
0000
0001
0000
2001
0000
0000
0000
3010
0000
,
0110
0000
0000
0101
0000
0000
0100
0000
0010
0000
2001
0000
0000
0000
0000
0000
,
3002
0000
0000
0013
0100
0000
0001
0000
0200
0000
0000
0000
0310
0000
0000
0000
,
0001
0000
0100
1000
0000
0100
0010
0000
0100
0000
0001
0010
0000
0010
0100
0000
,
2000
0000
0000
3010
0100
0000
1000
0000
0200
0000
0000
0000
0310
0000
0000
0000
,
1000
0000
0000
0100
0010
0000
0000
0000
0100
1000
0000
1000
0001
0000
0010
0000
,
1002
0000
0000
0103
0001
0000
0010
0000
2001
0000
0000
3100
1000
0000
0010
0000
,
1001
0000
0000
0100
0001
0000
0010
0000
0001
1000
0000
1000
0010
0000
0100
0000
,
0120
0000
1000
1000
0000
0130
0002
0000
,
1000
0000
0000
0000
0000
0000
0000
0000
0013
0000
0001
1000
0001
0000
0000
0000
,
0201
0000
0000
0000
2300
0000
3100
0001
0000
1000
0100
0000
0001
0000
0100
0000
,
1000
0010
1000
0000
0001
0000
1000
0100
0000
0010
1000
0000
0010
0000
0001
0000
,
0021
0000
0000
0000
2030
0000
3010
0001
0000
1000
0010
0000
0001
0000
0010
0000
,
0100
0000
1000
0100
0000
0001
0100
0000
0010
1000
0010
0000
0100
0001
0100
0000
,
0102
0000
0000
0000
0023
0000
1030
0010
0000
0100
0010
0000
1000
0000
0010
0000
,
0001
1000
0001
0000
0100
0000
1000
0100
0000
0001
0100
0000
0010
0100
0010
0000
,
0100
1000
0100
0000
0010
0000
0001
0010
0000
0010
1000
0000
0001
0010
0001
0010
,
0001
0000
0010
0000
1000
0000
0001
0000
1000
0000
0010
0000
0001
0000
1000
0001
,
2000
0000
3000
0000
0110
0000
0000
0110
0000
0000
1100
0000
2000
0000
3002
0000
,
1003
0000
0010
0000
0001
0000
0010
1000
0000
0010
0001
0000
0010
0000
0100
0000
,
0002
0000
0000
0103
0010
0000
0000
0110
0000
0000
0110
0000
0002
0000
2003
0000
,
3001
0000
0000
0101
0000
0000
1010
0000
0000
1100
0000
0000
0010
0000
0001
0000
,
1000
0100
1100
0000
0001
0100
0101
0000
,
1000
0010
1010
0000
0001
0010
0011
0000
,
1000
0000
0100
0000
0001
0000
1000
0000
0001
0000
0100
1000
0100
0000
1000
0001
,
2000
0000
0000
0000
0000
0000
0000
0000
3001
0000
0100
0010
0100
0000
0000
0000
,
0020
0000
0000
0000
0000
0000
0000
0000
1030
0000
0000
0000
0001
0000
0000
0010
,
2000
0000
3010
0200
0000
2300
0000
3010
,
0200
0000
0000
0000
1300
0000
0000
0000
1100
0000
0000
0000
1000
0000
0000
0100
,
0002
0000
0013
0200
0000
0302
0000
0103
,
0020
0031
0011
0000
,
1000
0000
0001
0000
1020
0030
2000
0000
,
3002
0000
0013
0000
1001
0200
0000
1300
,
0020
0000
0000
0000
0031
0000
0020
0000
0000
0000
0230
0000
0000
0000
0301
1000
,
0002
0000
0100
0000
0103
0000
0000
0000
0010
0000
0000
1000
0001
0000
0010
0001
,
2000
0000
0000
0000
3100
0000
0002
0000
0000
0000
0203
0000
0000
0000
1300
0001
,
2000
0000
0010
0000
3010
0000
0000
0000
0100
0000
0000
0001
1000
0000
0100
1000
,
0002
0000
0000
0000
0013
0000
2000
0000
0000
0000
3020
0000
0000
0000
0130
0010
,
0002
0000
0100
0000
0100
0000
0000
0000
1000
0000
0000
0010
0000
0000
1000
0000
,
0000
0100
0100
0000
2003
0000
3010
1000
,
0001
0000
1000
0010
1000
0000
0001
0010
0001
0000
1000
0100
1000
0000
0001
0100
,
0010
0000
0000
0110
0000
0000
1000
0000
1001
0000
0000
0101
0000
0000
1100
0000
,
0100
0000
0001
0100
0001
0000
0100
1000
0100
0000
1000
0010
1000
0000
0000
0000
,
1001
0000
0000
1010
0000
0000
0011
0000
0100
0000
0010
0000
1001
0000
0000
0000
,
1100
0000
0000
0100
0001
0000
0000
0100
1000
0000
0001
0000
0100
0000
1000
0000
,
0001
0000
0010
0100
0000
1000
0100
0000
0010
0000
0001
0010
0000
1000
0001
0000
,
0011
0000
0000
0010
1000
0000
0000
0010
0001
0000
1000
0000
0010
0000
0001
0000
,
1000
0000
0100
0010
0000
0001
0010
0000
0100
0000
1000
0100
0000
0001
1000
0000
,
1100
0000
0000
0100
0010
0000
0000
1000
0010
0000
0001
0000
1000
0000
0010
0000
,
0100
0000
1000
0100
0000
0010
1000
0000
0001
0000
0010
0100
0000
0001
0100
0000
,
0010
0000
1001
0000
0100
0100
0010
0110
,
0000
0000
0101
0000
0000
1010
0000
0000
1100
0000
0000
0011
0000
0000
1001
0000
,
0020
0000
0000
0130
0001
0000
0000
0010
0100
0000
1000
0000
0001
0010
0100
1000
,
0002
0000
0103
2000
0000
3002
0000
0013
,
0200
0000
0000
0301
0010
0000
0000
1000
0010
0000
0001
0000
1000
0010
0200
0000
,
0000
0000
0000
0000
0301
1000
0001
1000
0001
0000
0001
0000
1000
0000
0010
0100
,
0010
0000
0000
0001
0010
0000
0000
1000
0001
0010
0000
1000
0000
0000
0110
0000
,
0001
0000
0100
0000
0101
0000
0010
0000
1000
0001
0000
0100
0000
0000
0010
1000
,
0002
0000
0000
0000
0000
0000
1003
0010
0100
0000
1000
0100
0001
0000
0210
0000
,
0000
0000
0301
0010
0001
0000
0100
0000
1000
0100
0001
0100
0010
0000
1000
0000
,
0001
0000
0010
0000
0010
0000
0000
0000
0010
0000
0020
0000
0030
0010
0000
0000
,
0000
0010
0000
0000
0010
0000
0000
0000
0010
0000
0000
0010
0000
0000
0010
0000
,
0000
0000
0100
0000
0100
0000
0000
0000
0100
0000
0200
0000
0300
0100
0000
0000
,
2000
0000
0000
0000
,
3000
0000
0000
0000
;
