#VERSION:0.83;
#TITLE:Everything Black;
#SUBTITLE:;
#ARTIST:Unlike Pluto (feat. Mike Taylor);
#TITLETRANSLIT:;
#SUBTITLETRANSLIT:;
#ARTISTTRANSLIT:;
#GENRE:;
#CREDIT:Jenro Jupitel;
#MUSIC:Everything Black.ogg;
#BANNER:Everything-Black-bn.jpg;
#BACKGROUND:Everything-Black-bg.jpg;
#CDTITLE:cdtitle.png;
#SAMPLESTART:99.047;
#SAMPLELENGTH:18.980;
#SELECTABLE:YES;
#OFFSET:-0.476;
#BPMS:0.000=98.000;
#STOPS:;
#WARPS:56.000=4.000,
61.500=4.000,
68.000=4.000,
73.500=4.000,
81.000=4.000,
86.500=4.000,
92.000=4.000,
97.500=4.000,
102.500=4.000,
108.000=4.000,
113.000=4.000,
118.500=4.000,
123.500=4.000,
129.500=4.000,
134.500=4.000,
141.000=4.000,
149.000=4.000,
157.000=4.000,
165.000=4.000,
172.000=4.000
;
#SCROLLS:68.000=1.000;
#FAKES:56.000=4.000,
61.500=4.000,
68.000=4.000,
73.500=4.000,
81.000=4.000,
86.500=4.000,
92.000=4.000,
97.500=4.000,
102.500=4.000,
108.000=4.000,
113.000=4.000,
118.500=4.000,
123.500=4.000,
129.500=4.000,
134.500=4.000,
141.000=4.000,
149.000=4.000,
157.000=4.000,
165.000=4.000,
172.000=4.000
;
#BGCHANGES:;
#FGCHANGES:;

//--------------- dance-single - Jenro ----------------
#NOTEDATA:;
#STEPSTYPE:dance-single;
#DESCRIPTION:Jenro;
#DIFFICULTY:Beginner;
#METER:2;
#RADARVALUES:0,0,0,0,0;
#NOTES:
0000
0000
0000
0000
,
0000
0000
0000
0000
,
0000
0000
0000
0000
,
0000
0000
0000
0000
,
0000
0100
0000
0100
,
0000
0100
0000
0001
,
0000
0100
0000
1000
,
0000
0010
0000
1001
,
0000
0100
0000
0100
,
0000
0001
0000
0001
,
0000
0100
0000
0100
,
0000
1000
0000
1000
,
0000
0100
0000
0001
,
0000
0010
0000
0010
,
0000
0000
0000
0000
,
0000
1001
0000
0000
,
0000
0000
0000
1001
,
0000
0000
0000
0000
,
0000
1001
0000
0000
,
0000
0000
0000
1001
,
0000
0000
0000
0000
,
0000
0000
0000
0000
,
0000
0000
0000
0000
,
0000
0000
0000
0000
,
0000
0000
0000
0000
,
0000
0000
0000
0000
,
0000
0000
0000
0000
,
1001
0000
0000
0000
,
1001
0000
0000
0000
,
0000
0000
0000
0000
,
0000
0000
0000
0000
,
0000
0000
0000
0000
,
0100
0000
0000
0000
,
0000
0000
0000
0000
,
0000
0000
0000
0010
,
1001
0000
0000
0000
,
0000
0000
0100
0100
,
1001
0000
0000
0000
,
0000
0000
0100
0100
,
1001
0000
0000
0000
,
0000
0000
0100
0100
,
1001
0000
0000
0000
,
0000
0000
0100
0100
,
1001
0000
0000
0000
,
1001
0000
1001
0000
,
1001
0000
0100
0000
,
0010
0010
0001
0000
,
0010
0010
1000
0000
,
0100
0100
0100
0000
,
0010
0010
0010
0000
,
1000
1000
1000
0000
,
0001
0001
0001
0000
,
0100
0000
0000
0000
,
0100
0000
0000
0000
,
1000
0000
0000
0000
,
0100
0000
0000
0000
,
0010
0000
1000
0000
,
0010
0000
1000
0000
,
0001
0000
0010
0000
,
1000
0000
0001
0000
,
0100
0000
0100
0000
,
1000
0000
0001
0000
,
1000
0000
0010
0000
,
0001
0000
1000
0000
,
0001
0000
0001
0000
,
1000
0000
0010
0000
,
0100
0000
0100
0000
,
0001
0000
0100
0100
,
1001
0000
0010
0000
,
0100
0000
0001
0000
,
0100
0100
0100
0000
,
0001
0001
0001
0000
,
0010
0000
0010
0000
,
1000
0000
1000
0000
,
0001
0001
0001
0001
,
1000
1000
1000
1000
,
0010
0000
0000
0000
;

//--------------- dance-single - Jenro ----------------
#NOTEDATA:;
#STEPSTYPE:dance-single;
#DESCRIPTION:Jenro;
#DIFFICULTY:Easy;
#METER:4;
#RADARVALUES:0,0,0,0,0;
#NOTES:
0000
0000
0000
0000
,
0000
0000
0000
0000
,
0000
0000
0000
0000
,
0000
0000
0000
0000
,
0000
0020
0030
0002
,
0003
0020
0030
0020
,
0030
0200
0300
0002
,
0003
2000
3010
1001
,
0100
0000
0100
0000
,
0100
0001
0100
1000
,
0010
0000
0010
0000
,
0010
1000
0001
0010
,
0100
0000
0100
0000
,
0100
0000
0100
0010
,
1001
0000
0000
0000
,
0000
0100
0000
0000
,
0000
0000
1001
0100
,
1001
0000
0000
0000
,
0000
0100
0000
0000
,
0000
0000
1001
0100
,
0010
0M00
0000
0000
,
0000
0000
0100
0000
0000
0M00
0000
0000
,
0000
0000
0000
0000
0000
0100
0000
0000
,
0M00
0000
0000
0000
,
0100
0000
0000
0M00
0000
0000
0000
0000
,
0000
0000
0000
0100
0000
0M00
0000
0000
,
0000
0000
0000
0000
0000
0100
0000
0000
,
0MM0
0000
0000
0000
,
0110
0M00
0000
0000
,
0000
0000
0100
0000
0000
0MM0
0000
0000
,
0000
0000
0000
0000
0000
0100
0000
0M00
,
0000
0000
0000
0000
0000
0000
0000
0100
,
0000
0000
0000
0M00
0000
0000
0000
0000
,
0000
0000
0000
0100
0000
0M00
0000
0000
,
0000
0000
0000
0000
0000
0100
0000
0000
,
0000
0MM0
0000
0000
,
0000
0110
1000
0001
,
0100
0MM0
0000
0000
,
0000
0110
1000
0001
,
0100
0MM0
0000
0000
,
0000
0110
1000
0001
,
0100
0MM0
0000
0000
,
0000
0110
1000
0001
,
0MM0
0010
0100
1000
,
0110
0100
0010
0001
,
0110
0100
0010
1000
,
0001
0001
0100
0001
,
1000
1000
0100
1000
,
0110
0110
0110
0100
,
0110
0010
0001
0100
,
1000
1000
0001
1000
,
1000
0010
1000
1000
,
0100
0000
0000
0000
,
0001
0000
0000
0000
,
0010
0000
0000
0000
,
1000
0000
0000
0000
,
1000
0100
0001
0010
,
1000
0100
0001
0010
,
0001
0011
0001
0001
,
0001
0011
0001
0101
,
1001
1000
0000
0001
,
0000
1000
0000
0001
,
1001
1000
0000
1000
,
0001
1001
0001
0100
,
0010
1001
0100
0100
,
0010
1001
0100
0100
,
0010
1001
0100
0100
,
0010
1001
0100
0100
,
1100
1100
1100
0001
,
0101
0101
0101
0001
,
0110
1000
0110
0001
,
0110
1000
0110
0001
,
1000
1000
1000
0001
,
1000
1000
1000
0001
,
1000
1100
0001
0101
,
1000
0010
0001
0100
,
1000
0000
0000
0000
;

//--------------- dance-single - Jenro ----------------
#NOTEDATA:;
#STEPSTYPE:dance-single;
#DESCRIPTION:Jenro;
#DIFFICULTY:Medium;
#METER:7;
#RADARVALUES:0,0,0,0,0;
#NOTES:
0000
0000
0000
0000
,
0000
0000
0000
0000
,
0000
0000
0000
0000
,
0000
0000
0000
0000
,
0000
0020
2030
3002
,
0203
0310
0200
0310
,
0020
2030
3002
0203
,
0301
1000
0110
0001
,
0101
1000
0101
1000
,
1100
0001
1100
0001
,
0101
0010
1100
0010
,
0200
1000
0310
1001
,
1000
0101
1000
0101
,
0001
1100
0001
1100
,
0110
1001
0101
0000
,
0110
1001
0101
1100
,
0000
0000
0101
1100
,
1100
0101
0110
0000
,
1100
0101
0110
0000
,
0000
0000
0110
1001
,
0100
1000
0100
0000
,
0000
1000
0100
0001
,
0000
0000
0000
0001
,
0100
1000
0000
0000
,
0100
1000
0100
0000
,
0000
0000
0100
0001
,
0000
0000
0000
0100
,
1001
0000
0000
0000
,
1001
0001
0000
0000
,
0000
0001
0010
1000
,
0010
0000
0000
1000
,
0010
0000
0000
0000
,
0010
0001
0000
0000
,
0000
0000
0100
0000
,
0000
0000
0000
0100
,
1001
0110
0000
0000
,
0000
0000
1001
1001
,
1001
0110
0000
0000
,
0000
0000
1001
1001
,
1001
0110
0000
0000
,
0000
0000
1001
1001
,
1001
0110
0000
0000
,
0000
0000
1001
1001
,
0110
0110
0110
0000
,
0110
0110
0110
1000
,
0110
0110
0110
2000
,
3100
0002
0103
2000
,
3100
0002
0103
1001
,
0110
0110
0110
0001
,
0110
0110
0110
1000
,
1000
1100
0001
0101
,
1000
1100
0001
0101
,
0110
2000
3000
0000
,
0000
0002
0003
0000
,
0000
0020
0030
0000
,
0000
0200
0300
0000
,
0000
0000
1000
1000
0010
0000
0001
0001
,
0100
0000
0100
0100
0100
0000
0110
0000
,
0102
0103
0102
0103
,
2100
3100
2100
3100
,
1001
0000
0010
0100
1000
0001
0100
0000
,
0020
0000
0130
0000
0100
0001
1000
0010
,
0010
0000
0001
0010
0100
1000
0100
0000
,
0220
0330
1100
0101
,
1001
0110
1002
1003
,
1001
0110
2001
3001
,
1001
0000
0110
0000
1000
1000
0001
0001
,
1001
0000
0110
0000
0001
0001
1000
1000
,
1001
1001
1001
0110
,
1001
1001
1001
0110
,
1000
1000
0001
1000
1000
0000
1100
0000
,
1000
1000
0001
1000
1000
0100
1100
0000
,
1001
1001
1001
0110
,
1001
1001
1001
0110
,
0001
0001
1000
0001
0001
0000
0101
0000
,
0001
0001
1000
0001
0001
0010
0010
0000
,
0101
0000
0000
0000
;

//--------------- dance-single - Jenro ----------------
#NOTEDATA:;
#STEPSTYPE:dance-single;
#DESCRIPTION:Jenro;
#DIFFICULTY:Hard;
#METER:11;
#RADARVALUES:0,0,0,0,0;
#NOTES:
0000
0000
0000
0000
,
0000
0000
0000
0000
,
0000
0000
0000
0000
,
0000
0000
0000
0000
,
0000
0000
0000
0100
0010
0100
0000
0010
0000
0001
0000
1000
0000
0001
0000
0200
,
0000
0300
0000
0000
,
0000
0000
0010
0000
0001
0000
1000
0010
0000
0000
0000
0000
0000
0000
0000
0000
,
0000
0000
0000
0001
1000
0100
0000
0000
1001
0000
0000
0001
0100
0000
0000
0000
,
1001
0000
0000
0000
1000
0010
1000
0000
0001
0000
0000
0000
0001
0100
0001
0000
,
1000
0000
0000
0010
1000
0010
1000
0100
0020
0000
0000
0000
0031
0000
0000
0000
,
1000
0000
0000
0000
1000
0100
1000
0000
0001
0000
0000
0000
0001
0100
0001
0000
,
1000
0100
0110
0010
0011
0000
1002
0000
,
0103
0000
0000
0000
1000
0010
0100
0000
0001
0000
0000
0000
0001
0010
0100
0000
,
1000
0000
0000
0000
0100
0010
0100
0000
0010
0000
0010
0001
1000
0000
1000
0001
,
000M
0101
0000
0001
0101
0100
0110
1000
,
0001
0000
0101
0000
0000
0000
000M
0000
0101
0000
0100
0010
0100
0000
1000
0000
,
1000
0000
1010
0000
0000
0000
0001
0000
0101
0000
0100
0010
0100
0000
1000
0000
,
M000
1010
0000
1000
1010
0000
0101
0000
,
1000
1010
0000
M000
1010
0000
0101
0000
,
1001
0000
0000
1000
1010
0000
0101
0000
,
1001
0000
M000
0100
0000
0100
0010
0000
,
0010
0001
1000
0100
0000
0M00
0010
0000
,
0010
0001
0000
0001
0100
0100
0010
0000
,
00M0
0000
0001
0000
0000
0000
0001
0000
0100
0000
0001
0000
0001
0100
0001
0000
,
0010
0000
0001
0000
0000
0000
000M
0000
0100
0000
0001
0000
0001
0100
0001
0000
,
0101
0000
0000
0000
0001
0000
0001
0000
0100
0000
000M
0000
0001
0100
0001
0000
,
0101
0000
0000
0000
0001
0000
0100
0000
0000
0000
0001
0000
0001
0100
0001
0000
,
0M0M
0000
0001
0100
0000
0100
0010
1000
,
0101
0000
000M
0100
0000
0100
0010
1000
,
0020
0030
0001
0100
0000
0M00
0010
1000
,
0020
0000
0000
0130
0000
0000
1000
0000
0000
0000
0100
0000
0010
0000
M000
0000
,
0020
0000
0000
0130
0000
0000
1000
0000
0100
0000
1000
0000
0000
0000
1000
0000
,
0020
0000
0000
0130
0000
0000
M000
0000
0100
0000
1000
0000
1000
0100
1000
0000
,
0001
0000
0000
0000
0101
0000
1000
0000
0100
0000
M000
0000
1000
0100
1000
0000
,
0001
0000
0000
0000
0101
0000
0000
0000
1000
0000
1000
0000
1000
0100
1000
0000
,
0001
0000
0000
0000
0M0M
0000
0000
0000
1000
0100
1000
0000
1000
0100
1000
0000
,
0010
0000
0000
0000
0101
0000
0000
0000
1000
0100
1000
0000
1000
0100
1000
0000
,
0010
0000
0000
0000
0M0M
0000
0000
0000
0010
0001
0010
0000
0010
0001
0010
0000
,
0100
0000
0000
0000
0101
0000
0000
0000
0010
0001
0010
0000
0010
0001
0010
0000
,
0100
0000
0000
0000
M0M0
0000
0000
0000
1000
0100
1000
0000
0001
0100
0001
0000
,
0010
0000
0000
0000
1010
0000
0000
0000
1000
0100
1000
0000
0001
0100
0001
0000
,
0010
0000
0000
0000
0000
0000
0000
0000
0000
0000
0000
0000
0000
0000
0000
0000
0000
0000
0000
0000
0000
0000
0000
0000
0000
0000
0000
0000
0000
0000
0000
0000
0000
0000
0000
0000
0000
0000
0000
0000
0000
0000
0000
0000
0000
0000
0000
0000
0000
MM00
0000
0000
0000
0000
0000
0000
0000
0000
0000
0000
0000
0000
0000
0000
0000
0000
0000
0000
0000
0000
0000
0000
0000
0000
0000
0000
0000
0000
0000
0000
0000
0000
0000
0000
0000
0000
0000
0000
0000
0000
0000
0000
0000
0000
0000
0000
0010
0000
0000
0000
0000
0000
0000
0000
0000
0000
0000
0000
0100
0000
0000
0000
0000
0000
0000
0000
0000
0000
0000
0000
0010
0000
0000
0000
0000
0000
0000
0000
0000
0000
0000
0000
0000
0000
0000
0000
0000
0000
0000
0000
0000
0000
0000
0000
0010
0000
0000
0000
0000
0000
0000
0000
0000
0000
0000
0000
0100
0000
0000
0000
0000
0000
0000
0000
0000
0000
0000
0000
0010
0000
0000
0000
0000
0000
0000
0000
0000
0000
0000
0000
0000
0000
0000
0000
0000
0000
0000
0000
0000
0000
0000
0000
,
1001
0000
0000
0000
1100
0000
0000
0000
0010
0100
0010
0000
0010
0100
0010
0000
,
M00M
1001
1001
1001
,
1001
0000
0000
0000
1001
0000
0000
0000
1001
0000
0000
0000
1000
0001
0100
0001
,
0010
0000
0000
0000
1100
0000
0000
0000
0011
0000
0000
0000
0001
0100
0010
1000
,
0100
0000
0100
0000
1000
0000
1000
0000
0100
0000
0100
0010
0000
0110
0000
0000
,
0010
0000
0010
0000
0001
0000
0001
0000
0100
0000
0100
0100
0000
0110
0000
0000
,
1001
0000
0000
0000
1001
0000
0000
0000
1001
0000
0000
0000
0001
0010
0100
1000
,
0001
0000
0000
0000
1100
0000
0000
0000
0101
0000
0000
0000
1000
0001
0100
0010
,
1000
0000
0010
0000
0001
0000
0001
0000
0010
0000
0010
0100
0000
0110
0000
0000
,
0100
0000
0100
0000
1000
0000
1000
0000
0100
0000
0100
0010
0000
0110
0000
0000
,
0000
0000
0000
0000
0001
0010
0100
0000
0000
0000
0000
0000
0000
0000
0000
0000
,
0000
0000
0000
1000
0001
1000
0100
0000
0000
0000
0000
0000
0000
0000
0000
0000
,
0000
0000
0000
0000
0001
1000
0010
0000
0000
0000
0000
0000
0000
0000
0000
0000
,
0000
0000
0000
0000
0010
1000
0010
0000
0000
0000
0000
0000
0000
0000
0000
0000
,
0000
0000
0000
0000
0001
0010
0100
0000
0000
0000
0000
1000
0001
1000
0100
0000
,
0000
0000
0000
0100
1000
0100
1000
0010
1000
0000
0010
1000
0010
0000
0001
0100
,
0001
0000
0101
0000
0000
0000
1000
0000
0101
0000
0100
0010
0100
0000
1000
0010
,
1000
1010
0000
1000
1010
0000
0102
0000
,
1003
0000
0000
0000
0001
0010
0100
0000
0110
0000
0010
0001
0100
0000
0010
0000
,
0110
0000
0000
0000
1100
0000
1000
0000
0010
0000
1000
0000
1000
0010
1000
0000
,
1010
0000
0000
0000
1000
0001
0010
0000
0110
0000
0010
0001
0100
0000
0001
0000
,
0110
0000
0010
0100
0000
0000
0001
0000
0011
0000
0001
0000
0001
0010
0001
0000
,
1000
0000
0100
0000
1010
0000
0000
0000
0001
0010
0001
0000
0001
0010
0001
0000
,
0100
0000
0010
0000
1010
0000
0000
0000
0100
1000
0100
0000
0100
1000
0100
0000
,
0010
0000
0001
0000
0101
0000
0000
0000
0001
0010
0001
0000
1000
0010
1000
0000
,
0100
0010
0001
1000
0010
1000
0010
0100
0001
0100
0010
1000
0001
1000
0010
0000
,
1001
0000
0100
0000
1001
0000
0100
0000
1001
0000
0100
0000
0001
0010
0100
1000
,
0100
0000
0110
0000
0001
0000
0110
0000
0001
0000
0110
0000
1000
0100
0010
0001
,
0010
0000
0011
0000
0001
0000
0101
0000
0010
0000
0010
0100
0000
0110
0000
0000
,
0100
0000
0100
0000
1100
0000
1000
0000
1010
0000
0110
0000
0100
0010
0000
0000
,
1001
0000
0010
0000
1001
0000
0010
0000
1001
0000
0010
0000
1000
0100
0010
0001
,
0010
0000
1100
0000
0010
0000
1100
0000
0010
0000
1100
0000
0001
0010
0100
1000
,
0100
0000
0110
0000
1000
0000
1001
0000
0100
0000
0100
0010
0000
0110
0000
0000
,
0010
0000
0110
0000
0001
0000
1001
0000
0010
0000
0010
0100
0000
0110
0000
0000
,
0100
0000
0000
0000
;
