#TITLE:Everlasting Resort;
#SUBTITLE:;
#ARTIST:SUPER STAR 満-MITSURU-;
#TITLETRANSLIT:;
#SUBTITLETRANSLIT:;
#ARTISTTRANSLIT:;
#GENRE:;
#CREDIT:;
#MUSIC:Everlasting Resort.mp3;
#BANNER:bn.png;
#BACKGROUND:bg.png;
#CDTITLE:;
#SAMPLESTART:26.440;
#SAMPLELENGTH:12.973;
#SELECTABLE:YES;
#OFFSET:-0.494;
#BPMS:0.000=148.000;
#STOPS:;
#BGCHANGES:;
#FGCHANGES:;

//--------------- dance-single - ----------------
#NOTES:
     dance-single:
     :
     Beginner:
     3:
     0,0,0,0,0:
0000
0000
0000
0000
,
0000
0000
0000
0000
,
0000
0000
0000
0000
,
0000
0000
0000
0000
,
2000
0000
0000
0000
,
0000
0000
3000
0000
,
0002
0000
0000
0000
,
0000
0000
0003
0000
,
0000
1000
0000
1000
,
0000
0001
0000
0001
,
0000
0010
0000
0010
,
0000
0100
0000
0100
,
0100
0000
0100
0000
,
1000
0000
1000
0000
,
0001
0001
0001
0000
,
2002
0000
3003
0000
,
1000
1000
0001
0000
,
0100
0000
0000
0000
,
0001
0001
1000
0000
,
0100
0000
0000
0000
,
0010
0010
0001
0000
,
1000
0000
0000
0000
,
0010
0010
1000
0000
,
0001
0000
0100
0000
,
0010
0010
0100
0000
,
0001
0000
0000
0000
,
0010
0010
0100
0000
,
1000
0000
0000
0000
,
0001
0001
0100
0000
,
0110
0000
0000
0000
,
0110
0000
1001
0000
,
0010
0000
0010
0000
,
0200
0000
0300
0000
,
0001
0000
1000
0000
,
0200
0000
0300
0000
,
0010
0010
0010
0000
,
0020
0000
0030
0000
,
0001
0000
1000
0000
,
0020
0000
0030
0000
,
0001
0000
0010
0000
,
0000
1000
0000
1000
,
0000
0001
0000
0001
,
0000
0010
0000
0010
,
0000
0100
0000
0100
,
0100
0000
0010
0000
,
0001
0000
1000
0000
,
0010
0000
0100
0000
,
2002
0000
3003
0000
,
0001
0100
0001
0000
,
1000
0010
1000
0000
,
0001
0010
0001
0000
,
1000
0000
0100
0000
,
0010
0100
0010
0000
,
0001
1000
0001
0000
,
0100
0010
0100
0000
,
0001
0000
1001
0000
,
0100
0010
0100
0000
,
0001
1000
0001
0000
,
1000
0100
1000
0000
,
0010
0000
0100
0000
,
0001
0000
2000
0000
,
3000
0000
0100
0000
,
0010
0010
0100
0000
,
1000
1000
0001
0000
,
0200
0000
0000
0000
,
0000
0000
0000
0000
,
0000
0000
0300
0000
;

//--------------- dance-single - ----------------
#NOTES:
     dance-single:
     :
     Easy:
     6:
     0,0,0,0,0:
0000
0000
0000
0000
,
0000
0000
0000
0000
,
0000
0000
0000
0000
,
0000
0000
0000
0000
,
0002
0000
0000
0000
,
2003
0000
0000
0000
,
3002
0000
0000
0000
,
0023
0000
0000
0000
,
0030
0100
0000
1000
,
0000
0010
0000
0100
,
0000
1000
0000
0100
,
0000
0001
0000
1000
,
0100
0100
0010
0010
,
0001
0001
1000
1000
,
0010
0100
0010
1000
,
0001
0000
0000
1000
0000
0000
1001
0000
,
0010
0100
0001
0010
,
0100
0110
0000
1001
,
0010
0100
0001
1000
,
0100
0110
0002
2003
,
3010
0100
0001
0100
,
0010
0110
0000
1001
,
0010
0100
1000
0010
,
0001
0000
0000
0001
0000
0000
0010
0000
,
1000
0001
0010
0100
,
1000
1001
0001
1001
,
0010
0100
0001
1000
,
0100
0110
0002
2003
,
3010
0100
0010
1000
,
1001
0001
1000
0100
,
0110
1000
1001
0100
,
0010
0000
0000
0010
0000
0000
1000
0000
,
0200
0000
0310
0000
,
0200
0000
1300
0000
,
0020
0000
0130
0000
,
1000
0100
0001
0100
,
0020
0000
0130
0000
,
0020
0000
1030
0000
,
0200
0000
0310
0000
,
1000
0010
0001
0100
,
0010
1000
0001
0000
,
0010
0100
1000
0000
,
0010
0100
0010
0001
,
1000
0100
0001
1000
,
0100
0100
0010
0010
,
0001
0001
1000
1000
,
0010
0001
0010
1000
,
1001
0000
0000
0010
0000
0000
0110
0000
,
0100
1000
0100
0001
,
0010
0100
0001
0100
,
1000
0010
0100
0001
,
1000
1100
1000
1001
,
0010
1000
0010
0001
,
0100
0010
0001
0010
,
1000
0001
0100
0001
,
2000
3200
0302
0203
,
1300
0001
0100
0110
,
0001
1000
0100
0110
,
0001
1000
0010
0001
,
0010
1000
0100
0010
,
0001
0000
0000
0000
1000
0000
0000
0000
0010
0000
0000
0000
0100
0000
0000
0002
,
0000
0000
0013
0110
,
1000
1000
0001
0001
,
0100
0010
0100
0000
0001
1000
0001
0000
,
0020
0000
0000
0000
,
0000
0000
0000
0000
,
0000
0000
0030
0000
;

//--------------- dance-single - ----------------
#NOTES:
     dance-single:
     :
     Medium:
     10:
     0,0,0,0,0:
0000
0000
0000
0000
,
0000
0000
0000
0000
,
0000
0000
0000
0000
,
0000
0000
0000
0000
,
2000
0000
0000
0000
3020
0000
0000
0200
,
0000
0000
0000
0330
,
0002
0000
0023
0230
,
0302
0000
0000
0203
0000
0000
2300
0000
,
3000
0001
0000
0100
0000
0001
0000
0100
,
0000
1000
0000
0100
0000
1000
0000
0100
,
0000
0001
0000
0010
0000
0001
0000
0010
,
0000
1000
0000
0010
0000
1000
0000
0010
,
0100
0110
1000
1001
,
0010
0110
0001
1001
,
0010
0100
0010
0100
0001
1000
0001
1000
,
0100
0000
0000
0010
0000
0000
1001
0000
,
1000
0100
0010
0001
0100
0010
0100
0002
,
1000
0100
0000
0103
,
0001
1000
0001
0010
0100
1000
0001
0200
,
0000
1000
0010
0301
,
1000
0001
1000
0010
0100
0001
0010
0200
,
1000
0010
0000
0310
,
0001
1000
0010
0100
1000
0100
0001
1000
,
0100
0000
0000
0100
0000
0000
0010
0001
,
1000
0010
0100
0001
0010
0100
1000
0002
,
0100
1000
0000
1003
,
0010
0100
0010
1000
0001
0010
0100
0020
,
0000
1000
0100
0031
,
0011
0000
0001
0100
1000
0100
0001
0000
,
1010
0000
1000
0100
0001
0100
1000
0000
,
1200
1000
1300
0000
0021
0001
0031
0000
,
1000
0000
0000
0100
0000
0000
0010
0001
,
0200
0000
0000
0001
0301
0000
0000
0000
,
0002
0000
0000
0103
1000
0000
0100
0000
,
0002
0000
0000
1000
1003
0000
0000
0000
,
0010
0001
0010
1000
,
0200
0000
0000
1000
1300
0000
0000
0000
,
2000
0000
0000
3100
0001
0000
0100
0000
,
0020
0000
0000
0031
0200
0000
0000
0000
,
1300
0100
0001
1000
,
0100
0010
0100
0000
0100
1000
0001
0000
,
0100
0010
0100
0000
0100
0001
1000
0000
,
0100
0000
0000
0010
0000
0000
0001
0000
1000
0000
0000
0000
0010
0000
0000
0000
,
0001
1000
0100
0001
,
1000
0100
1000
0100
0010
0001
0100
0000
,
0001
0100
0001
0100
0010
1000
0100
0000
,
1000
0000
0000
0010
0000
0000
0100
0000
0002
0000
0000
0000
1003
0000
0000
0000
,
1100
0000
0000
0011
0000
0000
1001
0000
,
1000
0000
0000
0010
0000
0000
0100
0000
0001
0000
0000
0000
1001
0000
0000
0000
,
0001
0000
0000
0010
0000
0000
0100
0000
1000
0000
0000
0000
1001
0000
0000
0000
,
0100
0000
0000
0010
0000
0000
0001
0000
0100
0000
0000
0000
0110
0000
0000
0000
,
1000
0100
0001
0000
1000
0100
0010
0000
,
0001
0000
0000
1000
0000
0000
0010
0000
0100
0000
0000
0000
0110
0000
0000
0000
,
1000
0000
0000
0001
0000
0000
0010
0000
0100
0000
0000
0000
0110
0000
0000
0000
,
1000
0000
0000
0001
0000
0000
0100
0000
0001
0000
0000
0000
1000
0000
1000
0000
,
0002
0023
2030
3002
,
0103
0000
0000
0010
0000
0000
0001
0000
1000
0000
0000
0000
1010
0000
0000
0000
,
0100
0000
0000
0010
0000
0000
1000
0000
0001
0000
0000
0000
0011
0000
0000
0000
,
0100
0000
0000
0010
0000
0000
0100
0000
1000
0000
0000
0000
0010
0000
0001
0000
,
0020
0130
0002
0013
,
0100
0000
1000
0000
0100
0000
1000
0000
0001
0000
0100
0000
0010
0000
0000
0002
,
0000
0000
0013
1000
,
0001
0010
0100
0100
1000
0001
0100
0100
,
0010
1000
0010
0100
0001
0010
0100
1000
,
0020
0000
0000
0000
,
0000
0000
0000
0000
,
0000
0000
0030
0000
;

//--------------- dance-single - ----------------
#NOTES:
     dance-single:
     :
     Hard:
     13:
     0,0,0,0,0:
0000
0000
0000
0000
,
0000
0000
0000
0000
,
0000
0000
0000
0000
,
0000
0000
0000
0000
,
1000
0010
0100
1000
0001
0010
0100
0002
,
0000
0000
0000
0003
,
1000
0100
0010
1000
0001
0100
1000
0010
,
0002
0000
0000
2003
0000
0000
3100
0000
,
0001
1000
0001
0010
0000
0100
0001
0100
,
0000
1000
0001
0100
0000
0010
0100
0010
,
0000
1000
0001
0010
0000
1000
0010
1000
,
0000
0010
0100
1000
0000
0001
0100
0001
,
0000
1000
0010
0100
0000
0001
0010
1000
,
0000
0010
0001
0100
0000
1000
0100
0001
,
1000
0000
0010
0000
1000
0000
1000
0000
0001
0100
0001
0000
1000
0100
1000
0000
,
0110
0000
0000
1001
0000
0010
0101
0000
,
1000
0000
0000
1000
0100
0010
0000
0002
0000
0000
0103
0000
0010
0000
1000
0000
,
0001
0000
0000
0001
0010
0000
0000
0000
0100
0000
0000
0100
0010
0000
0000
0000
,
0001
0000
0000
0001
1000
0010
0000
0200
0000
0000
0301
0000
1000
0000
0001
0000
,
0010
0000
0000
0010
0100
0000
0000
0000
1000
0000
0001
0000
0100
0000
0000
0000
,
1100
0000
0000
0100
0010
1000
0000
0002
0000
0000
0013
0000
0100
0000
1000
0000
,
0001
0000
0000
0001
1000
0000
0000
0000
0010
0000
0000
0010
0100
0000
0000
0000
,
0101
0000
0000
1000
0001
0010
0000
0200
0000
0000
1300
0000
0001
0000
1000
0000
,
0010
0000
0000
0010
0000
0000
0010
0000
0000
0100
0001
0000
0010
0000
0100
0000
,
1000
0000
0000
1000
0001
0100
0000
0020
0000
0000
0130
0000
0001
0000
1000
0000
,
0001
0000
0010
0100
0000
0010
0100
0000
1000
0000
0001
0100
0000
0001
0100
0000
,
0010
0000
0000
0010
0100
0001
0000
2000
0000
0000
3100
0000
0010
0000
0001
0000
,
1000
0000
0010
1000
0000
0010
0100
0000
1000
0000
0100
0000
0001
0000
0000
0000
,
0101
0000
0000
1000
0001
0010
0000
0200
0000
0000
0310
0000
0001
0000
1000
0000
,
1010
0000
0000
0010
0100
0000
0000
0000
0001
0000
0000
0001
1000
0000
0000
0000
,
1100
0000
0000
0100
0010
0001
0000
2000
0000
0000
3010
0000
0100
0000
0010
0000
,
0001
0000
0000
0001
0000
0000
1000
0000
0000
0100
0000
0000
0001
0000
1000
0000
,
0100
0000
0000
0010
0000
0000
0001
0000
0200
0000
0000
0000
0300
0000
0100
0000
,
0001
0000
0000
1000
0000
0000
0100
0000
0001
0000
0000
0000
0100
0000
0000
0000
,
0010
0000
0000
0001
0000
0000
1000
0000
0010
0000
0000
0000
0100
0000
0000
0000
,
1000
0000
0100
0000
0001
1000
0100
0010
,
0001
0000
0000
0100
0000
0000
0001
0000
0020
0000
0000
0000
0030
0000
0010
0000
,
0001
0000
0000
1000
0000
0000
0010
0000
0001
0000
0000
0000
0010
0000
0000
0000
,
0100
0000
0000
0001
0000
0000
1000
0000
0200
0000
0000
0000
0300
0000
0010
0000
,
0001
1000
0000
0010
0000
0100
0000
2000
0000
0000
3100
0000
0001
0000
1000
0000
,
0100
0000
0000
0100
0010
0000
0001
0000
1000
0000
0000
1000
0010
0000
0000
0000
,
0100
0000
0000
0100
0001
0000
0010
0000
1000
0000
0000
1000
0010
0000
0000
0010
,
0100
0000
1000
0001
0000
1000
0001
0000
0100
0000
0010
1000
0000
0010
1000
0000
,
0001
0000
0010
0100
0000
0010
0100
0000
0001
0000
0100
0000
1000
0000
0001
0000
,
0100
0010
0100
0001
0010
0100
1000
0001
,
1000
0010
0100
0010
0001
1000
0100
0001
,
1000
0000
0100
0000
1000
0000
0001
0000
1000
0010
1000
0000
0001
0010
0001
0000
,
0110
0000
0000
1001
0000
0100
1100
0001
,
0100
0000
0010
1000
0000
0010
0100
0000
0001
0000
1000
0000
0100
0000
0010
0000
,
0001
0000
1000
0100
0000
0010
0100
0000
0001
0000
0100
0000
1000
0000
0001
0000
,
0100
0000
0010
0100
0000
0010
1000
0000
0001
0000
0010
0000
1000
0000
0010
0000
,
0100
0000
0000
1000
0000
0000
0010
0000
0001
0000
1000
0000
0100
0000
0001
0000
,
1000
0000
0100
1000
0000
0100
0010
0000
0001
0000
1000
0000
0010
0000
0100
0000
,
0001
0000
1000
0010
0000
0100
0001
0000
0010
0000
1000
0000
0010
0000
0001
0000
,
1000
0000
0100
0010
0000
0001
0100
0000
0010
0000
0100
0000
0100
0000
0100
0000
,
0001
0000
0000
0010
0000
0000
1000
0000
0100
0000
1000
0000
0010
0000
0001
0000
,
1000
0000
0010
0100
0000
0010
1000
0000
0001
0000
0010
0100
0000
0010
0001
0000
,
1000
0000
0010
0100
0000
0001
1000
0000
0001
0000
0010
0100
0000
1000
0001
0000
,
0100
0000
1000
0100
0000
0010
0100
0000
0001
0000
0010
0000
1000
0000
0001
0000
,
0100
0000
0000
1000
0000
0000
0010
0000
0100
0000
0001
0000
1000
0000
0100
0000
,
0010
0000
0010
0000
0001
0000
0001
0000
1000
0010
1000
0000
0001
0100
0000
2100
,
0000
0000
0000
0000
0000
0000
0000
0000
3100
0000
0010
0100
0001
0000
0000
0000
,
1000
0100
1000
0100
0001
0100
0001
0100
,
1000
0010
1000
0010
0001
0010
1000
0100
,
0020
0000
0000
0000
,
0000
0000
0000
0000
,
0000
0000
0030
0000
;
