#TITLE:Entertainment;
#SUBTITLE:;
#ARTIST:Studio 2;
#TITLETRANSLIT:;
#SUBTITLETRANSLIT:;
#ARTISTTRANSLIT:;
#GENRE:;
#CREDIT:;
#MUSIC:Kemet Records - Studio 2 - Entertainment.ogg;
#BANNER:;
#BACKGROUND:;
#CDTITLE:;
#SAMPLESTART:0.051;
#SAMPLELENGTH:10.599;
#SELECTABLE:YES;
#OFFSET:0.656;
#BPMS:0.000=169.822
,24.000=84.911
,28.000=339.644
,212.000=84.911
,216.000=339.644
,647.500=169.822
,664.000=84.911
;
#STOPS:83.500=1.413
,212.000=2.826
,591.500=1.413
,647.500=1.325
,664.000=5.300
;
#BGCHANGES:;
#FGCHANGES:;

//--------------- dance-single - Step artist ----------------
#NOTES:
     dance-single:
     Step artist:
     Hard:
     12:
     0,0,0,0,0:
0000
0000
0000
0000
,
0000
0000
0000
0000
,
0000
0000
0000
0000
,
0000
0000
0000
0000
,
0000
0000
0000
0000
,
0000
0000
0000
0000
,
0000
0000
0000
0000
,
1000
0100
0010
0000
,
0001
1000
1001
0000
,
0001
0100
0010
0000
,
1000
0010
0100
0000
,
1000
0100
0010
0000
,
1000
0001
1000
1000
,
0010
0100
0010
1000
,
0001
0000
0101
0000
,
0001
0000
1000
0100
,
0010
0100
1000
0000
,
0010
0000
0100
0010
,
1000
0010
0100
0000
,
0001
0000
1000
0001
,
0100
0010
1000
0010
,
0100
0000
0100
0001
,
1000
0000
0001
1000
,
0100
0001
0100
1000
,
0000
0010
0100
0010
,
1000
0000
1000
0010
,
0000
0010
0100
0001
,
0010
0100
1000
0001
,
1001
0000
1001
0000
,
1000
0000
0010
0100
,
1000
0000
0100
0001
,
0010
0001
1000
0010
,
0000
0010
0100
0001
,
1000
0100
0010
0001
,
1000
1000
0001
0001
,
0100
0010
0100
0001
,
1010
0000
0101
0000
,
1000
0010
0100
0001
,
0010
0100
0010
0001
,
1000
0010
1000
0001
,
1000
0100
1000
0001
,
0100
0010
1000
0010
,
0100
0001
1000
0100
,
0001
0100
1000
0010
,
0110
0000
0110
0000
,
0001
0010
0001
0100
,
0010
1000
0100
1000
,
0010
0100
1000
0100
,
0010
1000
0010
0100
,
0001
0010
1000
0010
,
0001
0100
1000
0100
,
0001
1000
0001
1000
,
0010
0100
0010
0100
,
0001
0000
0000
0000
,
0001
0000
1000
0000
,
0001
0010
0100
1000
,
0001
0000
1000
0000
,
1000
0100
0010
0001
,
0100
0010
1000
0010
,
0000
0100
0100
0000
,
0001
1000
0001
0100
,
0010
1000
0001
0100
,
0010
0000
1000
0000
,
0001
0010
0100
1000
,
0001
0000
1000
0000
,
1000
0010
0100
0001
,
1000
0000
0001
0100
,
0000
1000
0100
0100
,
0001
0000
0000
0000
,
0000
0000
0000
0000
,
1100
0000
0101
0000
,
1000
0100
0001
0100
,
1000
0000
1000
0010
,
0100
0000
0100
0000
,
0001
0000
0010
0100
,
1000
0100
0001
0000
,
0100
0010
0001
1000
,
0010
0000
0110
0000
,
0001
0000
0001
0010
,
1000
0010
0100
0010
,
0001
0000
1000
0001
,
0100
0000
0110
0000
,
1000
0000
0010
0100
,
1000
0100
0001
0000
,
0010
0100
0001
0100
,
1000
0000
1001
0000
,
1000
0000
1000
0100
,
0001
0100
1000
0000
,
0001
0000
0001
0100
,
1000
0100
0001
0000
,
1000
0000
1000
0100
,
0001
0100
1000
0000
,
0010
0100
0010
1000
,
0001
0000
1001
0000
,
0001
0000
0001
0010
,
0100
0010
0001
0000
,
1000
0000
1000
0010
,
0100
0010
1000
0000
,
0001
0000
0001
0010
,
0100
0010
0001
0000
,
1000
0001
0100
0010
,
1000
0000
0000
0000
,
0001
0000
0001
0010
,
0000
0010
0100
0000
,
1000
0100
0001
0100
,
0000
0010
0100
0000
,
0010
0001
1000
0000
,
0000
1001
0000
0000
,
1000
0001
0100
0000
,
0110
0000
0110
0000
,
0001
0000
0001
0010
,
0000
1000
0010
0000
,
0100
0000
0010
0001
,
0000
1000
0010
0000
,
0100
0000
1000
0100
,
0000
0001
0000
0000
0010
0000
0010
0000
,
0000
0000
0000
0001
0000
0000
1000
0000
,
0001
0010
0100
1000
,
0001
0000
1000
0000
,
0001
0010
0100
1000
,
0010
0000
0100
0010
,
0000
0100
0010
0000
,
1000
0000
0100
1000
,
0000
0100
1000
0000
,
0001
0000
0010
0001
,
1000
0010
0100
0001
,
1000
0000
0100
1000
,
0000
0100
1000
0000
,
0010
0000
0100
0010
,
0000
0100
0110
0000
,
0001
0000
0001
0000
,
1001
0000
1001
0000
,
1000
0000
1000
0000
,
1001
0000
1001
0000
,
1000
0000
1000
0010
,
0000
0100
0100
0000
,
0001
0000
0001
0010
,
0000
0100
0100
0000
,
1000
0000
1000
0100
,
0000
0001
0001
0100
,
0010
0000
0001
1000
,
0001
0000
0101
0000
,
1000
0000
1000
0010
,
0000
0100
1000
0100
,
0001
0000
0001
0010
,
0000
0100
0001
0100
,
1000
0000
1000
0010
,
0000
0010
0010
0010
,
0101
0000
1100
0000
,
0001
0010
0100
1000
,
1010
0000
0011
0000
,
1000
0010
0100
0001
,
1001
0000
0110
0000
,
0001
0100
0010
0000
,
1010
0000
0110
0000
,
0100
0010
0100
0010
,
1000
0000
1100
0000
,
1000
0100
0010
0001
,
0001
0000
0011
0000
,
0001
1000
0010
0100
,
0001
0000
0101
0000
,
0001
1000
0100
1000
,
0101
0000
0000
0000
1001
0000
0000
0001
,
1000
0001
0100
0000
0100
0000
0010
0000
,
1000
0000
0000
0001
0010
0000
0000
0010
,
1000
0010
0001
0000
1001
0000
0110
0000
,
1001
0000
0000
0000
;

//--------------- dance-single - Step artist ----------------
#NOTES:
     dance-single:
     Step artist:
     Challenge:
     17:
     0,0,0,0,0:
0000
0000
0000
0000
,
0000
0000
0000
0000
,
0000
0000
0000
0000
,
0000
0000
0000
0000
,
0001
1000
0001
0100
0010
0010
0000
1000
,
0000
0010
0100
0000
0001
0010
0010
0100
,
1000
0000
0000
0001
1000
0000
0001
0100
0000
0001
0000
1000
0000
0010
1000
0000
,
0001
1000
0100
1000
,
0001
0100
0010
0000
0010
0000
1000
0001
,
0100
0001
1000
0100
,
1000
0000
0001
0000
0010
0100
0010
0001
,
0010
0001
1000
0010
,
0100
0000
0001
0000
1000
0001
1000
0000
,
0100
0100
1000
0001
,
1100
0000
0011
0000
,
1000
0001
0100
0001
,
1000
0000
0010
0000
0010
0000
0100
0001
,
0100
0010
1000
0001
,
0010
0000
0001
0000
1000
0000
0001
0010
,
0100
1000
0010
0010
,
1000
0100
0010
0000
0010
0001
1000
0000
,
1001
0000
0001
0101
,
0000
0000
0001
0000
1000
0000
0010
0100
,
0010
0001
1000
0100
,
0001
0000
0010
0000
0001
1000
0001
1000
,
0100
0000
1000
1010
,
0000
0000
0010
0000
1000
0100
0010
0000
,
0001
1000
0100
0001
,
1001
0000
0110
0000
,
0001
0000
0010
0011
,
0000
0000
0001
0000
0001
0000
0100
0001
,
1000
0010
0100
0010
,
1000
0000
0100
0000
0100
0000
0010
0001
,
1000
0000
0001
0001
,
1000
0100
0001
0000
0100
1000
0100
0010
,
0100
1000
0010
0100
,
0101
0000
1010
0000
,
0001
1000
0010
0100
,
0001
0000
0010
0000
0010
0000
0100
1000
,
0001
0000
0100
0000
0010
0000
1000
0001
,
1000
0000
0010
0000
0100
0001
1000
0010
,
0100
0001
0010
0100
,
1000
0000
0010
0000
0010
0100
0010
0000
,
1000
1000
0001
0010
,
0110
0000
1001
0000
,
0001
1000
0100
0010
,
0001
0000
0100
0000
0100
0000
0010
1000
,
0001
0010
0100
1000
,
0010
0000
1100
0000
0100
0000
1000
0001
,
1000
0010
0100
0100
,
0001
1000
0100
0000
0100
1000
0100
0000
,
1000
1000
0001
0100
,
0110
0000
1001
0000
,
0000
0000
0000
0000
,
0001
0001
1000
0001
,
0010
0100
1000
0001
0010
0100
1000
0001
,
0100
0100
0010
1000
,
0001
0100
0010
1000
0001
0100
0010
1000
,
0001
0010
1000
0001
,
0100
0000
1000
0000
0001
1000
0001
0000
,
1000
0100
0001
0100
,
1000
0100
0010
0001
1000
0001
0010
0100
,
1000
0010
1000
1000
,
0001
0010
0100
1000
0001
0010
0100
1000
,
0010
0010
0100
0001
,
1000
0001
0100
0010
1000
0001
0100
0010
,
1000
0100
0100
0010
,
0001
0000
0100
0000
0100
0001
1000
0000
,
0000
0000
0000
0000
,
1001
0000
1001
0000
,
1001
0000
1000
0100
,
0010
0000
0001
0100
1000
0000
0100
0000
,
0010
0000
0000
1000
0100
0000
0001
0000
,
0100
1000
1001
0000
,
0001
1000
0001
0010
,
0100
1000
0010
1000
,
0001
0000
1000
0100
0010
0000
0010
0000
,
0001
1000
0110
0000
,
1001
0000
0001
0100
,
0010
0000
1000
0100
0001
0000
0100
0000
,
0010
0000
0000
0001
0100
0000
0010
0000
,
1000
0001
0101
0000
,
1000
0000
0010
1000
0100
0000
0100
0000
,
0010
0000
0001
0000
0010
0100
1000
0000
,
0100
0000
0000
0001
0100
0000
0010
0000
,
0001
1000
1000
0000
,
0001
0100
0001
1000
,
0010
0000
1000
0100
0001
0000
0100
0000
,
1000
0010
1000
0001
,
0100
0000
0001
0010
1000
0000
0010
0000
,
0001
0100
0001
1000
,
0010
0000
1000
0100
0001
0000
0100
0000
,
1000
0000
0000
0001
0100
0000
1000
0000
,
0100
0000
0110
0000
,
1000
0100
1000
0001
,
0010
0000
0001
0100
1000
0000
0100
0000
,
0001
0010
0001
1000
,
0100
0000
1000
0010
0001
0000
0010
0000
,
1000
0100
1000
0001
,
0010
0000
0001
0100
1000
0000
0100
0000
,
0001
0000
0000
1000
0100
0000
0001
0000
,
0100
0000
0110
0000
,
1000
0100
0010
0001
,
0100
0000
0010
0000
0010
0000
1000
0001
,
1000
0000
0100
0000
0010
0001
1000
0000
,
0100
0000
0010
0000
0001
0010
0000
0100
,
1000
0010
0100
0000
1010
0000
1000
0000
,
0100
0000
0010
0000
0010
0001
1000
0100
,
0000
0100
0010
0001
,
1001
0000
1001
0000
,
0001
0100
0010
1000
,
0100
0000
0010
0000
0010
0000
0001
1000
,
0001
0100
0010
1000
,
0100
0000
0010
0100
0010
0000
0000
0010
,
0001
0100
0010
0010
,
1000
0010
0000
0000
0001
0010
1000
0100
,
0000
0100
0010
0001
,
0100
0001
0100
0001
0100
0001
0100
0001
,
1000
0000
0010
0100
0000
0010
0100
0000
,
0001
0010
0001
0010
0001
0010
0001
0010
,
0001
1000
0001
0100
,
0010
0000
0100
0000
0001
0010
0000
0100
,
1000
0001
1000
0100
,
0010
0000
0100
0000
1000
0001
1000
0000
,
0100
0100
0010
0001
,
1000
0001
1000
0001
0100
0001
0100
0001
,
1000
0010
0001
1000
,
0100
0000
0001
0000
0001
0000
0000
1000
,
0001
0010
1000
0001
,
0100
0000
1000
0000
1000
0000
0000
0010
,
1000
0000
0100
0001
0000
0100
1000
0000
,
0110
0000
0110
0000
,
0001
0000
0100
1000
0000
0100
0001
0000
,
0110
0000
0110
0000
,
1000
0001
0101
1000
,
0010
0000
0110
0000
0101
0000
1000
0001
,
1000
0001
0110
1000
,
0100
0000
0110
0000
0001
1000
0001
1000
,
0001
1000
1010
0001
,
0100
0000
0110
0000
0010
0100
0001
1000
,
0000
0001
1000
0001
,
0011
0000
1100
0000
,
0001
1000
0110
0001
,
1000
0000
0110
0000
0011
0000
1000
0001
,
1000
0001
0110
1000
,
0001
0000
0110
0000
1010
0000
0001
1000
,
0001
1000
1100
0101
,
1000
0001
0100
0000
0001
0010
0100
1000
,
1001
0001
0101
1000
,
0100
0010
0100
1000
0100
0010
0100
1000
,
0100
1100
0001
0011
,
0010
0001
0010
0100
0010
0001
0010
0100
,
0010
1001
0001
0011
,
0001
1000
0001
0000
0001
0100
0010
0100
,
0001
0110
0001
1100
,
1000
0100
1000
0010
0100
0001
0010
0001
,
0100
0101
1000
1010
,
0001
1000
0100
1000
0001
1000
0010
1000
,
0001
0011
1000
1100
,
1000
0001
0010
0001
1000
0001
0100
0001
,
1000
1100
0011
1000
,
0110
0000
0011
0000
1000
0100
0010
0000
,
0001
0000
0100
0001
1000
0000
0000
0010
,
0100
0010
1000
0000
0001
0010
0100
1000
,
0001
0010
0001
1000
0010
0000
0000
0010
,
1000
0001
0010
1000
0010
0100
0000
0000
,
1001
0000
0000
0000
;
