#TITLE:Electric Youth;
#SUBTITLE:;
#ARTIST:Debbie Gibson;
#TITLETRANSLIT:;
#SUBTITLETRANSLIT:;
#ARTISTTRANSLIT:;
#GENRE:;
#CREDIT:;
#MUSIC:Electric Youth.ogg;
#BANNER:electric youth bn.png;
#BACKGROUND:electric youth bg.png;
#CDTITLE:;
#SAMPLESTART:36.290;
#SAMPLELENGTH:16.330;
#SELECTABLE:YES;
#OFFSET:-0.365;
#BPMS:0.000=128.600;
#STOPS:;
#BGCHANGES:;
#FGCHANGES:;

//--------------- dance-single - ----------------
#NOTES:
     dance-single:
     :
     Beginner:
     3:
     0,0,0,0,0:
0000
0000
0000
0000
,
0000
0000
0000
0000
,
0000
0000
0000
0000
,
0000
0000
0000
0000
,
1000
0000
0100
0000
,
0001
0000
0100
0000
,
1000
0000
0010
0000
,
0001
0000
0010
0000
,
0100
0100
0100
0000
,
0001
0000
1000
0000
,
0100
0100
0100
0000
,
0010
0000
0001
0000
,
1000
1000
1000
0000
,
0010
0000
0100
0000
,
0001
0001
0001
0000
,
0000
1001
0000
0110
,
0100
0000
0001
0000
,
1000
0001
1000
0000
,
0000
0100
0000
0100
,
0000
0010
0010
0010
,
0001
0000
1000
0000
,
0010
0000
0100
0000
,
0001
0001
0001
0000
,
0010
0000
0100
0000
,
1000
0000
0001
0000
,
1000
0000
0010
0000
,
0000
0100
0000
0100
,
0000
0001
0001
0001
,
1000
0000
0100
0000
,
0001
0000
0100
0000
,
1000
1000
1000
0000
,
0001
0001
0001
0000
,
1000
0000
0010
0000
,
0110
0000
0000
0000
,
1001
1001
0000
1001
,
0001
0000
0010
0000
,
0100
0000
0000
0000
,
1000
0000
0010
0000
,
0100
0000
0000
0000
,
0001
0000
0100
0000
,
1000
0000
0100
0000
,
0001
0000
0000
0000
,
1000
0000
0001
0000
,
1000
0000
1000
0000
,
0001
0010
0001
0000
,
0001
0000
0001
0000
,
1000
0010
1000
0000
,
0001
0000
0100
0000
,
0010
0000
1000
0000
,
0100
0100
0100
0000
,
0000
1000
1000
1000
,
0001
0000
0100
0000
,
0010
0000
1000
0000
,
0001
0000
0010
0000
,
0100
0100
0100
0000
,
0010
0000
0001
0000
,
1000
0000
0010
0000
,
0000
0100
0000
0100
,
0000
0010
0010
0010
,
1000
0000
0001
0000
,
1000
1000
1000
0000
,
0001
0000
0010
0000
,
1000
0000
0010
0000
,
0100
0100
0100
0000
,
0110
0000
0000
0000
,
1001
1001
0000
1001
,
0000
0100
0100
0000
,
0001
1001
0000
0000
;

//--------------- dance-single - ----------------
#NOTES:
     dance-single:
     :
     Easy:
     6:
     0,0,0,0,0:
0000
0000
0000
0000
,
0000
0000
0000
0000
,
0000
0000
0000
0000
,
0000
0000
0000
0000
,
1000
0100
0010
0011
,
0001
0100
0010
1010
,
1000
0001
0010
0110
,
0100
0000
1000
0000
0001
1000
0001
0000
,
0100
1000
0100
0001
,
0010
0100
1000
0000
,
0100
0001
0100
1000
,
0001
0100
0010
1001
,
0010
1000
0010
0001
,
0100
0010
1000
0000
,
0001
1000
0100
0010
,
0001
1000
0001
0000
1000
0000
1010
0000
,
0100
0001
1000
0100
,
0001
0100
1000
0001
,
0100
1000
0010
0001
,
0000
0010
1000
0100
,
0001
0101
1000
0001
,
0010
1000
0010
0001
,
1000
0010
0100
0110
,
0001
0010
1000
0100
,
0001
1000
0010
0001
,
0010
0100
0001
0010
,
0100
0001
0100
1000
,
0000
0010
0001
0100
,
1000
1010
0001
1000
,
0100
0010
0001
0100
,
1000
0100
0001
0001
,
1000
0100
0001
0100
,
0010
0001
0100
0010
,
1001
0000
0000
0000
,
1001
0110
0000
1001
,
1000
0000
0000
0100
0000
0010
0000
0001
,
0000
0100
0000
1000
0000
0000
0000
0000
,
0100
0000
0000
0001
0000
1000
0000
0001
,
0000
0010
0100
1000
,
0010
0100
0001
0010
,
1000
0000
0010
0000
0001
0000
1000
0010
,
1000
0000
0000
1000
0000
0000
0011
0000
,
0001
0000
0000
0000
1000
0001
1000
0000
,
0010
0110
0001
0001
,
1000
0100
0001
0100
,
0010
0110
1000
1000
,
0001
0000
0100
0000
0010
0100
0010
0000
,
1000
0001
0010
0110
,
1000
0001
0100
0110
,
1000
0001
0100
0000
,
0100
1000
0010
0001
,
0100
0000
0101
0000
1000
0001
1000
0000
,
0100
0010
0001
0100
,
1000
0100
0010
1010
,
0001
0010
0100
1000
,
0001
0001
0010
1000
,
0001
0100
1000
1000
,
0010
0100
1000
0100
,
0001
0010
1000
0100
,
0001
0011
1000
1000
,
0010
0000
0100
0000
0100
0001
0100
0000
,
0010
1000
0100
0101
,
1000
0010
0001
0011
,
0100
0001
1000
0100
,
0110
0000
0000
0000
,
0110
0110
0000
1001
,
0000
1000
0001
1000
0000
0010
0000
0000
,
0100
1001
0000
0000
;

//--------------- dance-single - ----------------
#NOTES:
     dance-single:
     :
     Medium:
     9:
     0,0,0,0,0:
0000
0000
0000
0000
,
0000
0000
0000
0000
,
0000
0000
0000
0000
,
0000
0000
0000
0000
,
1000
0000
0010
0000
0100
0001
0101
0000
,
0001
0000
0010
0000
0100
1000
1100
0000
,
1000
0000
0001
0000
0100
0010
0110
0000
,
0010
0000
1000
0000
0001
0001
0001
0000
,
1000
0100
1000
0000
0001
0100
0010
0000
,
0001
1000
0100
0001
,
1000
0000
0100
0010
0001
1000
0001
0000
,
0100
1000
0001
0011
,
1000
0001
0010
0000
0100
0010
0001
0000
,
1000
0100
0001
0101
,
0010
0000
0010
0001
1000
0001
0100
0000
,
1000
0100
0001
0000
0010
0100
1100
0000
,
0001
0000
1000
0010
0001
1000
0100
0000
,
0001
0000
0010
1000
0001
0100
1000
0000
,
0001
0100
0001
0000
1000
0100
1000
0001
,
0000
0011
0110
1100
,
1001
0000
0110
0000
0001
1000
0001
0000
,
0010
0000
0100
0000
0001
0100
1000
0000
,
0010
0000
0100
0010
0001
0000
0011
0000
,
0010
1000
0100
0010
0001
1000
0010
0000
,
0100
1000
0100
0000
0001
0100
0101
0000
,
0010
1000
0010
0000
0001
0010
0011
0000
,
1000
0000
0010
0001
0010
0000
1000
0000
,
0100
1100
0110
0011
,
1001
0000
0110
0000
0001
0000
0100
1000
,
0100
0001
1000
0000
0100
0010
0001
0000
,
0010
1000
0100
0000
0100
0001
1000
0000
,
0100
0001
0100
0000
1000
0001
1000
0010
,
0000
0100
0100
0000
0001
0100
1000
0100
,
0001
0000
0000
0000
,
0011
0011
0000
0011
,
1000
0001
0000
0100
0000
1000
0000
0100
,
0000
0001
0000
0010
0100
0000
1100
0000
,
0001
1000
0000
0010
0000
0001
0000
0010
,
0000
0100
0100
0000
0001
1000
1001
0000
,
0100
0010
0100
0010
0001
0000
1001
0000
,
0100
0010
1000
0000
0001
0100
1000
0100
,
0001
0000
0000
0010
0000
0100
0100
0000
,
1000
0000
0000
0010
0100
0100
0100
0000
,
0001
0000
1100
0100
0010
0001
1000
0000
,
0001
0100
1000
0000
1000
0010
0001
0000
,
1000
0000
1100
0100
0000
0010
0000
0001
,
0000
0100
0000
1000
0000
0100
0001
0000
,
0010
0100
0010
0001
1000
0000
0010
0100
,
0001
0000
0001
1000
0100
0000
0001
0100
,
1000
1000
0010
0001
0000
0000
0000
0000
,
1000
1100
0110
0101
,
1001
0000
0110
0100
1000
0000
0001
0100
,
0001
0000
1000
0100
0010
0000
0001
0100
,
1000
0000
0100
0010
1000
0100
0110
0000
,
0001
0010
1000
0010
0001
0100
1000
0000
,
0100
0010
1000
0000
0100
0010
0011
0000
,
0010
0100
1000
0000
0010
0100
0101
0000
,
0001
0000
1000
0100
0001
0000
0100
0000
,
0010
1010
0110
0011
,
1001
0000
0110
0000
0001
1000
0010
0100
,
0001
0000
1000
0100
1000
0100
0010
0000
,
1000
0010
0001
0000
0001
1000
0001
0000
,
1000
0010
0001
0000
0001
0100
1000
0001
,
0000
0010
0100
1000
0000
0010
1010
0000
,
1001
0000
0000
0000
,
1001
0110
0000
1001
,
0000
1000
0010
0001
0000
0100
0000
0000
,
1000
1010
0000
0000
;

//--------------- dance-single - ----------------
#NOTES:
     dance-single:
     :
     Hard:
     11:
     0,0,0,0,0:
0000
0000
0000
0000
,
0000
0000
0000
0000
,
0000
0000
0000
0000
,
0000
0000
0000
0000
,
1000
0000
0000
1000
0000
0000
0001
0000
0000
0010
0000
0000
0011
0000
0000
0000
,
0001
0000
0000
0001
0000
0000
1000
0000
0000
0010
0000
0000
1010
0000
0000
0000
,
1000
0000
0000
1000
0000
0000
0001
0000
0000
0100
0000
0000
0101
0000
0000
0000
,
0001
0000
0010
0000
0011
0000
0000
0000
1000
0001
1000
0000
0010
0000
0100
0001
,
0100
0010
1000
0000
0100
0010
0001
0000
,
1000
0010
0001
1000
0000
0100
0001
1000
,
0100
0010
0001
0100
1000
0100
0001
0000
,
1000
0100
0010
0001
0000
0100
0101
0000
,
0100
0010
1000
0000
0001
0010
0100
0000
,
1000
0001
0010
1000
0000
0010
0001
0100
,
0001
0010
0100
0010
1000
0010
0001
0000
,
0010
0001
0100
0000
0100
0001
1001
0000
,
1000
0000
0010
0001
0100
0001
0010
0100
,
0001
0000
1000
0001
1000
0000
0000
0000
0100
0000
0010
0000
0011
0000
0000
0000
,
1000
0000
0010
0100
0010
0010
1000
0001
,
0000
0101
1010
1100
,
0011
0000
1001
1000
0010
0001
0010
0100
,
0000
0001
0010
0100
0000
0001
0100
1000
,
0001
0000
0000
0000
1000
0000
0001
0100
0001
0000
0000
0000
1100
0000
0000
0000
,
1000
0100
0001
0100
1000
0010
0001
0000
,
1000
0100
0100
0001
1000
0100
0010
0001
,
0000
0100
0010
0010
0100
0001
0010
0100
,
1000
0000
0010
0001
0100
0000
1000
0000
,
0010
1010
0101
0011
,
1100
0000
1001
0000
0001
0010
0100
1000
,
0001
0100
0000
1000
0100
0001
0100
0010
,
1000
0001
0010
0000
0100
0001
0100
1000
,
0001
0100
0000
0010
0001
1000
0100
0001
,
0000
0101
0000
1000
0001
1000
0100
0010
,
1001
0001
0100
1000
0000
0100
0000
0000
,
0101
0101
0000
0101
,
1000
0001
0000
0010
0000
1000
0000
1010
,
0000
0110
0000
0011
0001
1000
0100
0000
,
1000
0001
0000
0100
0000
1000
0000
1100
,
0000
0100
0010
0010
1000
0100
0001
0000
,
1000
0010
0001
0010
1000
0000
0001
0100
,
0000
0000
1000
0000
0001
0000
1000
0000
0010
0000
0100
0000
0001
0000
1000
0010
,
1000
0000
0000
1000
0100
0000
0010
0000
0000
0000
0001
0000
0011
0000
0000
0000
,
0010
0000
0000
1000
0000
0000
0100
0000
0000
0000
0001
0000
1000
0001
1000
0001
,
1000
0100
0010
0001
1000
0010
0001
0100
,
0001
0010
1000
0001
0010
0100
0100
0000
,
1000
0100
0001
0100
0000
0001
0010
1000
,
0000
0100
0010
0001
0000
1000
1010
0000
,
0001
1000
1000
0010
0100
0001
0010
1000
,
0000
1000
0010
0001
0000
0100
1000
0100
,
0010
1000
0100
0001
0000
1000
0010
0001
,
1000
1010
0011
0101
,
1100
0000
1001
0001
0010
1000
0010
0001
,
0000
1000
0010
0100
0000
0001
1000
0001
,
0000
0000
0100
0000
1000
0000
0100
0001
0000
0000
0010
0000
0110
0000
0000
0000
,
1000
0100
0001
1000
0001
0100
1000
0000
,
0010
0100
0001
0001
0010
0100
1000
0001
,
0000
0100
0010
0010
0001
0010
1000
0001
,
0010
0000
1000
0001
0100
0000
1000
0000
,
0010
1010
0011
0101
,
1100
0000
1001
1000
0000
0100
0010
0001
,
1000
0010
0001
0100
0000
0001
0010
1000
,
0000
0001
0011
1000
0000
0100
0010
0001
,
0000
1000
0010
0001
1000
0100
0010
1000
,
0001
0010
0100
1000
0000
0010
0100
0001
,
0101
0000
1000
0001
1000
0100
0010
0000
,
0011
0000
0011
0001
1000
0010
1010
0000
,
0010
1000
0100
0001
0000
0010
0000
0000
,
1000
0101
0000
0000
;
