#VERSION:0.83;
#TITLE:Egotistical Drug;
#SUBTITLE:;
#ARTIST:HALLPBE.S;
#TITLETRANSLIT:;
#SUBTITLETRANSLIT:;
#ARTISTTRANSLIT:;
#GENRE:;
#ORIGIN:;
#CREDIT:;
#BANNER:Egotistical Drug.png;
#BACKGROUND:Egotistical Drug-bg.png;
#PREVIEWVID:;
#JACKET:Egotistical Drug-jacket.png;
#CDIMAGE:;
#DISCIMAGE:;
#LYRICSPATH:;
#CDTITLE:;
#MUSIC:Egotistical Drug.ogg;
#OFFSET:-1.099131;
#SAMPLESTART:48.695011;
#SAMPLELENGTH:15.000000;
#SELECTABLE:YES;
#BPMS:0.000=121.000;
#STOPS:;
#DELAYS:;
#WARPS:;
#TIMESIGNATURES:0.000=4=4;
#TICKCOUNTS:0.000=4;
#COMBOS:0.000=1;
#SPEEDS:0.000=1.000=0.000=0;
#SCROLLS:0.000=1.000;
#FAKES:;
#LABELS:0.000=Song Start;
#BGCHANGES:;
#KEYSOUNDS:;
#ATTACKS:
;

//---------------dance-single - ----------------
#NOTEDATA:;
#CHARTNAME:;
#STEPSTYPE:dance-single;
#DESCRIPTION:;
#CHARTSTYLE:;
#DIFFICULTY:Hard;
#METER:16;
#RADARVALUES:0.775770,0.962291,0.674635,0.616333,0.870362,652.000000,571.000000,81.000000,74.000000,0.000000,0.000000,4.000000,0.000000,0.000000,0.775770,0.962291,0.674635,0.616333,0.870362,652.000000,571.000000,81.000000,74.000000,0.000000,0.000000,4.000000,0.000000,0.000000;
#CREDIT:;
#NOTES:
0000
0000
0000
0000
,
0000
0000
0000
0000
,
1000
0000
0001
0010
0100
0000
0100
0000
0010
0001
1000
0000
0010
0000
1000
0000
,
0001
0000
1000
0010
0100
0000
0100
0000
0010
1000
0001
0000
2002
0000
3003
0000
,
1001
0000
0001
0010
0100
0000
0010
0000
1000
0000
0010
0000
0011
0000
0001
0000
,
1001
0000
1000
0010
0100
0000
0010
0000
0001
0000
0010
0000
1010
0000
1000
0000
,
1001
0010
0110
0100
1001
0001
0110
1000
,
1000
0000
0000
0100
0000
0000
1000
0000
0000
0100
0000
0000
1000
0000
0001
0000
1000
0000
0001
0000
1000
0000
0001
0000
0010
0000
0000
0001
0000
0000
1000
0000
0000
0010
0000
0000
0210
0000
0000
0000
0000
0000
0000
0000
0000
0000
0000
0000
,
0301
0000
0000
0001
0100
0000
0001
0000
0102
0000
1003
0000
1020
0000
0000
0000
,
1030
0000
0000
1000
0100
0000
1000
0000
1100
0000
1001
0000
0012
0000
0000
0000
,
1003
0000
0000
1000
0010
0000
0100
0000
0102
0000
1003
0000
2010
0000
0000
0000
,
3001
0000
0000
0001
0010
0000
0100
0000
1100
0000
0110
0000
0021
0000
0000
0000
,
0130
0000
1000
0100
0010
0000
0100
0000
2100
0000
3001
0000
0102
0000
0000
0000
,
0013
0000
0001
0010
0100
0010
0001
0000
0011
0000
1001
0000
2010
0000
0000
0000
,
3100
0000
0100
0010
0001
0000
0100
0000
0120
0000
1030
0000
1002
0000
0000
0000
,
0103
0000
0100
0010
1000
0010
0100
0000
0110
0000
0110
0000
2002
0000
3003
0000
,
1000
0100
0010
0100
0010
0000
0100
1000
0001
0100
0010
0100
0010
1000
0001
1000
,
0001
0010
0100
0010
0100
0000
0010
0001
1000
0010
0100
0010
0100
0001
1000
0001
,
1000
0100
0010
0001
0010
0000
0001
1000
0001
0100
0020
0000
1030
0000
0100
1000
,
0001
0100
0010
1000
0010
0000
1000
0001
0010
0100
0020
0000
0031
0000
1001
0000
,
1000
0100
1000
0001
1000
0010
0100
0010
0100
0001
1000
0001
0010
0001
0010
0100
,
1000
0100
0010
0100
0001
0100
1000
0001
0100
0001
0100
0010
0100
1000
0100
0010
,
1000
0000
0000
1000
0001
0000
0010
0000
0100
0000
0010
0000
0001
0010
0001
0010
,
0100
0000
0000
1000
0000
0000
0100
0000
0000
1000
0000
0000
0010
0000
1000
0000
0010
0000
1000
0000
0010
0000
1000
0000
0001
0000
0100
0000
0001
0000
0100
0000
0001
0000
0100
0000
0001
0000
1000
0000
0001
0000
1000
0000
0001
0000
1000
0000
,
0100
0000
0100
1000
0001
0000
0100
0001
0000
0001
1000
0000
1100
0000
0010
0000
,
1100
0000
0001
0000
1100
0000
0100
0000
1000
0000
0001
1000
0000
0010
0010
0010
,
0100
0000
0100
0001
1000
0000
0010
1000
0000
1000
0001
0000
0011
0000
1000
0000
,
0011
0000
0100
0000
0011
0000
0010
0000
0100
0000
1000
0100
0000
0010
0010
0010
,
0001
0000
1000
0100
0010
0000
0100
1000
0000
1000
0001
0000
0101
0000
1000
0000
,
1100
0000
0001
0000
0101
0000
0100
0000
0010
0000
1000
0001
0000
0010
0010
0010
,
0001
0000
1000
0010
0100
0000
0100
0001
0000
0001
0010
0000
0011
0000
1000
0000
,
1010
0000
0000
1000
0000
0000
0010
0000
0000
1000
0000
0000
0100
0000
0000
1000
0000
0000
0100
0000
0000
0010
0000
0000
0001
0000
0010
0000
0001
0000
0010
0000
0001
0000
0010
0000
0001
0000
1000
0000
0001
0000
1000
0000
0001
0000
1000
0000
,
0020
0030
0202
0303
,
2200
0000
0000
0000
3300
0000
0000
2020
0000
0000
3030
0000
0000
0000
0022
0000
,
0000
0033
0000
0000
0202
0000
0000
0303
0000
0000
2200
0000
0000
3300
0000
0000
,
2020
3030
0022
0033
0202
0303
2200
3300
,
2020
0000
3030
0000
0000
0000
0022
0000
0033
0000
0000
0000
0202
0000
0303
0000
0000
0000
2200
0000
3300
0000
0000
2001
0000
0000
0000
0000
3002
0000
0000
0000
,
0000
0023
0000
0000
0000
0000
0230
0000
0000
0000
2300
0000
0000
0000
3020
0000
0000
0000
0230
0000
0000
0302
0000
0000
0023
0000
0000
0230
0000
0000
2300
0000
,
0000
0000
0000
0000
0000
0000
3020
0000
0000
0000
0000
0000
0030
0000
0000
0000
0000
0000
0000
0000
0000
0000
0000
0000
0200
0000
0000
0000
0000
0000
0300
0000
0000
0000
0000
0000
0002
0000
0000
0000
0000
0000
0003
0000
0000
0000
0000
0000
0010
0000
0000
0000
0000
0000
0000
0000
0000
0000
0000
0000
0100
0000
0000
0000
0000
0000
0000
0000
0000
0000
0000
0000
1000
0000
0000
0000
0000
0000
0000
0000
0000
0000
0000
0000
0010
0000
0000
0000
0000
0000
0000
0000
0000
0000
0000
0000
0100
0000
0000
0000
0000
0000
0000
0000
0000
0000
0000
0000
0001
0000
0000
0000
0000
0000
0000
0000
0000
0000
0000
0000
0010
0000
0000
0000
0000
0000
0000
0000
0000
0000
0000
0000
0100
0000
0000
0000
0000
0000
0000
0000
0000
0000
0000
0000
1000
0000
0000
0000
0000
0000
0000
0000
0010
0000
0000
0000
0000
0000
0000
0000
1000
0000
0000
0000
0000
0000
0000
0000
0010
0000
0000
0000
0000
0000
0000
0000
1000
0000
0000
0000
0000
0000
0000
0000
0010
0000
0000
0000
0000
0000
0000
0000
,
0100
0001
0100
0001
0100
0001
1000
0100
1000
0100
1000
0100
4000
0004
0000
0000
3000
0003
0040
0400
0000
0000
0030
0300
,
2000
0000
0000
0000
,
0000
0000
0000
0000
,
0000
0000
3001
0012
,
1003
0000
1000
0100
0010
0000
1000
0000
0010
0100
1000
0000
1001
0000
0100
0000
,
1001
0000
0001
0100
0010
0000
0001
0000
0010
0100
0001
0000
1001
0000
0100
0000
,
1001
0000
1000
0010
0100
0000
1000
0000
0100
0010
1000
0000
1001
0000
0010
0000
,
1001
0000
0001
0010
0100
0000
0001
0000
0100
0010
0001
0000
1001
0000
0010
0000
,
1010
0000
1000
0010
0100
0000
0001
0000
0010
0000
0001
0010
0000
0011
0000
0001
,
1000
0000
0000
0000
0010
0000
0000
0000
0100
0000
0010
0000
0000
0000
2020
0000
0000
0000
3030
0000
0000
0000
1000
0001
1000
0000
0000
0000
0001
0000
0000
0000
,
0101
0000
0001
0100
0010
0000
1000
0000
0100
0000
1000
0100
0000
1100
0000
1000
,
0001
0000
0000
0000
0100
0000
0000
0000
0010
0000
0100
0000
0000
0000
0202
0000
0000
0000
0303
0000
0000
0000
0001
1000
0001
0000
0000
0000
0100
0000
0000
0000
,
0010
1000
0000
1000
0010
0000
0010
0100
0001
0000
0021
0000
0130
0000
0100
1000
,
0010
0000
1020
0000
0130
0000
0100
0001
0010
0000
0021
0000
0130
0000
0100
0000
,
0010
0001
0000
0001
1000
0000
1000
0010
0100
0000
0201
0000
0310
0000
0010
1000
,
0100
0000
1200
0000
0310
0000
0010
0001
0100
0000
0201
0000
0310
0000
0010
0000
,
1000
0000
0001
0010
0100
0000
0110
0000
1001
0000
0001
0010
0000
0010
0100
1000
,
0001
0000
0000
0000
1001
0000
0000
0000
1000
0000
0010
0000
0000
0000
0010
0000
0100
0000
0000
0000
0000
0000
0010
0100
0010
0000
0000
0000
0110
0000
0000
0000
,
0100
0001
0100
0001
1000
0010
1000
0010
1000
0100
1000
0100
0010
0001
0010
0001
,
0100
0000
0000
0001
0000
0000
1000
0000
0000
0010
0000
0000
1000
0000
0001
0000
1000
0000
0001
0000
1000
0000
0001
0000
0010
0000
0100
0000
0010
0000
0100
0000
0010
0000
0100
0000
1000
0000
0001
0000
1000
0000
0001
0000
1000
0000
0001
0000
,
0200
0300
0000
0000
;

//---------------dance-single - ----------------
#NOTEDATA:;
#CHARTNAME:;
#STEPSTYPE:dance-single;
#DESCRIPTION:;
#CHARTSTYLE:;
#DIFFICULTY:Medium;
#METER:12;
#RADARVALUES:0.435478,0.542831,0.224878,0.458085,0.208221,366.000000,339.000000,27.000000,55.000000,0.000000,0.000000,0.000000,0.000000,0.000000,0.435478,0.542831,0.224878,0.458085,0.208221,366.000000,339.000000,27.000000,55.000000,0.000000,0.000000,0.000000,0.000000,0.000000;
#CREDIT:;
#NOTES:
0000
0000
0000
0000
,
0000
0000
0000
0000
,
2000
0100
3001
0000
0002
0100
1003
0000
,
2000
0100
3001
0002
0100
1003
0010
0000
,
2010
3100
0102
0013
,
2010
3100
0102
0013
,
1010
0010
1000
0010
0100
0001
0100
0001
,
1000
0001
1000
0001
1000
0100
0020
0000
,
0130
0000
0000
0100
1000
0000
0000
0000
0001
0000
1000
0000
0001
0000
0000
0000
,
0100
0000
0000
0100
0001
0000
0000
0000
1000
0000
0001
0000
1000
0000
0000
0000
,
0010
0000
0000
0010
1000
0000
0000
0000
0001
0000
1000
0000
0100
0000
0000
0000
,
0010
0000
0000
0010
0001
0000
0000
0000
1000
0000
0001
0000
0100
0000
0000
0000
,
0100
0000
0000
0100
0001
0000
0000
0000
0010
0000
0100
0000
1000
0000
0000
0000
,
0100
0000
0000
0100
1000
0000
0000
0000
0010
0000
0100
0000
0001
0000
0000
0000
,
0010
0000
0000
0010
0001
0000
0000
0000
0100
0000
0010
0000
1000
0000
0000
0000
,
0100
0100
0010
0010
0100
1000
0002
0000
,
1003
0100
1000
1000
0001
1000
0200
0000
,
0310
0001
0010
0100
1000
0001
2000
0000
,
3100
1000
0100
0100
0010
0001
0020
0000
,
0031
1000
0010
1000
0001
0100
0002
0000
,
0103
0010
2000
0000
3010
0100
0002
0000
,
0013
0100
2000
0000
3100
0010
0002
0000
,
1003
0100
0001
0100
1000
0010
0001
0010
,
1000
0100
0001
0100
0020
0000
0000
0000
,
0031
0000
0000
0000
1100
0000
0000
0010
0000
0010
0000
0000
1100
0000
0000
0000
,
1001
0000
0000
0000
0201
0000
0000
0000
0310
0000
0000
0010
0000
0100
0010
0000
,
1000
0000
0000
0000
0101
0000
0000
0010
0000
0010
0000
0000
0101
0000
0000
0000
,
1001
0000
0000
0000
1200
0000
0000
0000
0310
0000
0000
0010
0000
0100
0010
0000
,
0001
0000
0000
0000
0011
0000
0000
0100
0000
0100
0000
0000
1001
0000
0000
0000
,
1100
0000
0000
0000
0012
0000
0000
0000
0103
0000
0000
0100
0000
0010
0100
0000
,
0001
1010
0100
0011
,
0100
0000
1001
0000
0001
0100
1000
0100
,
0002
0003
2000
3000
,
0002
0000
0000
0000
0003
0000
0000
2000
0000
0000
0000
3000
0000
0000
0002
0000
,
0000
0000
0003
0000
2000
0000
0000
3000
0000
0000
0002
0000
0000
0003
0000
0000
,
2000
3000
0002
0003
2000
3000
0002
0003
,
2000
0000
0000
0000
3000
0000
0002
0000
0000
0000
0003
0000
2000
0000
0000
0000
3000
0000
0002
0000
0000
0000
0003
2000
0000
3000
0000
0000
0002
0000
0003
0000
,
0000
2000
0000
3000
0000
0000
0002
0003
0000
0000
2000
3000
0000
0000
0002
0003
0000
0000
2000
3000
0000
0001
0000
0000
1000
0000
0000
0001
0000
0000
1000
0000
,
0000
0001
0000
0000
1000
0000
0001
0000
1000
0000
0001
0000
1000
0000
0001
0000
1000
0000
0001
0000
1000
0000
0001
0000
2000
0000
0000
0000
0000
0000
0000
0000
,
3200
0302
0023
2030
,
3002
0000
0000
0000
,
0000
0000
0000
0000
,
0000
0000
1003
1001
,
1000
0100
0010
0010
0100
1000
0002
0000
,
1003
0010
0100
0100
0010
1000
0001
1000
,
0001
0100
0010
0010
0100
0001
2000
0000
,
3001
0010
0100
0100
0010
0001
1000
0001
,
1000
0000
0000
0000
1100
0000
0000
0000
0021
0000
0000
0100
0000
0130
0000
0000
,
0010
0000
0001
0000
0000
1000
0000
0001
0000
0000
0000
0000
1001
0000
0000
0000
,
0001
0000
0000
0000
0101
0000
0000
0000
1020
0000
0000
0100
0000
0130
0000
0000
,
0010
0000
1000
0000
0000
0001
0000
1000
0000
0000
0000
1000
0100
0000
1000
0000
,
0001
0100
0001
1000
0010
1000
0001
1000
,
0100
1000
0100
0010
0001
0010
0001
1000
,
0001
0100
0010
1000
0010
0100
0001
1000
,
0001
0010
0100
1000
0100
0010
0001
1000
,
0001
0000
0010
0000
1000
0000
0010
0000
0001
0000
0000
0001
0000
0001
0000
0000
,
0100
0000
1000
0000
0000
1000
0000
1000
0000
0000
0000
0000
0110
0000
0000
0000
,
1000
0010
0001
0010
1000
0100
0001
0100
,
1000
0010
0100
0001
0010
0100
1000
0001
,
0200
0300
0000
0000
;

//---------------dance-single - ----------------
#NOTEDATA:;
#CHARTNAME:;
#STEPSTYPE:dance-single;
#DESCRIPTION:;
#CHARTSTYLE:;
#DIFFICULTY:Easy;
#METER:8;
#RADARVALUES:0.301027,0.419460,0.191563,0.133261,0.058302,253.000000,230.000000,23.000000,16.000000,0.000000,0.000000,0.000000,0.000000,0.000000,0.301027,0.419460,0.191563,0.133261,0.058302,253.000000,230.000000,23.000000,16.000000,0.000000,0.000000,0.000000,0.000000,0.000000;
#CREDIT:;
#NOTES:
0000
0000
0000
0000
,
0000
0000
0000
0000
,
1000
0100
0001
0100
,
1000
0001
0100
0020
,
1030
1000
0001
0001
,
0010
0010
0100
0100
,
1000
0001
0100
0001
,
1000
0100
1000
0020
,
1030
1000
0100
0010
,
0100
0100
0010
0001
,
0010
0010
0001
1000
,
0001
0001
0101
1001
,
0001
0001
0100
0010
,
0100
0100
0010
1000
,
0010
0010
1000
0001
,
1000
0100
0010
0002
,
0103
0100
0010
0010
,
1000
1000
0010
0010
,
0100
0100
0001
0001
,
0100
0100
0101
1100
,
0100
0100
0010
0010
,
0001
0001
0010
0010
,
0100
0100
1000
1000
,
0001
0200
0020
0330
,
1000
0000
0010
0100
0000
0100
0010
0000
,
1000
0000
0100
0010
0000
0100
1000
0000
,
0001
0000
0010
0100
0000
0100
0010
0000
,
0001
0000
0100
0010
0000
0100
0001
0000
,
1000
0000
0001
0100
0000
0100
0010
0000
,
1000
0000
1000
0000
0001
0100
0001
0000
,
0001
0000
1000
0100
0000
0100
0010
0000
,
0010
1001
0200
0300
,
1000
0000
1000
0000
,
1000
0000
0000
0000
0000
0000
0000
1000
0000
0000
0000
0000
0000
0000
1000
0000
,
0000
0000
1000
0000
0000
1000
0000
0000
,
1000
0001
1000
0001
,
1000
0000
0000
0000
0000
0000
0001
0000
0000
0000
0000
0000
1000
0000
0000
0000
0000
0000
0001
0000
0000
0000
0000
1000
0000
0000
0000
0000
0000
0000
0000
0000
,
0000
0100
0000
0000
0000
0000
0000
0000
0000
0000
0010
0000
0000
0000
0000
0000
0000
0000
0001
0000
0000
0000
0000
0000
1000
0000
0000
0000
0000
0000
0100
0000
,
0000
0010
0001
1000
0100
0010
0001
1000
,
0200
0000
0000
0300
,
2002
0000
0000
0000
,
0000
0000
0000
0000
,
0000
3003
1001
0110
,
0001
0000
0100
0010
0000
1000
0010
0000
,
1000
0000
0100
0010
0000
0001
0010
0000
,
0001
0000
0010
0100
0000
1000
0100
0000
,
1000
0000
0010
0100
0000
0001
0100
0000
,
0002
0000
0000
0000
1003
0000
0000
0000
0010
0000
0000
0010
0000
0000
0000
0000
,
1000
0000
0001
0000
0000
0002
0000
0003
0000
0000
0000
0000
1001
0000
0000
0000
,
2000
0000
0000
0000
3001
0000
0000
0000
0010
0000
0000
0010
0000
0000
0000
0000
,
0001
0000
1000
0000
0000
2000
0000
3000
0000
0000
0000
0000
1001
0000
0000
0000
,
1000
1100
0001
0101
,
1000
0000
1100
0000
0100
0010
0100
0000
,
1000
1010
0001
0011
,
1000
0000
1010
0000
0010
0100
0010
0000
,
2000
0000
0000
0000
3001
0000
0000
0000
0100
0000
0000
0100
0000
0000
0000
0000
,
0001
0000
0010
0000
0000
0020
0000
0030
0000
0000
0000
0000
1001
0000
0000
0000
,
0011
0101
1100
1010
,
0110
0000
1001
0000
0001
0100
0010
1000
,
0200
0300
0000
0000
;

//---------------dance-single - ----------------
#NOTEDATA:;
#CHARTNAME:;
#STEPSTYPE:dance-single;
#DESCRIPTION:;
#CHARTSTYLE:;
#DIFFICULTY:Beginner;
#METER:3;
#RADARVALUES:0.146349,0.196560,0.041644,0.000000,0.000000,123.000000,118.000000,5.000000,0.000000,0.000000,0.000000,0.000000,0.000000,0.000000,0.146349,0.196560,0.041644,0.000000,0.000000,123.000000,118.000000,5.000000,0.000000,0.000000,0.000000,0.000000,0.000000,0.000000;
#CREDIT:;
#NOTES:
// measure 0
0000
0000
0000
0000
,  // measure 1
0000
0000
0000
0000
,  // measure 2
0000
1000
0000
1000
,  // measure 3
0000
0001
0000
0001
,  // measure 4
1000
0000
0000
0000
,  // measure 5
0001
0000
0000
0000
,  // measure 6
0100
0000
0100
0000
,  // measure 7
0010
0000
0000
0000
,  // measure 8
1000
0000
0100
0000
,  // measure 9
1000
0000
0001
0000
,  // measure 10
1000
0000
0010
0000
,  // measure 11
1000
0000
0001
1000
,  // measure 12
0001
0000
0100
0000
,  // measure 13
0001
0000
1000
0000
,  // measure 14
0001
0000
0010
0000
,  // measure 15
0001
0000
1000
0001
,  // measure 16
1000
1000
1000
0000
,  // measure 17
0100
0100
0100
0000
,  // measure 18
0010
0010
0010
0000
,  // measure 19
0001
0001
0001
0000
,  // measure 20
0100
0100
0100
0000
,  // measure 21
0010
0010
0010
0000
,  // measure 22
1000
1000
1000
0000
,  // measure 23
0001
0000
1001
0000
,  // measure 24
0000
1000
0000
1000
,  // measure 25
0000
0001
0000
0001
,  // measure 26
0000
1000
0000
1000
,  // measure 27
0000
0001
0000
0001
,  // measure 28
0000
0010
0000
0010
,  // measure 29
0000
0100
0000
0100
,  // measure 30
0000
0010
0000
0010
,  // measure 31
0000
0110
0000
0000
,  // measure 32
1001
0000
0000
0000
,  // measure 33
0000
0000
0000
0000
,  // measure 34
0000
0000
0000
0000
,  // measure 35
0000
0000
0000
0000
,  // measure 36
0000
0000
0000
0000
,  // measure 37
0000
0000
0000
0000
,  // measure 38
0000
0000
0000
0000
,  // measure 39
0000
0000
0000
0000
,  // measure 40
1001
0000
0000
0000
,  // measure 41
0000
0000
0000
0000
,  // measure 42
0000
0000
0001
0001
,  // measure 43
1000
0000
0000
1000
0000
0000
0100
0000
,  // measure 44
1000
0000
0000
1000
0000
0000
0001
0000
,  // measure 45
1000
0000
0000
1000
0000
0000
0010
0000
,  // measure 46
1000
0000
0000
0001
0000
0000
1000
0000
,  // measure 47
0001
0000
0000
0001
0000
0000
0100
0000
,  // measure 48
0001
0000
0000
0001
0000
0000
1000
0000
,  // measure 49
0001
0000
0000
0001
0000
0000
0010
0000
,  // measure 50
0001
0000
0000
1000
0000
0000
0001
0000
,  // measure 51
1000
0000
0000
1000
0000
0000
0010
0000
,  // measure 52
1000
0000
0000
1000
0000
0000
0001
0000
,  // measure 53
1000
0000
0000
1000
0000
0000
0100
0000
,  // measure 54
1000
0000
0000
0001
0000
0000
1000
0000
,  // measure 55
0001
0000
0000
0001
0000
0000
0010
0000
,  // measure 56
0001
0000
0000
0001
0000
0000
1000
0000
,  // measure 57
0001
0000
0000
0001
0000
0000
0100
0000
,  // measure 58
0010
0000
0010
0010
,  // measure 59
1001
0000
0000
0000
;
