#VERSION:0.83;
#TITLE:Dream;
#SUBTITLE:;
#ARTIST:The Brig;
#TITLETRANSLIT:;
#SUBTITLETRANSLIT:;
#ARTISTTRANSLIT:;
#GENRE:;
#ORIGIN:;
#CREDIT:;
#BANNER:Dream.png;
#BACKGROUND:Dream-bg.png;
#PREVIEWVID:;
#JACKET:Dream-jacket.png;
#CDIMAGE:;
#DISCIMAGE:;
#LYRICSPATH:;
#CDTITLE:;
#MUSIC:Dream.ogg;
#OFFSET:1.607406;
#SAMPLESTART:12.792794;
#SAMPLELENGTH:12.800002;
#SELECTABLE:YES;
#BPMS:0.000=150.000;
#STOPS:;
#DELAYS:;
#WARPS:;
#TIMESIGNATURES:0.000=4=4;
#TICKCOUNTS:0.000=4;
#COMBOS:0.000=1;
#SPEEDS:0.000=1.000=0.000=0;
#SCROLLS:0.000=1.000;
#FAKES:;
#LABELS:0.000=Song Start;
#BGCHANGES:;
#KEYSOUNDS:;
#ATTACKS:
;

//---------------dance-single - ----------------
#NOTEDATA:;
#CHARTNAME:;
#STEPSTYPE:dance-single;
#DESCRIPTION:;
#CHARTSTYLE:;
#DIFFICULTY:Hard;
#METER:15;
#RADARVALUES:0.646472,0.959716,0.405137,0.420425,0.653570,592.000000,539.000000,53.000000,55.000000,0.000000,0.000000,0.000000,0.000000,0.000000,0.646472,0.959716,0.405137,0.420425,0.653570,592.000000,539.000000,53.000000,55.000000,0.000000,0.000000,0.000000,0.000000,0.000000;
#CREDIT:Daniel Van Eden;
#NOTES:
0000
0000
0000
0000
,
0000
0000
0000
0000
,
0000
0000
0000
0000
,
0000
0000
0000
0000
,
0000
0000
0000
0000
,
0000
0000
0000
0000
,
0000
0000
0000
0000
,
0000
0000
0000
0000
,
0000
0000
0000
0000
,
2001
0000
0000
0000
3000
0001
0000
0001
0020
0000
0030
0000
0010
0100
0010
0100
,
2000
0000
3000
0000
1000
0010
0000
0010
0200
0000
0310
0000
0010
0100
0010
0100
,
0002
0000
1003
0100
0000
0100
1000
0000
0001
0100
0000
0100
0001
0000
1000
0100
,
0010
0000
1000
0010
0000
0000
0001
0000
0100
1000
0000
0000
0100
0000
0001
0000
,
1002
0000
0000
0000
0003
1000
0000
1000
0200
0000
0300
0000
0100
0010
0100
0010
,
0002
0000
0003
0000
0001
0100
0000
0100
0020
0000
0130
0000
0100
0010
0100
0010
,
2000
0000
3001
0010
0000
0010
0001
0000
1000
0010
0000
0010
1000
0000
0001
0100
,
0010
0000
0001
0010
0000
0000
1000
0000
0001
0010
0100
0000
1000
0000
0001
0010
,
0002
0003
0022
0033
,
0220
0000
0000
0000
0330
0000
0000
0000
1200
0000
1300
0000
0100
1000
0100
0010
,
0001
0000
1000
0010
1000
0001
0010
0001
1000
0100
0010
0001
1000
0000
0001
0100
,
0001
0000
1000
0100
0000
0000
0110
0000
0010
0001
0000
0000
0001
0000
0100
0010
,
1000
0000
0010
1000
0002
0000
1003
0000
0100
0000
0010
0001
1000
0001
0000
0000
,
0010
0000
0001
1000
0200
0000
0310
0000
0001
0000
0001
0000
1000
0010
0100
0001
,
1000
0000
0001
0100
0000
0010
1000
0000
0010
0100
0000
0100
0001
0000
1000
0100
,
0010
0000
1000
0010
0000
0000
0001
0000
0100
1000
0000
0000
0100
0000
0001
1000
,
0001
0000
0000
0010
0001
0000
1000
0000
0001
0010
0000
0000
0021
0000
0130
0000
,
1000
0000
0000
0010
1000
0000
0001
0000
1000
0010
0000
0000
1020
0000
0130
0000
,
0101
0000
0000
0001
0100
0000
0010
0000
0100
0001
0000
0000
0102
0000
0013
0000
,
0100
0000
0000
1000
0100
0000
0010
0000
0100
1000
0000
0000
1200
0000
0310
0000
,
0011
0001
1000
0001
0100
1000
0100
0001
,
1000
0010
0100
1000
0100
0001
1000
0100
,
0010
0100
1000
0001
0010
1000
0010
0001
,
2002
0000
0000
3003
,
1010
0000
0000
0010
1000
0000
0100
0000
0000
0010
0000
0000
0001
1000
0000
0000
,
0011
0000
0000
0010
0000
0001
1000
0000
0000
0010
0000
1000
0001
0100
0000
0000
,
0101
0000
0000
0100
0000
0001
1000
0000
0000
0100
0000
1000
0001
0100
0000
0000
,
1010
0000
0000
0010
0000
1000
0001
0000
0010
0100
0000
0000
0010
0001
1000
0010
,
0100
0010
0100
0010
0100
0010
0100
0010
0100
0010
0100
0010
1000
0001
0000
0000
,
0010
0100
0010
0100
0010
0100
0010
0100
0010
0100
0010
0100
1000
0001
0000
0000
,
1000
0010
1000
0010
0100
0001
0100
0001
1000
0100
0010
0001
1000
0010
0100
0001
,
1000
0000
0000
0000
,
2100
3100
0010
0001
1002
0103
0001
0010
,
0210
0310
0001
0200
1000
0301
2000
3000
,
0102
0103
0010
1000
2001
3100
1000
0010
,
0210
0310
1000
0100
0020
1000
0032
0100
,
1003
0100
0100
0000
1020
0000
0130
0000
,
0001
0100
0001
0100
0001
0000
1000
0000
0001
0100
0010
0000
1000
0100
0010
0000
,
0011
0000
0000
0110
0000
0011
0000
0000
1001
0000
0000
0000
0001
0000
0100
0000
,
0010
1000
0010
1000
0001
0000
0020
0000
0000
0000
0130
0000
1000
0000
0000
0000
,
1020
0031
1200
0301
,
0021
1030
0201
1300
,
1020
0130
2001
3100
,
0021
0130
2002
0003
,
3001
0000
0100
0000
0100
0010
0100
0001
1000
0000
0100
0000
0001
0000
0100
0000
,
1000
0000
0001
0010
0001
0010
1000
0010
,
0001
0000
1000
0010
0001
0010
0100
0001
,
1000
0000
0000
0000
1100
0000
0000
0000
0101
0000
0001
0000
0001
1000
0001
1000
,
0020
0000
0000
0000
0030
1000
0000
1000
0100
0000
0000
0010
0100
0010
0001
1000
,
0001
0000
0000
0010
0100
1000
0000
1000
0001
0000
0001
0000
0100
0010
0100
0001
,
1000
0000
0010
1000
0000
0000
0110
0000
0010
0100
0000
0000
0101
0000
0001
1000
,
0100
0000
1000
0100
0000
0000
0110
0000
0010
0100
0000
0000
0011
0000
0010
0001
,
0200
0000
0000
0000
0300
0001
0000
0001
0010
0000
0000
0100
0010
0100
1000
0001
,
1000
0000
0000
0010
0100
0001
0000
0001
1000
0000
1000
0000
0010
0100
0010
1000
,
0001
0000
1000
0010
0000
0000
0110
0000
0100
0001
0000
0000
0011
0000
0010
0100
,
1000
0001
0101
0100
0120
0000
0000
0000
,
0130
0000
0000
0001
0000
0000
0100
0000
0000
0001
0000
0000
0100
0000
0000
0001
,
0000
0000
0100
0000
0000
1000
0000
0000
0100
0000
0001
0000
0001
0010
0100
1000
,
0001
0000
0010
0001
0000
0000
0101
0000
0100
0010
0000
0000
1010
0000
0010
0000
,
0110
0000
2002
0000
0000
0000
3003
0000
1000
0001
0000
0000
0010
0000
0001
0000
,
0100
0000
0010
1000
0000
0010
0100
0000
0010
1000
0000
0001
0010
0000
0100
1000
,
0001
0000
0010
0100
0000
0010
0001
0000
0010
0100
0000
1000
0100
0010
0001
1000
,
0001
0000
0100
0010
0000
0000
1010
0000
1000
0001
0000
0000
0010
0001
0010
0100
,
1000
0000
0100
0010
0000
0000
0011
0000
1000
0010
0000
0000
0100
0000
0010
0000
,
2010
0000
0000
0000
,
0000
0000
0000
0000
,
3002
0000
0000
0000
,
0000
0000
0000
0000
,
0023
0000
0000
0000
,
0000
0000
0000
0000
,
0230
0000
0000
0000
,
0020
0000
0000
0000
,
0330
0000
0000
0000
;

//---------------dance-single - ----------------
#NOTEDATA:;
#CHARTNAME:;
#STEPSTYPE:dance-single;
#DESCRIPTION:;
#CHARTSTYLE:;
#DIFFICULTY:Medium;
#METER:12;
#RADARVALUES:0.467382,0.681088,0.229323,0.236967,0.301942,428.000000,398.000000,30.000000,31.000000,0.000000,0.000000,0.000000,0.000000,0.000000,0.467382,0.681088,0.229323,0.236967,0.301942,428.000000,398.000000,30.000000,31.000000,0.000000,0.000000,0.000000,0.000000,0.000000;
#CREDIT:Daniel Van Eden;
#NOTES:
0000
0000
0000
0000
,
0000
0000
0000
0000
,
0000
0000
0000
0000
,
0000
0000
0000
0000
,
0000
0000
0000
0000
,
0000
0000
0000
0000
,
0000
0000
0000
0000
,
0000
0000
0000
0000
,
0000
0000
0000
0000
,
1001
0000
0000
0000
0000
1000
0000
1000
0100
0000
0000
0000
0100
0000
0010
0000
,
0100
0000
0000
0000
0010
0001
0000
0010
0001
0000
0000
0000
0001
0000
0100
0000
,
0001
0000
0000
0010
0000
0000
0100
0000
0000
0001
0000
0000
0100
0000
1000
0000
,
0001
0000
0000
1000
0000
0000
0010
0000
0000
0100
0000
0000
1000
0000
0100
0000
,
0001
0000
0000
0000
0000
0001
0000
0001
0010
0000
0000
0000
0010
0000
0100
0000
,
0010
0000
0000
0000
0100
1000
0000
0100
1000
0000
0000
0000
1000
0000
0010
0000
,
1000
0000
0001
0100
0000
0001
1000
0000
0010
1000
0000
0010
0100
0000
0001
0000
,
1000
0000
0000
0100
0000
0000
0100
0000
0000
0010
0000
0000
0010
0000
0001
0000
,
2000
3000
0002
0003
,
0020
0000
0030
0000
0020
0000
0130
1000
,
0001
0100
1000
0001
0010
1000
0001
0010
,
0100
0000
0000
0010
0000
0000
1000
0000
0000
0010
0000
0000
0001
0000
0100
0000
,
0010
0000
0000
0100
0000
0000
0010
0000
0010
0100
0000
0000
0010
1000
0000
0000
,
1000
0000
0000
0100
0000
0000
1000
0000
1000
0100
0000
0000
0010
0001
0000
0000
,
0001
0000
0000
1000
0000
0000
0010
0000
0000
0001
0000
0000
0010
0000
1000
0000
,
0001
0000
1000
0001
0000
0000
0010
0000
0000
1000
0000
0000
0010
0000
0100
0000
,
1000
0000
0000
0010
0000
0000
0010
0000
0000
1000
0000
0000
0001
0000
0000
0000
,
0001
0000
0000
0010
0000
0000
0010
0000
0000
0001
0000
0000
1000
0000
0000
0000
,
0100
0000
0000
1000
0000
0000
1000
0000
0000
0001
0000
0000
0100
0000
0000
0000
,
0010
0000
0000
1000
0000
0000
1000
0000
0000
0001
0000
0000
0001
0000
0010
0000
,
0010
0001
0010
0100
0010
0001
1000
0001
,
0010
0100
1000
0100
0010
0100
1000
0010
,
0100
0010
1000
0010
0100
0001
1000
0100
,
0020
0000
0000
0030
,
0011
0000
0000
0010
0001
0000
0010
0000
0001
0010
0000
0000
0011
0000
0000
0000
,
0110
0000
0000
0010
0100
0000
0010
0000
0100
0010
0000
0000
0110
0000
0000
0000
,
1100
0000
0000
1000
0100
0000
1000
0000
0100
1000
0000
0000
1100
0000
0000
0000
,
1001
0000
0000
1000
0001
0000
1000
0000
0001
1000
0000
0000
1001
0000
0001
0000
,
0100
0001
0100
0001
0100
0010
0100
0000
,
0010
1000
0010
1000
0010
0100
0010
0000
,
0010
1000
0001
0010
0100
1000
0001
1000
,
0010
0000
0000
0000
,
1000
1000
0001
0010
1000
0010
0001
0000
,
0100
0100
1000
0100
0001
0010
0200
0000
,
0310
0010
0001
0100
1000
0100
0001
0000
,
1000
1000
0001
0100
1000
0100
1000
0100
,
0001
0010
0010
0001
1000
0010
0100
0000
,
0202
0000
0303
0000
1000
0001
0100
0010
,
1000
0000
0000
0001
0000
1000
0000
0000
0010
0000
0000
0000
1010
0000
0000
0000
,
0110
0100
0001
2000
0000
3100
0010
0100
,
2100
3001
0012
0103
,
1020
0130
0102
1003
,
2010
3001
0102
0013
,
0210
1300
2002
3003
,
1000
0010
0010
1000
0001
0100
1000
0100
,
0001
0100
0010
0100
0010
1000
0001
0010
,
0100
1000
1100
1000
,
0001
0000
0000
0000
0010
0000
0000
0000
0011
0000
0000
0000
0001
1000
0001
1000
,
0002
0000
0000
0000
0000
0000
0000
0000
0013
0000
0000
0100
0000
0000
0010
0000
,
0001
0000
0000
1000
0000
0000
0010
0000
0010
0000
0010
0000
0100
0000
0010
0000
,
1000
0000
0001
1000
0000
0000
0010
0000
1000
0010
0000
0000
0100
0000
0100
0000
,
0001
0000
1000
0001
0000
0000
0010
0000
0100
0010
0000
0000
0100
0000
1000
0000
,
0002
0000
0000
0000
0003
0000
0000
0000
2000
0000
0000
0010
0000
0000
3010
0000
,
0200
0000
0000
0001
0000
0000
0301
0000
0020
0000
0000
0100
0000
0000
0130
0000
,
1000
0000
0010
1000
0000
0000
0010
0000
0100
0010
0000
0000
0100
0000
0001
0000
,
0011
0110
1100
0000
,
1001
0000
0000
0000
,
0000
0000
0000
0000
0000
0000
0000
0000
1010
0000
0000
0000
0010
0100
0010
0100
,
0010
0000
0100
0001
0000
0000
1000
0000
0001
1000
0000
0000
0010
0000
1000
0000
,
1100
0000
0022
0000
0000
0000
0033
0000
0001
0010
0000
0000
0100
0000
0010
0000
,
0001
0000
0100
0010
0000
0100
0001
0000
0100
0010
0000
0100
0001
0000
0010
0000
,
0100
0000
1000
0001
0000
1000
0100
0000
1000
0001
0000
1000
0100
0010
0000
0000
,
0012
0000
0000
0010
0000
0000
1000
0000
0000
1000
0000
0000
1003
0000
0010
0000
,
2000
0000
0000
0100
0000
0000
0001
0000
0000
0001
0000
0000
3001
0000
0010
0000
,
0200
0000
0000
0000
,
0000
0000
0000
0000
,
0320
0000
0000
0000
,
0000
0000
0000
0000
,
0032
0000
0000
0000
,
0000
0000
0000
0000
,
2003
0000
0000
0000
,
0000
0000
0000
0000
,
3000
0000
0000
0000
;

//---------------dance-single - ----------------
#NOTEDATA:;
#CHARTNAME:;
#STEPSTYPE:dance-single;
#DESCRIPTION:;
#CHARTSTYLE:;
#DIFFICULTY:Beginner;
#METER:3;
#RADARVALUES:0.174722,0.251108,0.068797,0.000000,0.000000,160.000000,151.000000,9.000000,0.000000,0.000000,0.000000,0.000000,0.000000,0.000000,0.174722,0.251108,0.068797,0.000000,0.000000,160.000000,151.000000,9.000000,0.000000,0.000000,0.000000,0.000000,0.000000,0.000000;
#CREDIT:Daniel Van Eden;
#NOTES:
0000
0000
0000
0000
,
0000
0000
0000
0000
,
0000
0000
0000
0000
,
0000
0000
0000
0000
,
0000
0000
0000
0000
,
0000
0000
0000
0000
,
0000
0000
0000
0000
,
0000
0000
0000
0000
,
0000
0000
0000
0000
,
0001
0000
1000
0000
,
0010
0000
0100
0000
,
0001
0001
0001
0000
,
1000
1000
1000
0000
,
0100
0000
0010
0000
,
0001
0000
1000
0000
,
0010
0010
0010
0000
,
0100
0100
0100
0000
,
1001
0000
1001
0000
,
0110
0000
0110
0000
,
0010
0010
0010
0000
,
1000
1000
1000
0000
,
0001
0000
0010
0000
,
0100
0000
1000
0000
,
0001
0001
0001
0000
,
0100
0100
0100
0000
,
0001
0000
0001
0000
,
1000
0000
1000
0000
,
0010
0000
0010
0000
,
1000
0000
1000
0000
,
0100
0000
0100
0000
,
0010
0000
0010
0000
,
0001
0000
1000
0000
,
0010
0000
0000
0000
,
1001
0000
1000
0000
,
0001
0000
0001
0000
,
0100
0000
0100
0000
,
0001
0000
0001
0000
,
0010
0010
0010
0000
,
0100
0100
0100
0000
,
1000
1000
1000
0000
,
1001
0000
0000
0000
,
0010
0010
0010
0000
,
1000
1000
1000
0000
,
0001
0001
0001
0000
,
0010
0000
0010
0010
,
0010
0000
0100
0000
,
1000
0000
1000
1000
,
1000
0000
0001
0000
,
0100
0000
0000
0000
,
0001
1000
0001
0000
,
1000
0001
1000
0000
,
0010
0100
0010
0000
,
0100
0010
0000
0000
,
0110
0000
0100
0000
,
0001
0000
0001
0001
,
0001
0000
1000
0000
,
0100
0000
0100
0000
,
0010
0000
0100
0000
,
1000
0000
0001
0000
,
0100
0100
0100
0000
,
0010
0010
0010
0000
,
1000
0000
0001
0000
,
0010
0000
0100
0000
,
1000
1000
1000
0000
,
0001
0001
0001
0000
,
1001
0000
0000
0000
,
0000
0000
0000
0000
,
1000
1000
1000
0000
,
0001
0000
0001
0001
,
0010
0000
0100
0000
,
0010
0000
0001
0000
,
1000
1000
1000
0000
,
0001
0001
0001
0000
,
1001
0000
0000
0000
;

//---------------dance-single - ----------------
#NOTEDATA:;
#CHARTNAME:;
#STEPSTYPE:dance-single;
#DESCRIPTION:;
#CHARTSTYLE:;
#DIFFICULTY:Easy;
#METER:7;
#RADARVALUES:0.267543,0.334811,0.084085,0.099373,0.000000,245.000000,234.000000,11.000000,13.000000,0.000000,0.000000,0.000000,0.000000,0.000000,0.267543,0.334811,0.084085,0.099373,0.000000,245.000000,234.000000,11.000000,13.000000,0.000000,0.000000,0.000000,0.000000,0.000000;
#CREDIT:Daniel Van Eden;
#NOTES:
// measure 0
0000
0000
0000
0000
,  // measure 1
0000
0000
0000
0000
,  // measure 2
0000
0000
0000
0000
,  // measure 3
0000
0000
0000
0000
,  // measure 4
0000
0000
0000
0000
,  // measure 5
0000
0000
0000
0000
,  // measure 6
0000
0000
0000
0000
,  // measure 7
0000
0000
0000
0000
,  // measure 8
0000
0000
0000
0000
,  // measure 9
1001
0000
0001
0010
,  // measure 10
0001
1000
0010
1000
,  // measure 11
0001
0000
0000
0001
0000
0000
0001
0000
,  // measure 12
1000
0000
0000
1000
0000
0000
1000
0000
,  // measure 13
0001
0000
1000
0100
,  // measure 14
1000
0001
0100
0001
,  // measure 15
1000
0000
0000
1000
0000
0000
1000
0000
,  // measure 16
0010
0100
0001
0000
,  // measure 17
0101
0000
0101
0000
,  // measure 18
1010
0000
1010
0000
,  // measure 19
1000
0010
0100
0001
,  // measure 20
1000
0100
0010
0001
,  // measure 21
1000
0010
1000
0001
,  // measure 22
0001
0010
0001
1000
,  // measure 23
1000
0000
0000
0010
0000
0000
0100
0000
,  // measure 24
0100
0000
0000
0001
0000
0000
0010
0000
,  // measure 25
0010
0000
0000
0010
0000
0000
0010
0000
,  // measure 26
0100
0000
0000
0100
0000
0000
0100
0000
,  // measure 27
1000
0000
0000
1000
0000
0000
1000
0000
,  // measure 28
0001
0000
0000
0001
0000
0000
0001
0000
,  // measure 29
1000
0010
1000
0001
,  // measure 30
1000
0100
0010
0001
,  // measure 31
1000
0001
0100
0010
,  // measure 32
1000
0000
0000
0000
,  // measure 33
1001
0000
0000
1000
0000
0000
1000
0000
,  // measure 34
0001
0000
0000
0001
0000
0000
0001
0000
,  // measure 35
0010
0000
0000
0010
0000
0000
0010
0000
,  // measure 36
0010
0000
0000
0010
0000
0000
0010
0000
,  // measure 37
0100
0010
0100
0010
,  // measure 38
0001
1000
0001
1000
,  // measure 39
0010
0100
0010
1000
,  // measure 40
0001
0000
0000
0000
,  // measure 41
0001
0001
0000
0000
0011
0000
0001
0000
,  // measure 42
1000
1000
0000
0000
1010
0000
0020
0000
,  // measure 43
0130
0100
0000
0000
0101
0000
0001
0000
,  // measure 44
0010
0010
0000
0000
0001
1000
0001
1000
,  // measure 45
0001
0100
0100
0010
,  // measure 46
1000
0010
1000
0000
0001
0000
0001
0000
,  // measure 47
0010
0100
1000
0001
,  // measure 48
1000
0000
0000
1000
0000
0000
0001
0000
,  // measure 49
0002
0203
0302
1003
,  // measure 50
0002
0023
0032
1003
,  // measure 51
0200
0320
0230
1300
,  // measure 52
0200
1300
0002
0000
,  // measure 53
1003
0000
0001
1000
0001
0000
0000
0000
,  // measure 54
0010
0001
0010
0100
,  // measure 55
1000
0100
0100
0010
,  // measure 56
0010
0000
0001
0000
0001
0001
0001
0000
,  // measure 57
1000
0000
0010
1000
,  // measure 58
0010
0100
0001
0010
,  // measure 59
0100
0000
0000
0100
0000
0000
0010
0000
,  // measure 60
0010
0000
0010
0001
0000
0001
1000
0000
,  // measure 61
1000
0000
0001
0010
,  // measure 62
0010
0100
0100
1000
,  // measure 63
0001
0000
0001
1000
0000
1000
0001
0000
,  // measure 64
0100
0010
0110
0000
,  // measure 65
1000
0000
0000
1000
0000
0000
0001
0000
,  // measure 66
0000
0001
0000
0000
0010
0000
0100
0000
,  // measure 67
0010
0000
0010
0001
0000
0001
1000
0000
,  // measure 68
1000
0020
0000
0000
0130
0000
0010
0000
,  // measure 69
1000
0000
0001
0100
0000
0001
1000
0000
,  // measure 70
0001
0000
1000
0100
0000
1000
0001
0000
,  // measure 71
0010
0000
0010
0100
0000
0100
0010
0000
,  // measure 72
0001
0000
0001
1000
0000
1000
0010
0000
,  // measure 73
0110
0000
0000
0000
;
