#TITLE:Don't Sing;
#SUBTITLE:;
#ARTIST:DATA;
#TITLETRANSLIT:;
#SUBTITLETRANSLIT:;
#ARTISTTRANSLIT:;
#GENRE:;
#CREDIT:;
#MUSIC:Dont Sing.ogg;
#BANNER:Dont Sing.png;
#BACKGROUND:Dont Sing-bg.png;
#CDTITLE:;
#SAMPLESTART:41.666;
#SAMPLELENGTH:16.410;
#SELECTABLE:YES;
#OFFSET:1.270;
#BPMS:0.000=117.000;
#STOPS:;
#ORIGIN:;
#PREVIEWVID:;
#JACKET:Dont Sing-jacket.png;
#CDIMAGE:;
#DISCIMAGE:Dont Sing-bg.png;
#BGCHANGES:;
#FGCHANGES:;

//--------------- dance-single - ----------------
#NOTES:
     dance-single:
     :
     Easy:
     3:
     0,0,0,0,0:
0000
0000
0000
0000
,
0000
0000
0000
0000
,
0100
0000
0000
0000
,
0010
0000
0000
0000
,
0000
0000
0000
0000
,
0000
1000
0010
0000
,
0000
0100
0000
1000
0000
0000
0000
0000
,
0000
0100
0010
1000
,
0100
0000
0000
0020
0030
0000
0000
0000
,
0000
0001
1000
0000
0100
0000
0000
0000
,
0000
1000
1100
0000
,
0000
0010
0001
0000
0100
0000
0000
0000
,
1000
0001
0000
2002
0000
0000
3003
0000
,
0000
0000
1000
0000
0100
0020
0000
0030
,
0000
0001
0100
0002
0000
0000
0003
0000
,
1000
0010
1000
0100
,
1000
0000
0001
0000
0000
0000
2002
0000
0000
3003
0000
0000
0000
0000
0000
0000
,
0000
0100
0010
0000
0001
0000
0000
0000
,
0000
0010
0001
0100
0000
0000
0000
0000
,
0001
1000
0010
0100
,
0001
0000
1000
0000
0000
0000
2002
0000
0000
0000
0000
3003
0000
0000
0000
0000
,
0020
0000
0130
0001
,
0200
0300
0001
0001
,
2000
3000
0001
0010
,
0002
0003
0000
0000
,
0020
0000
0130
0001
,
0200
0300
0001
0001
,
2000
3000
0001
0010
,
0002
0003
0000
0000
,
0200
0000
0310
1000
,
0020
0030
1000
1000
,
0002
0003
1000
0100
,
2000
3000
0000
0000
,
0200
0000
0310
1000
,
0020
0030
1000
1000
,
0002
1000
1000
0100
,
0100
1000
1000
0010
,
0013
0000
1000
1000
,
0200
0300
0001
0001
,
0200
0300
1000
1000
,
0200
0300
0000
0000
,
0000
0000
0010
0010
,
0200
0300
0001
0001
,
0200
0300
0010
0010
,
0200
0300
0000
0000
,
0000
0000
1000
1000
,
0002
0003
0001
0001
,
0200
0300
0000
0000
,
0000
0000
0000
0000
,
0020
0000
0130
0001
,
0200
0300
0001
0001
,
2000
3000
0001
0010
,
0002
0003
0000
0000
,
0200
0000
0310
1000
,
0020
0030
1000
1000
,
0002
0003
1000
0100
,
2000
3000
0000
0000
,
0002
0000
0013
0100
,
0020
0030
0001
0001
,
2000
3000
0001
0100
,
0002
0000
0000
0000
0000
0000
0000
0003
0000
0000
0000
0000
0000
0000
0000
0000
,
0020
0000
0130
1000
,
0200
0300
1000
0001
,
2000
3000
0002
0003
;

//--------------- dance-single - ----------------
#NOTES:
     dance-single:
     :
     Medium:
     6:
     0,0,0,0,0:
0000
0000
0000
0000
,
0000
0000
0000
0000
,
0100
0000
0000
0000
,
0010
0000
0000
0000
,
0000
0000
0000
0000
,
0000
0000
1000
0010
0010
0100
0000
0000
,
0000
0001
0010
0200
0000
0300
0000
0000
,
0000
0000
1000
0001
1000
0000
1000
0000
,
0100
0000
0000
0000
0010
0000
0000
0000
0000
0000
0000
0000
0021
0000
0000
0000
0000
0000
0000
0030
0000
0000
0000
0000
0000
0000
0000
0000
0000
0000
0000
0000
,
0000
0001
1000
0001
0100
0001
0000
0000
,
0000
0000
0000
0000
0000
0000
0000
0000
0010
0000
0000
0000
0100
0000
0000
0000
0220
0000
0000
0000
0000
0000
0000
0330
0000
0000
0000
0000
0000
0000
0000
0000
,
0000
0010
0001
0000
0100
0001
0000
0000
,
1000
0001
0000
2002
0000
0000
3003
0000
,
0000
0000
1000
1000
0100
0020
0000
0030
,
0000
0001
0100
0002
0000
0000
0003
0000
,
1000
0010
1000
0100
,
1000
0000
0001
0000
0000
0000
2002
0000
0000
3003
0000
0000
0000
0000
0000
0000
,
0000
0100
0010
0001
0001
0000
0000
0000
,
0000
0000
0000
0000
0010
0000
0000
0000
0001
0000
0000
0000
0200
0000
0000
0000
0000
0000
0000
0300
0000
0000
0000
0000
0000
0000
0000
0000
0000
0000
0000
0000
,
0001
1000
0010
0100
,
0001
0000
1000
0000
0000
0000
2002
0000
0000
0000
0000
3003
0000
0000
0000
0000
,
0020
0000
0000
0000
0000
0000
0000
0000
0130
0000
0000
0001
1000
0000
0000
0000
,
0200
0000
0000
0000
0300
0000
0000
0000
1000
0000
0000
0001
1000
0000
0000
0000
,
2000
0000
0000
0000
3000
0000
0000
0000
0001
0000
0000
0010
0001
0000
0000
0000
,
0200
0300
0000
0000
,
0200
0000
0000
0000
0000
0000
0000
0000
0310
0000
0000
1000
0001
0000
0000
0000
,
0020
0000
0000
0000
0030
0000
0000
0000
0001
0000
0000
1000
0001
0000
0000
0000
,
2000
0000
0000
0000
3000
0000
0000
0000
0001
0000
0000
0100
0001
0000
0000
0000
,
0020
0030
0000
0000
,
0020
0000
0000
0000
0000
0000
0000
0000
0130
0000
0000
1000
0001
0000
0000
0000
,
0200
0000
0000
0000
0300
0000
0000
0000
0001
0000
0000
1000
0001
0000
0000
0000
,
0002
0000
0000
0000
0000
0000
0000
0003
0000
0000
0000
0000
0000
0000
0000
0000
0001
0000
0000
0000
0000
0000
0010
0000
0001
0000
0000
0000
0000
0000
0000
0000
,
0200
0300
0000
0000
,
0020
0000
0000
0000
0000
0000
0000
0000
0130
0000
0000
0001
1000
0000
0000
0000
,
0200
0000
0000
0000
0300
0000
0000
0000
1000
0000
0000
0001
1000
0000
0000
0000
,
0002
1000
1000
0100
,
0100
1000
1000
0010
,
0013
0000
0000
0000
0000
0000
0000
0000
1000
0000
0000
0100
1000
0000
0000
0000
,
0200
0000
0000
0000
0300
0000
0000
0000
0001
0000
0000
0100
0001
0000
0000
0000
,
0200
0000
0000
0000
0300
0000
0000
0000
1000
0000
0000
0100
1000
0000
0000
0000
,
0200
0300
0000
0000
,
0000
0000
0000
0000
0000
0000
0000
0000
0010
0000
0000
0100
0010
0000
0000
0000
,
0200
0000
0000
0000
0300
0000
0000
0000
0001
0000
0000
0100
0001
0000
0000
0000
,
0200
0000
0000
0000
0300
0000
0000
0000
0010
0000
0000
0100
0010
0000
0000
0000
,
0200
0300
0000
0000
,
0000
0000
0000
0000
0000
0000
0000
0000
0001
0000
0000
1000
0001
0000
0000
0000
,
0002
0000
0000
0000
0003
0000
0000
0000
0001
0000
0000
0100
0001
0000
0000
0000
,
0200
0300
0000
0000
,
0000
0000
0000
0000
,
0020
0000
0000
0000
0000
0000
0000
0000
0130
0000
0000
0001
1000
0000
0000
0000
,
0200
0000
0000
0000
0300
0000
0000
0000
1000
0000
0000
0001
1000
0000
0000
0000
,
2000
0000
0000
0000
3000
0000
0000
0000
0001
0000
0000
0010
0001
0000
0000
0000
,
2000
0000
0000
0000
0000
0000
0000
0000
0000
3000
0000
0000
0000
0000
0000
0000
0000
0000
0000
0000
0000
0000
0000
0000
0000
0000
0000
0000
0000
0000
0000
0000
,
0200
0000
0000
0000
0000
0000
0000
0000
0310
0000
0000
0001
1000
0000
0000
0000
,
0020
0000
0000
0000
0030
0000
0000
0000
1000
0000
0000
0010
1000
0000
0000
0000
,
0002
0000
0000
0000
0003
0000
0000
0000
1000
0000
0000
0100
1000
0000
0000
0000
,
0200
0300
0000
0000
,
2000
0000
0000
0000
0000
0000
0000
0000
3010
0000
0000
0100
0010
0000
0000
0000
,
0020
0000
0000
0000
0030
0000
0000
0000
1000
0000
0000
0001
1000
0000
0000
0000
,
2000
0000
0000
0000
3000
0000
0000
0000
0001
0000
0000
0100
0001
0000
0000
0000
,
0200
0000
0000
0000
0000
0000
0000
0300
0000
0000
0000
0000
0000
0000
0000
0000
,
0020
0000
0000
0000
0000
0000
0000
0000
0130
0000
0000
0001
1000
0000
0000
0000
,
0200
0000
0000
0000
0300
0000
0000
0000
1000
0000
0000
0001
1000
0000
0000
0000
,
0200
0300
0020
0030
;

//--------------- dance-single - ----------------
#NOTES:
     dance-single:
     :
     Hard:
     11:
     0.266096,0.413304,0.142132,0.044884,0.228159,249,230,19,6,0,0,0,0,0,0.266096,0.413304,0.142132,0.044884,0.228159,249,230,19,6,0,0,0,0,0:
0000
0000
0000
0000
,
0000
0000
0000
0000
,
1001
0000
0000
0000
,
0001
0000
0000
0000
0000
0000
0000
0000
0000
1000
0001
0000
0000
0000
2002
0000
,
0000
0000
0000
0000
0000
0000
3003
0000
0000
0000
0010
0000
0000
0100
0000
0000
,
2000
0000
3000
0000
0000
0000
0000
0000
0000
0000
1000
0000
0000
0100
0000
0000
,
0002
0000
0003
0000
0000
0000
0000
0000
0000
0000
1000
0000
0000
0100
0000
0000
,
0001
0000
0001
0000
0000
0000
0000
0000
0000
0001
0100
0000
0000
0000
2000
0000
,
0000
0000
0000
0000
3000
0000
0000
0000
0000
0000
1000
0000
0000
0100
0000
0000
,
0020
0000
0030
0000
0000
0000
0000
0000
0000
0000
0010
0000
0000
0100
0000
0000
,
2000
0000
3000
0000
0000
0000
0000
0000
0000
0001
1000
0000
0000
0100
0000
0000
,
0100
0000
0000
2000
0000
0000
3000
0000
0000
0000
0000
0000
0000
0000
0100
1000
0000
0000
0000
0000
0000
2002
0000
0000
,
0000
0000
3003
0000
0000
0001
0100
0000
,
0010
0000
0000
0000
0000
1000
0010
0000
,
0100
0000
0000
0000
0000
0000
0000
0000
0000
0001
0010
0000
0000
0010
0000
0000
,
0001
0000
0011
0000
0001
0000
0010
0000
0000
0100
1000
0000
0000
0000
2002
0000
,
0000
0000
0000
0000
0000
0000
3003
0000
0000
0000
1000
0000
0000
0100
0000
0000
,
0022
0000
0000
0000
0000
0000
0000
0033
0000
0000
0000
0000
0000
0000
0000
0000
0000
0000
0000
0000
0100
0000
0000
0000
1000
0000
0000
0000
0000
0000
0000
0000
,
2200
0000
3300
0000
0000
0000
0000
0000
0000
0100
0001
0000
0000
0010
0000
0000
,
1001
0000
2002
0000
3003
0000
0000
0000
0000
0001
1000
0000
0000
0000
2200
0000
,
0000
0000
0000
0000
0000
0000
0000
0000
0000
0000
0000
0000
0000
0000
0000
0000
0000
3300
0000
0000
0000
0000
0000
0000
0000
0000
0000
0000
0000
0000
0000
0000
,
2000
0000
0000
0000
0000
0000
0000
3000
0001
0000
0000
0010
0001
0000
0000
0000
,
0200
0000
0000
0000
0301
0000
0000
0000
1000
0000
0000
0100
1000
0000
0000
0000
,
0001
1000
0000
0000
1001
0000
0000
0000
0100
0000
0000
0010
0001
0000
0000
0000
,
0200
0000
0000
0000
0000
0000
0000
0300
0001
0000
0000
0000
0100
0000
0000
0000
0010
0000
0000
0000
1000
0000
0000
0000
0100
0000
0000
0000
0010
0000
0000
0000
,
0002
0000
0000
0000
0000
0000
0000
0003
1000
0000
0000
0010
1000
0000
0000
0000
,
0200
0000
0000
0000
1300
0000
0000
0000
0001
0000
0000
0100
0001
0000
0000
0000
,
1000
0001
0000
0000
1001
0000
0000
0000
0100
0000
0000
0010
1000
0000
0000
0000
,
0200
0000
0000
0000
0000
0000
0000
0300
1000
0000
0000
0000
0100
0000
0000
0000
0010
0000
0000
0000
0001
0000
0000
0000
0100
0000
0000
0000
0010
0000
0000
0000
,
2000
0000
0000
0000
0001
0000
0001
3000
0010
0000
0000
0001
1000
0000
0000
0000
,
1010
0000
0000
0000
1000
0000
0000
0000
0001
0000
0000
0100
0001
0000
0000
1000
,
0001
1000
0000
0000
1100
0000
0000
0000
0100
0000
0000
1000
0100
0000
0000
0000
,
0010
0001
0100
0001
0010
0100
1000
0010
,
0200
0000
0000
0000
0301
0000
0000
0000
0010
0000
0000
0001
0010
0000
0000
0000
,
0002
0000
0000
0000
1003
0000
0000
0000
0001
0000
0000
1000
0001
0000
0000
0000
,
0002
0000
0000
0000
0000
0000
0000
0000
0020
0003
0000
0000
0000
0000
0000
0000
0200
0030
0000
0000
0000
0000
0000
0000
2000
0300
0000
0000
0000
0000
0000
0000
,
0002
3000
0000
0000
0000
0000
0000
0000
1000
0000
0000
0000
0000
0000
0000
0000
0100
0000
0000
0000
0000
0000
0000
0000
1000
0000
0000
0000
0003
0000
0000
0000
,
1001
0000
0000
0000
1000
0000
0000
0000
1000
0000
0000
0100
1000
0000
0000
0000
,
0200
0000
0000
0000
0000
0300
0000
0000
1000
0000
0000
0000
0000
0000
0000
0000
1000
0000
0000
0000
0000
0000
0010
0000
1000
0000
0000
0000
0000
0000
0000
0000
,
0020
0000
0000
0000
0000
0030
0000
0000
1000
0000
0000
0000
0000
0000
0000
0000
0001
0000
0000
0000
0000
0000
0010
0000
0001
0000
0000
0000
0000
0000
0000
0000
,
0200
0000
0000
0000
0000
0300
0000
0000
0001
0000
0000
0000
0000
0000
0000
0000
0010
0000
0100
0000
0000
0000
1000
0000
0000
0000
0010
0000
0000
0000
0100
0000
,
0000
0000
0010
0000
0000
0000
0000
0000
1000
0000
0000
0001
0100
0000
0000
0000
,
0002
0000
0000
0000
0000
0003
0000
0000
1000
0000
0000
0000
0000
0000
0000
0000
0010
0000
0000
0000
0000
0000
1000
0000
0010
0000
0000
0000
0000
0000
0000
0000
,
2000
0000
0000
3000
0010
0000
0000
0000
1000
0000
0000
0100
0010
0000
0000
0000
,
0002
0000
0000
0003
0000
0000
0000
0000
1000
0100
0000
0010
0000
0100
0000
2000
,
0000
0000
3100
0000
0000
0000
0000
0000
1000
0000
0000
0001
0100
0000
0000
0000
,
0002
0000
0000
0000
0000
0003
0000
0000
1000
0000
0000
0000
0000
0000
0000
0000
0010
0000
0000
0000
0000
0000
1000
0000
0010
0000
0000
0000
0000
0000
0000
0000
,
2000
0000
0000
0000
0000
0000
0000
0000
0020
3000
0000
0000
0000
0000
0000
0000
0200
0030
0000
0000
0000
0000
0000
0000
0002
0300
0000
0000
0000
0000
0000
0000
,
2000
0003
0000
0000
0000
0000
0000
0000
0020
0000
0000
0000
0000
0000
0000
0000
0000
0000
0000
0000
0000
0000
0000
0000
3030
0000
0000
0000
0000
0000
0000
0000
,
2000
0000
0000
0000
0000
0000
0000
3000
0001
0000
0000
0010
0001
0000
0000
0000
,
0200
0000
0000
0000
0301
0000
0000
0000
1000
0000
0000
0100
1000
0000
0000
0000
,
0001
1000
0000
0000
1001
0000
0000
0000
0100
0000
0000
0010
0001
0000
0000
0000
,
0200
0000
0000
0000
0000
0000
0000
0300
0001
0000
0000
0000
0100
0000
0000
0000
0010
0000
0000
0000
1000
0000
0000
0000
0100
0000
0000
0000
0010
0000
0000
0000
,
0002
0000
0000
0000
0000
0000
0000
0003
1000
0000
0000
0010
1000
0000
0000
0000
,
0200
0000
0000
0000
1300
0000
0000
0000
0001
0000
0000
0100
0001
0000
0000
0000
,
1000
0001
0000
0000
1001
0000
0000
0000
0100
0000
0000
0010
1000
0000
0000
0000
,
0200
0000
0000
0000
0000
0000
0000
0300
1000
0000
0000
0000
0100
0000
0000
0000
0010
0000
0000
0000
0001
0000
0000
0000
0100
0000
0000
0000
0010
0000
0000
0000
,
2000
0000
0000
0000
0001
0000
0001
3000
0010
0000
0000
0001
1000
0000
0000
0000
,
1010
0000
0000
0000
1000
0000
0000
0000
0001
0000
0000
0100
0001
0000
0000
1000
,
0001
1000
0000
0000
1100
0000
0000
0000
0100
0000
0000
1000
0100
0000
0000
0000
,
0010
0001
0100
0001
0010
0100
1000
0010
,
0200
0000
0001
0000
0301
0000
0000
0000
0010
0000
0000
0001
0010
0000
0000
0000
,
0002
0000
0000
0000
1003
0000
0000
0000
0001
0000
0000
1000
0001
0000
0000
0000
,
1001
1000
1001
0100
,
2000
0000
0000
0000
0000
0000
0000
0000
0200
3000
0000
0000
0000
0000
0000
0000
0002
0300
0000
0000
0000
0000
0000
0000
0200
0003
0000
0000
0000
0000
0000
0000
,
2000
0300
0000
0000
0000
0000
0000
0000
0002
3000
0000
0000
0000
0000
0000
0000
0003
0000
0000
0000
0000
0000
0000
0000
0000
0000
0000
0000
0000
0000
0000
0000
;
