#VERSION:0.83;
#TITLE:Dolphin Click;
#SUBTITLE:;
#ARTIST:Guifrog;
#TITLETRANSLIT:;
#SUBTITLETRANSLIT:;
#ARTISTTRANSLIT:;
#GENRE:HAPPY HARDCORE;
#ORIGIN:;
#CREDIT:;
#BANNER:dolphinclick-bn.png;
#BACKGROUND:dolphinclick-bg.png;
#PREVIEWVID:;
#JACKET:dolphinclick-jacket.png;
#CDIMAGE:;
#DISCIMAGE:;
#LYRICSPATH:;
#CDTITLE:cdtitle.png;
#MUSIC:dolphinclick.ogg;
#OFFSET:-0.199000;
#SAMPLESTART:24.198999;
#SAMPLELENGTH:14.188000;
#SELECTABLE:YES;
#BPMS:0.000=170.000;
#STOPS:;
#DELAYS:;
#WARPS:;
#TIMESIGNATURES:0.000=4=4;
#TICKCOUNTS:0.000=4;
#COMBOS:0.000=1;
#SPEEDS:0.000=1.000=0.000=0;
#SCROLLS:0.000=1.000;
#FAKES:;
#LABELS:0.000=Song Start;
#BGCHANGES:;
#KEYSOUNDS:;
#ATTACKS:
;

//---------------dance-single - ----------------
#NOTEDATA:;
#CHARTNAME:;
#STEPSTYPE:dance-single;
#DESCRIPTION:;
#CHARTSTYLE:;
#DIFFICULTY:Medium;
#METER:7;
#RADARVALUES:0.412995,0.534708,0.394589,0.217426,0.000000,359.000000,310.000000,49.000000,27.000000,0.000000,0.000000,0.000000,0.000000,0.000000,0.412995,0.534708,0.394589,0.217426,0.000000,359.000000,310.000000,49.000000,27.000000,0.000000,0.000000,0.000000,0.000000,0.000000;
#CREDIT:TonyAkita;
#NOTES:
0000
0000
0000
0000
,
0000
0000
0000
0000
,
0000
0000
0000
0000
,
2000
0000
0000
0000
,
3020
0000
0000
0000
,
0230
0000
0000
0000
,
0302
0000
0000
0000
,
1003
0000
0000
1000
0000
0000
0001
0000
,
0100
0000
0000
0100
0000
0000
0010
0000
,
1000
0000
0000
1000
0000
0000
0001
0000
,
0001
0010
0100
1000
,
0001
0100
1000
0100
,
0001
0000
1000
0000
0100
0010
0001
0000
,
1000
0010
0001
0010
,
1000
1010
0001
0011
,
0220
0000
0000
0000
,
0000
0000
0000
0330
,
1100
0000
0101
0000
1000
0100
0001
0000
,
0101
0000
1100
0000
0001
0100
1000
0000
,
0101
0000
1001
0000
1000
0100
0010
0000
,
0011
0000
1001
0000
0001
0100
0010
0000
,
1010
0000
0011
0000
1000
0010
0001
0000
,
0011
0000
1010
0000
0001
0010
1000
0000
,
0010
0010
0010
0000
0100
0100
0100
0000
,
1000
1000
1000
0000
0001
0001
0001
0000
,
2000
0010
0010
0010
,
3020
0100
0100
0100
,
0230
0001
0001
0001
,
0302
1000
1000
1003
,
0001
0100
0010
0100
,
0001
1000
0100
0010
,
0001
1000
0100
0010
,
0100
1000
0001
1000
,
2002
0000
0000
3003
,
1000
1000
0001
0001
,
0010
0010
0001
0001
,
1000
0000
1000
0000
0001
0100
0010
1000
,
0010
0010
1000
1000
,
0010
0010
0001
0001
,
0010
0010
0100
0100
,
0001
0001
1000
1000
,
0001
0110
1000
0110
,
0001
1001
0100
1001
,
1000
0110
0001
0110
,
1000
1001
0010
1001
,
0001
0101
0001
0011
,
0010
1001
0100
1001
,
1000
1010
1000
1100
,
0100
1001
0010
1001
,
0002
0010
0000
0010
,
0023
0100
0000
0100
,
0230
1000
0000
1000
,
2300
0001
0000
0001
,
3001
0100
1000
0100
,
0001
0000
1000
0000
0100
0010
0001
0000
,
1000
0010
0001
0010
,
1000
1010
0001
0011
,
0220
0000
0000
0000
,
0000
0000
0000
0330
,
1100
0000
0101
0000
1000
0100
0001
0000
,
0101
0000
1100
0000
0001
0100
1000
0000
,
0101
0000
1001
0000
1000
0100
0010
0000
,
0011
0000
1001
0000
0001
0100
0010
0000
,
1010
0000
0011
0000
1000
0010
0001
0000
,
0011
0000
1010
0000
0001
0010
1000
0000
,
0010
0010
0010
0000
0100
0100
0100
0000
,
1000
1000
1000
0000
0001
0001
0001
0000
,
2000
0010
0010
0010
,
3020
0100
0100
0100
,
0230
0001
0001
0001
,
0302
1000
1000
1003
,
0001
0100
0010
0100
,
0001
1000
0100
0010
,
0001
1000
0100
0010
,
0100
1000
0001
1000
,
0001
0000
0010
0000
0001
0100
0010
0000
,
1000
0000
0010
0000
1000
0100
0010
0000
,
0001
0000
1000
0000
0100
0010
0001
0000
,
1000
0000
0001
0000
0100
0010
1000
0000
,
0002
0010
0010
0010
,
0023
0100
0100
0100
,
0230
1000
1000
1300
,
2002
0000
0000
3003
,
0110
0000
0000
0000
;

//---------------dance-single - ----------------
#NOTEDATA:;
#CHARTNAME:;
#STEPSTYPE:dance-single;
#DESCRIPTION:;
#CHARTSTYLE:;
#DIFFICULTY:Easy;
#METER:5;
#RADARVALUES:0.209373,0.300773,0.056370,0.185215,0.000000,182.000000,175.000000,7.000000,23.000000,0.000000,0.000000,0.000000,0.000000,0.000000,0.209373,0.300773,0.056370,0.185215,0.000000,182.000000,175.000000,7.000000,23.000000,0.000000,0.000000,0.000000,0.000000,0.000000;
#CREDIT:TonyAkita;
#NOTES:
0000
0000
0000
0000
,
0000
0000
0000
0000
,
0000
0000
0000
0000
,
2000
0000
0000
0000
,
3020
0000
0000
0000
,
0230
0000
0000
0000
,
0302
0000
0000
0000
,
1003
0000
0000
0100
,
0010
0000
0000
0001
,
1000
0000
0000
0010
,
0100
0000
0001
0000
,
1000
0000
0100
0000
,
0001
0000
0100
0000
,
0010
0000
0001
0000
,
1000
0010
0100
0001
,
2002
0000
0000
0000
,
0000
0000
0000
3003
,
1010
0000
1000
0010
,
1000
0000
0001
0010
,
0001
0000
1000
0100
,
0010
0000
0001
0010
,
0100
0000
1000
0100
,
1000
0000
0001
0100
,
0001
0000
0001
0000
,
1000
0000
1000
0000
,
1001
0000
0000
0000
,
2000
0000
0000
0000
,
3020
0000
0000
0000
,
0230
0000
0000
0000
,
0301
0000
0100
0100
,
0010
0000
0100
0100
,
0001
0000
0010
0010
,
0100
0000
1000
1000
,
2000
0000
0000
3000
,
1000
0000
1000
0000
,
0001
0000
0001
0000
,
0010
0000
0100
1000
,
0100
0000
0001
0000
,
0100
0000
1000
0000
,
0010
0000
0001
0000
,
0010
0000
1000
0000
,
0001
0010
0001
0010
,
0100
1000
0100
1000
,
0010
1000
0010
1000
,
0001
0100
0001
0100
,
0010
1000
0010
0100
,
0010
1000
0001
0100
,
0001
0010
0001
0100
,
0001
0010
0100
1000
,
2000
0000
0000
0000
,
3020
0000
0000
0000
,
0230
0000
0000
0000
,
0302
0000
0000
0000
,
1003
0000
0100
0000
,
0001
0000
0100
0000
,
0010
0000
0001
0000
,
1000
0010
0100
0001
,
2002
0000
0000
0000
,
0000
0000
0000
3003
,
0011
0000
0001
0010
,
0001
0000
1000
0010
,
1000
0000
0001
0100
,
0010
0000
1000
0010
,
0100
0000
0001
0100
,
0001
0000
1000
0100
,
1000
0000
1000
0000
,
0001
0000
0001
0000
,
1001
0000
0000
0000
,
2000
0000
0000
0000
,
3020
0000
0000
0000
,
0230
0000
0000
0000
,
0301
0000
0100
0100
,
0010
0000
0100
0100
,
0001
0000
0010
0010
,
0100
0000
1000
1000
,
1000
0000
0010
0000
,
1000
0000
0100
0000
,
0010
0000
0001
0000
,
0010
0000
0100
0000
,
2000
0000
0000
0000
,
3020
0000
0000
0000
,
0230
0000
0000
0000
,
0302
0000
0000
0003
,
1001
0000
0000
0000
;

//---------------dance-single - ----------------
#NOTEDATA:;
#CHARTNAME:;
#STEPSTYPE:dance-single;
#DESCRIPTION:;
#CHARTSTYLE:;
#DIFFICULTY:Beginner;
#METER:3;
#RADARVALUES:0.169109,0.233935,0.048317,0.096634,0.000000,147.000000,141.000000,6.000000,12.000000,0.000000,0.000000,0.000000,0.000000,0.000000,0.169109,0.233935,0.048317,0.096634,0.000000,147.000000,141.000000,6.000000,12.000000,0.000000,0.000000,0.000000,0.000000,0.000000;
#CREDIT:TonyAkita;
#NOTES:
0000
0000
0000
0000
,
0000
0000
0000
0000
,
0000
0000
0000
0000
,
2000
0000
0000
0000
,
3000
0000
0000
0000
,
0002
0000
0000
0000
,
0003
0000
0000
0000
,
1000
0000
0000
0000
,
0010
0000
0000
0000
,
0100
0000
0000
0000
,
0001
0000
0001
0000
,
1000
0000
0100
0000
,
0001
0000
0100
0000
,
1000
0000
0010
0000
,
0100
0100
0100
0000
,
2002
0000
0000
3003
,
0000
0000
0000
0000
,
1000
1000
1000
0000
,
0001
0001
0001
0000
,
0010
0010
0010
0000
,
0100
0100
0100
0000
,
1000
1000
1000
0000
,
0001
0001
0001
0000
,
0100
0000
1000
0000
,
0100
0000
0001
0000
,
1001
0000
0000
0000
,
1000
0000
0000
0000
,
0010
0000
0000
0000
,
1000
0000
0000
0000
,
0001
0000
0000
0100
,
0100
0000
0000
0010
,
0010
0000
0000
0100
,
0100
0000
0000
0000
,
2002
0000
0000
3003
,
0000
0000
0000
0000
,
1000
0000
1000
0000
,
1000
0000
0001
0001
,
0001
0000
0100
0000
,
0100
0000
0010
0000
,
0010
0000
0100
0000
,
0100
0000
0001
0000
,
0010
0000
1000
0000
,
0010
0000
0001
0000
,
1000
0000
0100
0000
,
0001
0000
0100
0000
,
1000
1000
1000
0000
,
0001
0001
0001
0000
,
0100
0100
0100
0000
,
0010
0010
0010
0000
,
2000
0000
0000
0000
,
3000
0000
0000
0000
,
0002
0000
0000
0000
,
0003
0000
0000
0000
,
0001
0000
0100
0000
,
1000
0000
0100
0000
,
0001
0000
0010
0000
,
0100
0100
0100
0000
,
2002
0000
0000
3003
,
0000
0000
0000
0000
,
0001
0001
0001
0000
,
1000
1000
1000
0000
,
0010
0010
0010
0000
,
0100
0100
0100
0000
,
0001
0001
0001
0000
,
1000
1000
1000
0000
,
0100
0000
0001
0000
,
0100
0000
1000
0000
,
1001
0000
0000
0000
,
0001
0000
0000
0000
,
0010
0000
0000
0000
,
0001
0000
0000
0000
,
1000
0000
0000
0100
,
0100
0000
0000
0010
,
0010
0000
0000
0100
,
0100
0000
0000
1000
,
1000
0000
0010
0000
,
1000
0000
0100
0000
,
0001
0000
0100
0000
,
1000
0000
0100
0000
,
0020
0000
0000
0030
,
0000
0000
0000
0000
,
0200
0000
0000
0300
,
0000
0000
0000
0000
,
1001
0000
0000
0000
;

//---------------dance-single - ----------------
#NOTEDATA:;
#CHARTNAME:;
#STEPSTYPE:dance-single;
#DESCRIPTION:;
#CHARTSTYLE:;
#DIFFICULTY:Hard;
#METER:13;
#RADARVALUES:0.632722,0.802062,0.193268,0.193268,0.575777,550.000000,526.000000,24.000000,24.000000,0.000000,0.000000,0.000000,0.000000,0.000000,0.632722,0.802062,0.193268,0.193268,0.575777,550.000000,526.000000,24.000000,24.000000,0.000000,0.000000,0.000000,0.000000,0.000000;
#CREDIT:TonyAkita;
#NOTES:
// measure 0
0000
0000
0000
0000
,  // measure 1
0000
0000
0000
0000
,  // measure 2
0000
0000
0000
0000
,  // measure 3
2001
0000
0000
0000
,  // measure 4
3020
0000
0000
0000
,  // measure 5
0230
0000
0000
0000
,  // measure 6
0302
0000
0000
0003
,  // measure 7
0020
0000
0000
0130
0000
0000
1000
0000
,  // measure 8
0002
0000
0000
0103
0000
0000
0010
0000
,  // measure 9
2000
0000
0000
3100
0000
0000
0010
0000
,  // measure 10
0001
1000
0010
0100
,  // measure 11
0001
0100
0001
0000
1000
0000
0001
0000
1000
0100
1000
0000
0100
0000
0010
0000
,  // measure 12
0001
0010
0001
0000
1000
0000
0001
0000
1000
0010
0100
0000
0110
0000
0000
0000
,  // measure 13
0001
1000
0100
0000
0001
0000
0100
0000
1000
0100
0010
0000
0001
0000
1000
0000
,  // measure 14
0001
0100
0001
0000
1000
0100
1000
0000
0001
0010
0001
0000
1000
0010
1000
0000
,  // measure 15
2002
0000
0000
0000
,  // measure 16
0000
0000
0000
3003
,  // measure 17
1010
0000
0000
0000
1000
0001
0000
0001
0010
0000
0100
0000
0010
0000
0001
0000
,  // measure 18
0011
0000
0000
0000
0100
1000
0000
1000
0001
0000
0100
0000
0010
0000
1000
0000
,  // measure 19
1010
0000
0000
0000
0001
1000
0000
1000
0100
0000
0001
0000
0100
0000
1000
0000
,  // measure 20
1100
0000
0000
0000
1000
0001
0000
0001
0100
0000
1000
0000
0100
0000
0001
0000
,  // measure 21
0101
0000
0000
0000
0001
1000
0000
1000
0010
0000
0100
0000
0010
0000
1000
0000
,  // measure 22
1010
0000
0000
0000
0100
0001
0000
0001
1000
0000
0100
0000
0010
0000
0001
0000
,  // measure 23
1000
0010
1000
0010
1000
0000
0000
0000
0001
0100
0001
0100
0001
0000
0000
0000
,  // measure 24
0010
0001
0010
0001
0010
0000
0000
0000
0100
0010
0100
0010
0100
0000
0000
0000
,  // measure 25
1000
0000
0000
1000
0010
0000
0000
0010
0001
0000
0000
0001
0010
0000
0000
0010
,  // measure 26
1000
0000
0000
1000
0100
0000
0000
0100
1000
0000
0000
1000
0010
0000
0000
0010
,  // measure 27
0100
0000
0000
0100
0001
0000
0000
0001
0010
0000
0000
0010
0100
0000
0000
0100
,  // measure 28
1000
0000
0000
1000
0010
0000
0000
0010
0100
0000
0000
0100
0001
0000
0000
0001
,  // measure 29
0200
0000
0000
1000
0000
0000
0010
0000
,  // measure 30
0302
0000
0000
0100
0000
0000
1000
0000
,  // measure 31
0023
0000
0000
0001
0000
0000
1000
0000
,  // measure 32
0230
0000
0000
0010
0000
0000
1300
0000
,  // measure 33
1001
0000
0000
1000
0000
0000
1000
0000
0001
0000
0000
0001
0000
0000
0001
0000
,  // measure 34
0010
0000
0000
0010
0000
0000
0010
0000
0001
0000
0000
0001
0000
0000
0001
0000
,  // measure 35
0100
0000
0000
0100
0000
0000
0100
0000
0010
0000
0000
0010
0000
0000
0010
0000
,  // measure 36
1000
0000
0000
1000
0000
0000
1000
0000
0001
0000
0010
0000
0100
0000
1000
0000
,  // measure 37
0001
0000
0000
0010
0000
0000
1000
0000
0010
0000
0000
0100
0000
0000
0010
0000
,  // measure 38
0100
0000
0000
1000
0000
0000
0010
0000
0100
0000
0000
0001
0000
0000
0100
0000
,  // measure 39
1000
0000
0000
0100
0000
0000
0001
0000
1000
0000
0000
0100
0000
0000
0010
0000
,  // measure 40
0001
0000
0000
1000
0000
0000
0010
0000
0100
0000
0000
0001
0000
0000
1000
0000
,  // measure 41
0001
0100
0000
0001
0010
0000
0100
0000
1000
0100
0000
1000
0010
0000
1000
0000
,  // measure 42
0001
1000
0000
0001
0100
0000
0010
0000
1000
0001
0000
1000
0100
0000
0010
0000
,  // measure 43
0100
1000
0000
0100
0010
0000
0001
0000
0100
0001
0000
0100
0010
0000
1000
0000
,  // measure 44
0001
0010
0000
1000
0010
0000
0100
0000
1000
0100
0000
0001
0100
0000
1000
0000
,  // measure 45
0001
0100
0000
0010
1000
0000
0010
0000
0100
0001
0000
1000
0100
0000
0010
0000
,  // measure 46
0001
1000
0000
0010
0001
0000
0010
0000
0100
1000
0000
0100
0001
0000
1000
0000
,  // measure 47
0001
0010
0000
0100
1000
0000
0010
0000
0100
0001
0000
1000
0100
0000
0010
0000
,  // measure 48
0001
0010
0000
1000
0010
0000
0001
0000
0010
0100
0000
1000
0001
0000
1000
0000
,  // measure 49
1001
0000
0000
0000
1000
0000
0010
0000
0000
0100
0001
0000
1000
0000
0100
0000
,  // measure 50
0001
0000
0000
0000
0100
0000
0010
0000
0000
0100
1000
0000
1100
0000
0000
0000
,  // measure 51
1001
0000
0000
0000
0001
0000
0100
0000
0000
0010
1000
0000
0001
0000
0010
0000
,  // measure 52
1000
0000
0000
0000
0010
0000
0100
0000
0000
0010
0001
0000
0011
0000
0000
0000
,  // measure 53
1000
0010
1000
0000
0001
0000
1000
0000
0001
0010
0001
0000
0010
0000
0100
0000
,  // measure 54
1000
0100
1000
0000
0001
0000
1000
0000
0001
0100
0010
0000
0110
0000
0000
0000
,  // measure 55
1000
0001
0010
0000
1000
0000
0010
0000
0001
0010
0100
0000
1000
0000
0001
0000
,  // measure 56
1000
0010
1000
0000
0001
0010
0001
0000
1000
0100
1000
0000
0001
0100
0001
0000
,  // measure 57
2002
0000
0000
0000
,  // measure 58
0000
0000
0000
3003
,  // measure 59
0011
0000
0000
0000
0001
1000
0000
1000
0010
0000
0100
0000
0010
0000
1000
0000
,  // measure 60
1010
0000
0000
0000
0100
0001
0000
0001
1000
0000
0100
0000
0010
0000
0001
0000
,  // measure 61
0011
0000
0000
0000
1000
0001
0000
0001
0100
0000
1000
0000
0100
0000
0001
0000
,  // measure 62
0101
0000
0000
0000
0001
1000
0000
1000
0100
0000
0001
0000
0100
0000
1000
0000
,  // measure 63
1100
0000
0000
0000
1000
0001
0000
0001
0010
0000
0100
0000
0010
0000
0001
0000
,  // measure 64
0011
0000
0000
0000
0100
1000
0000
1000
0001
0000
0100
0000
0010
0000
1000
0000
,  // measure 65
0001
0010
0001
0010
0001
0000
0000
0000
1000
0100
1000
0100
1000
0000
0000
0000
,  // measure 66
0010
1000
0010
1000
0010
0000
0000
0000
0100
0010
0100
0010
0100
0000
0000
0000
,  // measure 67
0001
0000
0000
0001
0010
0000
0000
0010
1000
0000
0000
1000
0010
0000
0000
0010
,  // measure 68
0001
0000
0000
0001
0100
0000
0000
0100
0001
0000
0000
0001
0010
0000
0000
0010
,  // measure 69
0100
0000
0000
0100
1000
0000
0000
1000
0010
0000
0000
0010
0100
0000
0000
0100
,  // measure 70
0001
0000
0000
0001
0010
0000
0000
0010
0100
0000
0000
0100
1000
0000
0000
1000
,  // measure 71
0200
0000
0000
0001
0000
0000
0010
0000
,  // measure 72
2300
0000
0000
0100
0000
0000
0001
0000
,  // measure 73
3020
0000
0000
1000
0000
0000
0001
0000
,  // measure 74
0230
0000
0000
0010
0000
0000
0301
0000
,  // measure 75
1000
0100
0001
0100
1000
0100
0010
0000
,  // measure 76
0001
0100
1000
0100
0001
0100
0010
0000
,  // measure 77
1000
0010
0100
0001
1000
0100
0001
0100
,  // measure 78
1000
0001
0010
0100
1000
0001
1000
0000
,  // measure 79
0002
0010
0000
0010
0000
0010
0003
0001
,  // measure 80
2000
0100
0000
0100
0000
0100
3000
1000
,  // measure 81
0020
0100
0000
0100
0000
0100
0030
0100
,  // measure 82
2002
0000
0000
3003
,  // measure 83
0110
0000
0000
0000
;
