#TITLE:ドッキン☆サマーあばんちゅーる;
#SUBTITLE:;
#ARTIST:L.E.D.-G + Qrispy Joybox + ARM feat. ななひら;
#TITLETRANSLIT:Dokkin summer vanture;
#SUBTITLETRANSLIT:;
#ARTISTTRANSLIT:L.E.D.-G + Qrispy Joybox + ARM feat. nanahira;
#GENRE:ドタバタ☆夏休み;
#CREDIT:;
#MUSIC:Dokkin summer aventure.ogg;
#BANNER:Dokkin summer aventure.png;
#BACKGROUND:Dokkin summer aventure-bg.png;
#CDTITLE:;
#SAMPLESTART:80.663;
#SAMPLELENGTH:15.000;
#SELECTABLE:YES;
#OFFSET:1.315;
#BPMS:0.000=180.000;
#STOPS:;
#DISPLAYBPM:180.000;
#BGCHANGES:0.325=Dokkin summer aventure.avi=1.000=0=0=1,
99999.000=-nosongbg-=1.000=0=0=0=StretchNoLoop====
;
#FGCHANGES:;

//--------------- dance-single - forcednature ----------------
#NOTES:
     dance-single:
     forcednature:
     Beginner:
     4:
     0,0,0,0,0:
0000
0000
0000
0000
,
0000
0000
0000
0000
,
0000
0000
0000
0000
,
0000
0000
0000
0000
,
0000
0000
0000
0000
,
0000
0000
0000
0000
,
1001
0000
0000
0000
,
0100
0000
0100
0000
,
1001
0000
1001
0000
,
0100
0100
0100
0100
,
0010
0000
0010
0000
,
0001
0000
0000
0000
,
0100
0000
0100
0000
,
1000
0000
0000
0000
,
0110
0000
0000
0000
,
1001
0000
0000
0000
,
0100
0000
0100
0000
,
0000
0000
1001
0000
,
0000
1000
0000
1000
,
0000
0001
0000
0001
,
0000
0100
0000
0010
,
0000
0100
0000
0010
,
0000
1000
0000
1000
,
0000
0001
0000
0001
,
0010
0000
0100
0000
,
1000
0000
1001
0000
,
0000
0100
0000
0100
,
0000
0010
0000
0010
,
0000
1000
0000
0001
,
0000
1000
0000
0001
,
0000
0010
0000
0010
,
0000
0100
0000
0100
,
1000
0000
0001
0000
,
0100
0000
0000
0000
,
0000
0000
0000
0000
,
0000
0000
0000
0000
,
0010
0000
0010
0000
,
2002
0000
0000
0000
0000
3003
0000
0000
,
1001
0000
0000
0000
,
1001
0000
0000
0000
,
1000
0001
1000
0001
,
0100
0100
0100
0000
,
1000
0000
1000
0000
,
0001
0000
0100
0100
,
0001
0000
0001
0000
,
0010
0010
0010
0000
,
0100
0000
1000
0000
,
0010
0010
0010
0000
,
1000
0000
0001
0000
,
0100
0100
0100
0000
,
0001
0000
1000
0000
,
0100
0100
0100
0000
,
1000
0000
0001
0000
,
0010
0010
0010
0000
,
0001
0001
1000
1000
,
0010
0010
0010
0000
,
1001
0000
0110
0000
,
1001
1001
1001
1001
,
0100
0000
0000
0000
,
0010
0000
0000
0000
,
1000
0001
1000
0001
,
1000
0000
0000
0000
,
0000
0010
0000
0010
,
0000
0100
0000
0001
,
0000
1000
0000
0010
,
0000
1000
0000
0100
,
0110
0000
0000
0000
,
1001
0000
0000
0000
,
1000
0000
0001
0000
,
0100
0000
0000
0000
,
0000
0010
0000
0010
,
0000
1000
0000
0001
,
0000
0010
0000
0100
,
0000
1000
0000
0001
,
1001
0000
0000
0000
,
0110
0000
0000
0000
,
2002
0000
0000
3003
0000
0000
0000
0000
,
0000
0000
0000
0000
,
2002
0000
0000
3003
0000
0000
0000
0000
,
0000
0000
0000
0000
,
1000
0000
0001
0000
,
0100
0000
0010
0000
,
1000
1000
1000
0000
,
0001
0001
0001
0000
,
1001
0000
0000
0000
,
0110
0000
0000
0000
,
0010
0000
0010
0000
,
0000
0000
1001
0000
,
0100
0000
0000
0100
0000
0000
0100
0000
,
0000
2002
0000
0000
,
0000
0000
3003
0000
;

//--------------- dance-single - forcednature ----------------
#NOTES:
     dance-single:
     forcednature:
     Easy:
     7:
     0,0,0,0,0:
0000
0000
0000
0000
,
0000
0000
0000
0000
,
0000
0000
0000
0000
,
0000
0000
0000
0000
,
0000
0000
0000
0000
,
0000
0000
0000
0000
,
1001
0001
0100
0000
,
0010
1000
0001
0010
,
1001
0000
0110
0000
,
1000
0001
0100
0010
,
1001
0100
1000
0001
,
1000
0010
0100
0001
,
0000
0010
0010
0000
0100
0000
1000
0000
,
0001
0000
0100
0000
0001
1000
0001
0000
,
0101
0000
0000
1010
0000
0000
0000
0000
,
1100
0000
0000
0011
0000
0000
0000
1001
,
0000
0000
0000
0110
0000
0000
0000
1001
,
0000
0000
0100
0000
0000
0100
0000
0000
0200
0000
0000
0000
0300
0000
0000
0000
,
0001
0100
0010
1000
,
0001
1000
0100
1000
,
0010
0100
0001
0010
,
0100
0010
0001
1000
,
1001
0001
0100
0010
,
1000
0100
1000
0010
,
0110
0000
0000
1001
0000
0000
0110
0000
,
0000
1001
0000
0000
0220
0000
0330
0000
,
2000
3000
0002
0003
,
1000
0100
1000
0010
,
0100
0001
0010
0100
,
0010
0010
0100
0100
,
2002
3003
0200
0300
,
2002
3003
0020
0030
,
1000
0001
0100
0020
,
0030
1000
2002
0000
,
3003
0000
0000
0000
,
0000
0000
0000
0000
,
0100
0000
0100
0000
,
0200
0000
0000
0000
0000
0300
0000
0000
,
1001
0000
0100
0000
,
0110
0010
0010
0000
,
1001
0100
1000
0010
,
0001
0001
0001
0000
,
1001
0000
0110
0000
,
1000
0100
1000
0010
,
1001
1000
0110
0010
,
1000
0001
0100
0010
,
1001
0001
0100
0001
,
1000
0001
1001
0000
,
0110
1000
0100
0001
,
0010
0100
0110
0000
,
1001
0100
0010
0000
,
1001
1001
1001
0000
,
0110
1000
0001
0000
,
0110
0110
0110
0000
,
1001
0000
0110
0000
,
1001
1001
1001
0000
,
0110
0110
1001
1001
,
0110
1001
0110
1001
,
0100
0000
0000
0000
,
0100
0000
0000
0000
,
0010
1000
0001
0100
,
0010
0000
0000
0000
,
1000
1000
0000
0001
,
0100
0001
0000
0001
,
1000
0010
0000
1000
,
0100
0010
0100
0010
,
0001
0000
0000
1001
0000
0000
0000
0000
,
1000
0000
0000
1001
0000
0000
0000
0000
,
0010
0100
0001
1000
,
0100
0010
0100
0000
,
0010
0001
0000
0010
,
1000
0001
0000
0010
,
0100
1000
0000
0100
,
0010
1000
0001
0010
,
0001
0000
0000
0110
0000
0000
0000
0000
,
1000
0000
0000
0110
0000
0000
0000
0000
,
2002
0000
0000
3003
0000
0000
0000
0000
,
0000
0000
0000
0000
0000
0100
0100
0000
,
2002
0000
0000
3003
0000
0000
0000
0000
,
0000
0000
0000
0000
0000
0010
0010
0000
,
1001
0001
0100
0001
,
1000
0100
1000
0010
,
0000
0100
0100
0000
0010
0000
1000
0000
,
0001
0010
0100
1000
,
0010
0000
0000
1001
0000
0000
0000
0000
,
0100
0000
0000
1001
0000
0000
0000
1001
,
0000
0000
0000
0110
0000
0000
0000
1001
,
0000
0000
0010
0000
0000
0010
0000
0000
0020
0000
0000
0000
0030
0000
0000
0000
,
0100
0000
0000
0010
0000
0000
0110
0000
,
0000
2002
0000
0000
,
0000
0000
3003
0000
;

//--------------- dance-single - forcednature ----------------
#NOTES:
     dance-single:
     forcednature:
     Medium:
     9:
     0,0,0,0,0:
0000
0000
0000
0000
,
0000
0000
0000
0000
,
0000
0000
0000
0000
,
0000
0000
0000
0000
,
0000
0000
0000
0000
,
0000
0000
0000
0000
,
1001
0001
0100
0000
,
0010
1000
0100
0010
,
1001
0000
0110
0000
,
1001
0110
1001
0110
,
1000
0000
0001
0000
0100
0001
0010
0000
,
0100
1000
0001
1000
,
0000
0000
0010
0000
0100
0000
0000
0000
0001
0000
0000
1000
0000
0000
0001
0000
,
1000
0000
0000
0100
0000
0000
1000
0000
0010
0000
0010
0000
0010
0000
0000
0000
,
0110
0000
0000
1001
0000
0000
0100
0000
,
0011
0000
0000
1010
0000
0000
0001
2000
,
0000
3000
1000
0002
0000
0003
0010
0200
,
0300
0000
1000
0000
0000
0001
0000
0000
2002
0000
0000
0000
3003
0000
0000
0000
,
0001
0000
0100
0000
0001
0100
1000
0000
,
1000
0000
0100
0000
1000
0100
0001
0000
,
1000
0000
1000
0000
0001
0100
0010
1000
,
0100
0000
0010
0000
0001
1000
0010
1000
,
0001
0000
0010
0000
0001
0010
1000
0000
,
1000
0000
0010
0000
1000
0010
0001
0000
,
0001
0100
0000
0001
0010
0000
0100
1000
,
0000
0010
1000
0000
2002
0000
3003
0000
,
1000
0100
1000
0010
,
0100
0000
0001
0000
0010
0100
0010
0000
,
0001
1000
0001
0100
,
0010
1000
0010
0000
0100
0001
0100
0000
,
1001
0100
1000
0010
,
1001
0000
0001
0100
0001
0000
0010
0000
,
0110
0000
0100
0000
1000
0001
1000
0002
,
0000
0100
0100
0103
,
0000
0000
0000
0000
,
0000
0000
0000
0000
,
0100
0000
0100
0000
,
0200
0000
0000
0000
0000
0300
0000
0000
,
1001
0001
1000
0000
,
0110
0100
0010
0000
,
1001
0100
1001
0010
,
1001
1001
1001
0000
,
0101
0100
1100
0100
,
0010
0000
0000
1000
0000
0000
0001
0000
0000
0010
0000
0010
,
0100
1000
0001
0100
,
1001
0000
0000
0110
0000
0000
0001
0000
0001
1000
0000
1000
,
0001
0010
0100
1000
,
0010
0000
0000
0010
0000
0000
0100
0000
0000
0001
0000
0001
,
1000
0100
0110
1001
,
0100
0100
2002
3003
,
0001
0100
1000
0100
,
0110
1001
0220
0330
,
1000
0100
0001
0100
,
0110
0000
0000
1001
0000
0000
0100
0000
0100
0000
0100
0000
,
1000
0101
1000
0101
,
0001
0000
1000
0100
0000
1000
0200
0000
0000
0300
0000
0000
,
1000
0000
1000
0001
0000
0001
1000
0000
0000
0010
0000
0000
,
0100
0000
0000
0001
0000
0000
0010
0000
0010
0000
0010
0000
,
1001
0000
0000
0000
,
0110
0000
0000
0000
,
1000
0100
0001
0010
,
1001
0000
0000
0000
1000
0000
0001
1000
,
0001
0000
0100
0000
0010
1000
0010
1000
,
0010
0100
0001
0010
,
0100
0000
1000
0000
0001
0100
0001
0100
,
0001
1000
0100
0010
,
1001
0000
0000
0110
0000
0000
1000
0000
,
0110
0000
0000
1001
0000
0000
0001
0000
,
0101
0100
0100
0100
,
0010
1000
0010
0000
0100
0001
0100
0000
,
1001
0000
0001
0000
1000
0100
1000
0100
,
1000
0010
0100
0001
,
1000
0000
0010
0000
1000
0001
1000
0001
,
1000
0010
0100
0001
,
0110
0000
0000
1001
0000
0000
0100
0000
,
1001
0000
0000
0110
0000
0000
0001
0000
,
1100
0001
0001
0000
,
0100
0000
0100
0000
0001
0010
0001
0010
,
0001
0100
0010
0000
,
1000
0000
0001
0000
1000
0010
1000
0010
,
1000
0000
0100
0000
1000
0001
1000
0000
,
0010
0000
0100
0000
0001
0010
0001
0010
,
0000
0000
0100
0000
1000
0000
0000
0000
0001
0000
0000
1000
0000
0000
0001
0000
,
0100
0000
0000
0010
0000
0000
0100
0000
0001
0000
0001
0000
0001
0000
0000
0000
,
1001
0000
0000
0110
0000
0000
1000
0000
,
0110
0000
0000
1001
0000
0000
0100
0020
,
0000
0030
0010
0200
0000
0300
0100
0020
,
0030
0000
0001
0000
0000
1000
0000
0000
2002
0000
0000
0000
3003
0000
0000
0000
,
2002
3003
0000
0220
0330
0000
2002
0000
,
3003
2002
0000
0000
,
0000
0000
3003
0000
;

//--------------- dance-single - forcednature ----------------
#NOTES:
     dance-single:
     forcednature:
     Hard:
     14:
     0,0,0,0,0:
0000
0000
0000
0000
,
0000
0000
0000
0000
,
0000
0000
0000
0000
,
0000
0000
0000
0000
,
0000
0000
0000
0000
,
0000
0000
0000
0000
,
1002
0100
2003
0000
,
3020
0000
0100
0000
0230
0001
0301
0001
,
1001
0000
0110
0000
,
1001
0000
1100
0000
0011
0000
0001
1000
,
0001
0000
0010
0100
0000
1000
0001
1000
,
0000
0010
0100
0001
0010
0001
1000
0100
,
0000
0000
0010
0001
0010
0001
0010
0000
0100
0000
0000
1000
0000
0000
0001
0000
,
0100
0000
0000
0010
0000
0000
0100
0000
0001
0000
0001
0000
1000
0000
1000
0000
,
0001
0000
0100
0001
0100
0000
0001
0000
0000
0000
1000
0000
0010
0000
0000
0000
,
1000
0000
0100
1000
0100
0000
1000
0000
0000
0000
0001
0000
1000
0000
0020
0000
,
0000
0130
0001
0020
0000
0130
1000
0002
,
0003
0000
0100
0000
0000
0010
0000
0000
2002
0000
0000
0000
3003
0000
1100
0000
,
0000
1000
0001
0100
0010
1000
0000
1001
,
0000
0001
0010
0100
1000
0010
0000
0110
,
0000
0100
0010
0100
0001
1000
0100
0010
,
0000
0001
1000
0010
1000
0001
0010
0110
,
0000
1000
0001
1000
0010
0100
0000
0102
,
0000
0000
0013
0100
1000
0000
0001
0000
,
1000
0100
0000
0001
0100
0000
1000
0010
,
0000
0001
0010
0000
2002
0000
3003
0000
,
2000
0000
0100
0000
3002
0000
1000
0020
,
0000
0033
2000
3200
,
0301
0100
0010
1000
,
0010
0001
0000
0100
0000
0010
1000
0010
,
0110
0000
1000
0000
0001
0010
0100
0000
,
1100
0000
0100
0000
0010
0001
0001
0001
,
1001
0000
0110
0000
1000
0100
0010
0002
,
0000
1000
1000
1000
2003
0000
3100
0000
,
0020
0030
0000
0000
,
0000
0000
0000
0000
,
1001
0000
0110
0000
,
2002
0000
0000
0000
0000
3003
0000
0000
,
1100
0000
1000
0001
0000
0001
0100
0000
0100
0010
0000
0000
,
1001
0000
1000
0100
0000
0100
0020
0000
0000
0030
0000
0000
,
0110
0000
0000
0001
0000
0001
0010
0000
0000
0100
1000
0100
,
1000
0010
0100
0001
0010
0100
2000
0000
0000
3001
0000
0000
,
1100
1010
1001
0101
,
0011
0000
0000
0001
0100
0010
1000
0000
0000
0001
0000
0001
,
1000
1100
0011
1001
,
0001
1000
0001
1000
0100
0010
0001
0000
0001
0100
0000
0100
,
0001
0000
0010
0100
0000
1000
0001
0000
1000
0010
0000
0100
,
0001
0000
1000
0100
0010
0001
0100
0010
1000
0001
0000
0001
,
0100
0000
0100
0010
0000
0010
1000
0100
1000
0001
0100
0001
,
1000
0001
1000
0001
1000
0001
0100
0000
0000
0110
0000
0000
,
1001
0000
1000
0100
0000
0100
0001
0000
0001
0100
0000
0000
,
0110
1001
0220
0330
,
1001
0000
0001
0100
0000
0100
1000
0000
1000
0100
0000
0000
,
0110
0000
0000
1001
0000
0000
0001
0000
0001
0000
0001
1000
,
0001
0000
0100
0001
0000
0000
1000
0000
0100
1000
0000
1000
,
0001
0000
1000
0001
0000
0100
0020
0000
0000
1030
0000
1000
,
0010
0000
0010
0001
0000
0001
0010
0100
0001
1000
0100
0010
,
0001
1000
0010
0100
0001
0100
1000
0000
0100
0000
0010
0000
,
2002
0000
3003
0001
0100
0000
1000
0000
,
0110
0000
1000
0001
1000
0000
0100
0010
,
0110
0101
0110
1100
,
2002
3003
0000
0000
1000
0000
0001
0100
,
0010
0000
1000
0001
0000
0100
1000
0100
,
0001
0000
0100
0010
0000
1000
0001
1000
,
0100
0000
1000
0010
0000
0100
0001
1000
,
0200
0000
0302
0000
0203
0000
1300
0001
,
1001
0000
1000
0010
0000
0100
0001
0000
,
0110
0000
1000
0001
0000
0010
0100
1000
,
0100
0001
0100
1000
0100
0010
0001
1000
,
1001
0000
1000
0001
0100
0100
0010
0000
,
1001
0000
0001
0100
0000
0010
0001
0010
,
1000
0000
0100
1000
0000
0001
0100
0001
,
1000
0000
0100
0010
0000
0001
1000
0010
,
0200
0000
2300
0000
3100
0010
1000
0001
,
1001
0000
1000
0010
0000
0001
0010
0000
,
2001
0000
3001
1000
0200
0000
0310
0000
,
0110
0000
1000
0000
0001
0100
0000
0000
,
0010
1000
0000
0001
0000
0010
0010
0010
,
0110
0000
0100
0000
1000
0001
0000
0000
,
0100
0010
0000
1000
0000
0100
0100
0100
,
0110
0000
1000
0001
0000
1000
0001
0100
,
0000
0010
1000
0001
0010
0100
1000
0001
,
0000
0000
1000
0010
1000
0010
1000
0000
0001
0000
0000
0010
0000
0000
0001
0000
,
1000
0000
0000
0010
0000
0000
1000
0000
0100
0000
0100
0000
0010
0000
0010
0000
,
0001
0000
0010
0001
0010
0000
0001
0000
0000
0000
0100
0000
0100
0000
0000
0000
,
0010
0000
1000
0010
1000
0000
0010
0000
0000
0000
1000
0000
0100
0000
2000
0000
,
0000
3010
0100
0002
0000
1003
0100
0020
,
0030
0000
0001
0000
0000
0100
0000
0000
0110
0000
0000
0000
1001
0000
0000
0000
,
0202
0303
0000
2200
3300
0000
0220
0000
,
0330
2002
0000
0000
,
0000
0000
3003
0000
;

//--------------- dance-double - forcednature ----------------
#NOTES:
     dance-double:
     forcednature:
     Easy:
     7:
     0,0,0,0,0:
00000000
00000000
00000000
00000000
,
00000000
00000000
00000000
00000000
,
00000000
00000000
00000000
00000000
,
00000000
00000000
00000000
00000000
,
00000000
00000000
00000000
00000000
,
00000000
00000000
00000000
00000000
,
00011000
00000000
01000000
00000000
,
00010000
00000000
10000000
00000000
,
10010000
00000000
01100000
00000000
,
10010000
10010000
10010000
10010000
,
10010000
00010000
00000000
01000000
,
00000000
00001000
00010000
00000100
,
00000000
00001000
00000000
00000001
,
00000000
00001000
00000010
00010000
,
00001000
00000000
00000000
00011000
00000000
00000000
00000000
00000000
,
01000000
00000000
00000000
01010000
00000000
00000000
00000000
10010000
,
00000000
00000000
00000000
01010000
00000000
00000000
00000000
00011000
,
00000000
00000000
00000100
00000000
00000000
00000100
00000000
00000000
00000200
00000000
00000000
00000000
00000300
00000000
00000000
00000000
,
00000010
00000001
00000010
00000100
,
00001000
00000010
00010000
00001000
,
00100000
00001000
01000000
00010000
,
10000000
00100000
10000000
01000000
,
00100000
00001000
00010000
00000100
,
00001000
00000001
00000100
00000010
,
00001000
00000000
00000000
00000100
00000000
00000000
00010000
00000000
,
00000000
00001000
00000000
00000000
00022000
00000000
00033000
00000000
,
00001000
01000000
00000000
01000000
,
00000000
01000000
00010000
10000000
,
00100000
00010000
00000000
00010000
,
00000000
00010000
00001000
00000010
,
00000100
00001000
00000000
00001000
,
00000100
00000010
00000000
00000010
,
00000001
00000100
00001000
00010000
,
00100000
10000000
02000000
03000000
,
00000000
00000000
00000000
00000000
,
00000000
00000000
00000000
00000000
,
00010000
00000000
00001000
00000000
,
00022000
00000000
00000000
00000000
00000000
00033000
00000000
00000000
,
00010100
00000000
00000000
00000000
,
01001000
00000000
00000000
00000000
,
00101000
00001000
00010010
00010000
,
00011000
00011000
00011000
00000000
,
00001000
00000100
00000001
00000000
,
00000010
00000100
00010000
00001000
,
01000000
00010000
10000000
00000000
,
00100000
10000000
01000000
01000000
,
00100000
00010000
01000000
00000000
,
00001000
00010000
00000010
00001000
,
00000100
00000010
00001000
00010000
,
00100000
00010000
00001000
00000000
,
00011000
00010000
00000100
00001000
,
00001001
00001001
00001001
00000000
,
00011000
00001000
01000000
00010000
,
10010000
10010000
10010000
00000000
,
11000000
00010000
11000000
00010000
,
01001000
01001000
01001000
00000000
,
00011000
00011000
00010100
00010100
,
01001000
01001000
00011000
00011000
,
00001000
00000000
00000000
00000000
,
00010000
00000000
00000000
00000000
,
00001000
00010000
00001000
00010000
,
00001000
00000000
00000000
00000000
,
00000100
00000001
00000000
00001000
,
00000010
00001000
00000000
00000100
,
00010000
00001000
00000000
00100000
,
00010000
10000000
00100000
01000000
,
00010000
00000000
00000000
10010000
00000000
00000000
00000000
00000000
,
01000000
00000000
00000000
00011000
00000000
00000000
00000000
00000000
,
00000100
00001000
00000100
00000010
,
00000100
00001000
00000001
00000000
,
00000100
00001000
00000000
00010000
,
00001000
00100000
00000000
00001000
,
00010000
00000010
00000000
00010000
,
00001000
00000100
00000001
00000010
,
00000100
00000000
00000000
00011000
00000000
00000000
00000000
00000000
,
01000000
00000000
00000000
10010000
00000000
00000000
00000000
00000000
,
20020000
00000000
00000000
30030000
00000000
00000000
00000000
00000000
,
00000000
00000000
00000000
00000000
00000000
00001000
00001000
00000000
,
00022000
00000000
00000000
00033000
00000000
00000000
00000000
00000000
,
00000000
00000000
00000000
00000000
00000000
00000100
00000100
00000000
,
00001001
00000001
00000100
00000010
,
00001000
00000100
00000010
00001000
,
00000000
00010000
00010000
00000000
00100000
00000000
01000000
00000000
,
00010000
10000000
01000000
00100000
,
00001000
00000000
00000000
00011000
00000000
00000000
00000000
00000000
,
00010000
00000000
00000000
00011000
00000000
00000000
00000000
00010100
,
00000000
00000000
00000000
01001000
00000000
00000000
00000000
00011000
,
00000000
00000000
01000000
00000000
00000000
01000000
00000000
00000000
02000000
00000000
00000000
00000000
03000000
00000000
00000000
00000000
,
00011000
00000000
00000000
00101000
00000000
00000000
00010010
00000000
,
00000000
00022000
00000000
00000000
,
00000000
00000000
00033000
00000000
;

//--------------- dance-double - forcednature ----------------
#NOTES:
     dance-double:
     forcednature:
     Medium:
     9:
     0,0,0,0,0:
00000000
00000000
00000000
00000000
,
00000000
00000000
00000000
00000000
,
00000000
00000000
00000000
00000000
,
00000000
00000000
00000000
00000000
,
00000000
00000000
00000000
00000000
,
00000000
00000000
00000000
00000000
,
00011000
00000100
00001000
00000000
,
00000010
00000100
00000001
00000010
,
00001001
00000000
00000110
00000000
,
00000100
00010000
00001000
01000000
,
10010000
10000000
00100000
10000000
,
01000000
00000000
00100000
00000000
00001000
00010000
00001000
00010000
,
00000000
00000000
00000000
00000000
00000010
00000000
00000000
00000000
00001000
00000000
00000000
00000001
00000000
00000000
00001000
00000000
,
00000010
00000000
00000000
00000100
00000000
00000000
00000010
00000000
00010000
00000000
00010000
00000000
00010000
00000000
00000000
00000000
,
00011000
00000000
00000000
00101000
00000000
00000000
01000000
00000000
,
10010000
00000000
00000000
01100000
00000000
00000000
00001000
00020000
,
00000000
00030000
00000100
00020000
00000000
00030000
00000010
00020000
,
00030000
00000000
00001000
00000000
00000000
00000100
00000000
00000000
00000020
00000000
00000000
00000000
00000030
00000000
00000000
00000000
,
00001001
00001000
00000010
00010000
,
00001000
01000000
00010000
10000000
,
01000000
00000000
00100000
00000000
00010000
00100000
00010000
00100000
,
00010000
00000000
01000000
00000000
00001000
00010000
00001000
00010000
,
00001000
00000010
00000100
00001000
,
00000001
00000100
00000010
00001000
,
00000001
00001000
00000000
00000100
00010000
00000000
00001000
01000000
,
00000000
00010000
10000000
00000000
02200000
00000000
03300000
00000000
,
10010000
10000000
01000000
10000000
,
00100000
00010000
00001000
00100000
,
00001000
00010000
00000100
00001000
,
00000001
00000100
00000000
00000010
00000000
00001000
00000001
00000000
,
00001001
00000100
00001000
00010000
,
10010000
01000000
00010000
00001000
,
00000110
00000000
00001000
00000000
00010000
00001000
00010000
00002000
,
00000000
01000000
01000000
01003000
,
00000000
00000000
00000000
00000000
,
00000000
00000000
00000000
00000000
,
00010000
00000000
00001000
00000000
,
00022000
00000000
00000000
00000000
00000000
00033000
00000000
00000000
,
00011000
00000000
00000000
00000000
,
00001001
00000000
00000000
00000000
,
00011000
00000100
00011000
01000000
,
00011000
00011000
00011000
00000000
,
00100000
00010000
10000000
00100000
,
10000000
00000000
00000000
01000000
00000000
00000000
00100000
00000000
00010000
00100000
00000000
00010000
,
00100000
00001000
00010000
00000010
,
00001000
00000000
00000000
00000001
00000000
00000000
00000100
00000000
00000001
00000010
00000000
00000001
,
00000010
00000100
00010000
00001000
,
01000000
00000000
00000000
00010000
00000000
00000000
10000000
00000000
00100000
10000000
00000000
00000000
,
10000000
00000000
10000000
01000000
00000000
01000000
00100000
00000000
00000000
00001000
00000000
00000000
,
00010000
00000010
00001001
00000100
,
00001001
00001000
00000100
00010000
,
00011000
00011000
00022000
00033000
,
00110000
01000000
10000000
00010000
,
01100000
00000000
00000000
01100000
00000000
00000000
10000000
00000000
10000000
00000000
10000000
00000000
,
10010000
01000000
00001000
00010000
,
00001100
00001001
00000202
00000303
,
00000110
00000100
00011000
00001000
,
01000000
00001000
01000000
00001000
00000000
00000000
00010000
00000000
00010000
00000000
00010000
00000000
,
00001000
00000000
00000000
00000000
,
00000110
00000000
00000000
00000000
,
00000001
00000100
00001000
00010000
,
01000000
00000000
10000000
00010000
,
10010000
00000000
10000000
00000000
00010000
01000000
00010000
00000000
,
00100000
00001000
00010000
00000100
,
00001000
00000000
00000001
00000000
00000100
00000010
00000100
00000000
,
00002000
00023000
00230000
10300000
,
10010000
00000000
00000000
11000000
00000000
00000000
00010000
00000000
,
00110000
00000000
00000000
00011000
00000000
00000000
00000100
00000000
,
00001001
00000100
00000001
00000010
,
00000100
00001000
00000100
00000000
00010000
00001000
00010000
00000000
,
00110000
00000000
01000000
00000000
10000000
00010000
10000000
00000000
,
00100000
01000000
00001000
00010000
,
00000010
00000000
00001000
00000000
00000100
00000010
00000100
00000000
,
00002000
00003002
00000203
00001300
,
00011000
00000000
00000000
00110000
00000000
00000000
01000000
00000000
,
10100000
00000000
00000000
00110000
00000000
00000000
00001000
00000000
,
00011000
00000100
00002000
00003000
,
00000010
00000000
00000000
00000100
00000000
00000001
00001000
00000001
,
00001000
00000010
00020000
00030000
,
00100000
00000000
00000000
01000000
00000000
00010000
10000000
00010000
,
10000000
01000000
00100000
00001000
,
00010000
00000000
00000010
00000000
00000100
00000001
00000100
00000001
,
00000000
00000000
00000000
00000000
00000010
00000000
00000000
00000000
00000100
00000000
00000000
00001000
00000000
00000000
00000100
00000000
,
00010000
00000000
00000000
00001000
00000000
00000000
00010000
00000000
00100000
00000000
00100000
00000000
00100000
00000000
00000000
00000000
,
01100000
00000000
00000000
10010000
00000000
00000000
01000000
00000000
,
00011000
00000000
00000000
00010100
00000000
00000000
00010000
00002000
,
00000000
00003000
01000000
00002000
00000000
00003000
00100000
00002000
,
00003000
00000000
00010000
00000000
00000000
00000100
00000000
00000000
00000010
00000000
00000000
00000000
00001001
00000000
00000000
00000000
,
00002200
00003300
00000000
00022000
00033000
00000000
02020000
00000000
,
03030000
00022000
00000000
00000000
,
00000000
00000000
00033000
00000000
;

//--------------- dance-double - forcednature ----------------
#NOTES:
     dance-double:
     forcednature:
     Hard:
     13:
     0,0,0,0,0:
00000000
00000000
00000000
00000000
,
00000000
00000000
00000000
00000000
,
00000000
00000000
00000000
00000000
,
00000000
00000000
00000000
00000000
,
00000000
00000000
00000000
00000000
,
00000000
00000000
00000000
00000000
,
00011000
00000000
00100000
00000000
01000000
00010000
00000000
00000000
,
10000000
01000000
00000000
00100000
00000000
00001000
00001000
00001000
,
00011000
00000100
00001001
00000010
,
00011000
00000000
00010100
00000000
01001000
00000000
00001000
00010000
,
00100000
00000000
10000000
00010000
00000000
10000000
00000000
01000000
,
00000000
00100000
00001000
00010000
00100000
00010000
00001000
00000010
,
00000000
00000000
00000100
00000000
00001000
00000000
00000100
00000000
00000010
00000000
00000000
00000001
00000000
00000000
00000100
00000000
,
00001000
00000000
00000000
00010000
00000000
00000000
00100000
00000000
10000000
00000000
10000000
00000000
10000000
00000000
10000000
00000000
,
00100000
00100000
01000000
01000000
00000000
00010000
00100000
00000000
,
00001000
00001000
00010000
00010000
00000000
00000100
00000010
00000002
,
00000000
00000103
00001000
00020000
00000000
00030100
00010000
00100000
,
00000000
00000000
01000000
00000000
00000000
00010000
00000000
00000000
20020000
00000000
00000000
00000000
30030000
00000000
10010000
00000000
,
00000000
10000000
01000000
00100000
00010000
01000000
00000000
00011000
,
00000000
00001000
00010000
00000100
00001000
00000001
00000000
00000201
,
00000000
00000310
00001000
00000100
00000010
00001000
00010000
01000000
,
00000000
00100000
00010000
10000000
00100000
00010000
00001000
00000100
,
00000000
00000010
00001000
00000001
00000010
00000100
00000000
00011000
,
00000000
00100000
00010000
10000000
00100000
00000000
01100000
00000000
,
10000000
01000000
00000000
00010000
00001000
00000000
00000010
00000001
,
00000000
00000100
00001000
00000000
00022000
00000000
00033000
00000000
,
00100000
00000000
00001000
00010000
00100000
00000000
01000000
00010000
,
00000000
10000000
01000000
00000000
00100000
00000000
00010000
00000000
,
00000100
00000010
00001000
00000001
,
00000010
00001000
00000000
00010000
00000000
00100000
00010000
00001000
,
00020000
01000000
00001000
00030100
,
00002000
00000100
00010000
01003000
,
00010100
00000000
01001000
00000000
00010000
00001000
00000010
00000100
,
00000000
00001000
00000001
00000100
00002000
00000000
00003000
00000000
,
00020000
00030000
00000000
00000000
,
00000000
00000000
00000000
00000000
,
11000000
00000000
01010000
00000000
,
20020000
00000000
00000000
00000000
00000000
30030000
00000000
00000000
,
11000000
00100000
00001000
00000010
,
00000110
00001000
00000001
00000000
,
00000110
00000000
00000000
00000001
00000000
00000001
00001000
00000000
00000000
00000010
00001000
00000010
,
00010000
00001000
01000000
00010000
10000000
00100000
20000000
00000000
00000000
30010000
00000000
00000000
,
21000000
30010000
01002000
00103000
,
00021000
00000000
00000000
00030100
00010000
00000010
00001000
00000000
00000000
00000100
00000000
00000100
,
00000020
00000000
00000000
00000031
00000000
00000000
00000120
00000000
00000000
00001030
00010000
00100000
,
00010000
00000000
00010000
00001000
00000000
00010000
01000000
10000000
01000000
00100000
00000000
01000000
,
00200000
00301000
00010020
00000130
,
00002001
00000000
00000000
00003100
00001000
00000100
00010000
00000000
00001000
01000000
00000000
00100000
,
10000000
00000000
01000000
00010000
00000000
00001000
00000010
00000001
00000010
00000100
00001000
00000001
,
00000100
00000010
00001000
00000010
00010000
00001000
01000000
00000000
00000000
01100000
00000000
00000000
,
10010000
00000000
10000000
01000000
00000000
01000000
00010000
00000000
00010000
00001000
00000000
00000000
,
00001010
00000110
00002002
00003003
,
00000101
00000000
00000100
00001000
00000000
00001000
00010000
00000000
00010000
00100000
00000000
00000000
,
01100000
00000000
00000000
10010000
00000000
00000000
00010000
00000000
00100000
00000000
00001000
00000000
,
00000100
00000110
00001000
00011000
,
00100000
00000000
00010000
01000000
00000000
00010000
10000000
00000000
00000000
01000000
00000000
01000000
,
00010000
00000000
00010000
00001000
00000000
00001000
00000010
00000001
00001000
00000100
00001000
00000010
,
00010000
00001000
00100000
00020000
00000000
00000000
01030000
00000000
01000000
00000000
01000000
00000000
,
01100000
00000000
00000000
10000000
00010000
00000000
01000000
00000000
,
00011000
00000000
00000100
00001000
00000010
00000000
00000100
00000001
,
00000011
00001100
00011000
01010000
,
10100000
00000000
00000000
00000000
10000000
00000000
00010000
01000000
,
00001000
00000000
00010000
00100000
00000000
00010000
00001000
00000010
,
00000100
00000000
00001000
00000001
00000000
00000100
00000010
00001000
,
00000100
00000000
00010000
00001000
00000000
01000000
00010000
10000000
,
00200000
00320000
00030020
00002030
,
00003001
00000000
00000010
00000110
00000000
00001000
00000100
00010000
,
00011000
00000000
00001000
01001000
00000000
01000000
00010000
00100000
,
01000000
00010000
01000000
10000000
01000000
00010000
01000000
10000000
,
00100000
00000000
00010000
00001000
00000010
00000010
00000100
00000000
,
00001001
00000000
00001000
00000100
00000000
00010000
00001000
01000000
,
00010000
00000000
10000000
00100000
00000000
10000000
01000000
00100000
,
00010000
00000000
00001000
00000100
00000000
00000010
00000001
00000100
,
00000020
00020030
02030000
13000000
,
10010000
00000000
00010000
01000000
00000000
00001000
00000010
00000100
,
00001000
00000000
00000010
00000100
00000001
00000010
00000001
00000100
,
00001000
00000000
00010000
00000000
00100000
01000000
00000000
00000000
,
00010000
10000000
00000000
01000000
00000000
00010000
00010000
00010000
,
00011000
00000000
00000100
00000000
00001000
00000001
00000000
00000000
,
00000100
00000010
00000000
00010000
00000000
00001000
00001000
00001000
,
00101000
00000000
10000000
01000000
00000000
00100000
00000000
00001000
,
00000000
00000010
00000100
00010000
00001000
00000100
00000001
00000010
,
00000000
00000000
00000100
00000000
00010000
00000000
00001000
00000000
01000000
00000000
00000000
00100000
00000000
00000000
10000000
00000000
,
01000000
00000000
00000000
00010000
00000000
00000000
00001000
00000000
00000100
00000000
00000100
00000000
00000100
00000000
00000100
00000000
,
00000010
00000010
00010000
00010000
00000000
00100000
01000000
00000000
,
00010000
00010000
10000000
10000000
00000000
01000000
00010000
00002000
,
00000000
00003010
00000001
00000200
00000000
00000310
00010000
01000000
,
00000000
00000000
00100000
00000000
00000000
00001000
00000000
00000000
00010100
00000000
00000000
00000000
01001000
00000000
00000000
00000000
,
02200000
03300000
00000000
00022000
00033000
00000000
00000220
00000000
,
00000330
00022000
00000000
00000000
,
00000000
00000000
00033000
00000000
;
