#TITLE:Ði Về Nhà;
#SUBTITLE:;
#ARTIST:Ðen x Justatee;
#TITLETRANSLIT:Di Ve Nha;
#SUBTITLETRANSLIT:;
#ARTISTTRANSLIT:Den x JustaTee;
#GENRE:V-Pop Rap;
#CREDIT:;
#BANNER:Di Ve Nha-bn.png;
#BACKGROUND:Di Ve Nha-bg.png;
#LYRICSPATH:;
#CDTITLE:cdtitle.png;
#MUSIC:Di Ve Nha.ogg;
#OFFSET:-0.185000;
#SAMPLESTART:68.755997;
#SAMPLELENGTH:11.429000;
#SELECTABLE:YES;
#BPMS:0.000000=84.000000
;
#STOPS:
;
#BGCHANGES:0.000=Di Ve Nha.avi=1.000=1=0=0=StretchNoLoop==CrossFade==,
99999=-nosongbg-=1.000=0=0=0 // don't automatically add -songbackground-
;
#KEYSOUNDS:;
#ATTACKS:;

//---------------dance-single - ----------------
#NOTES:
     dance-single:
     :
     Hard:
     13:
     0.436943,0.441798,0.108132,0.146751,0.409358,396.000000,382.000000,14.000000,19.000000,0.000000,0.000000,0.436943,0.441798,0.108132,0.146751,0.409358,396.000000,382.000000,14.000000,19.000000,0.000000,0.000000:
// measure 0
0000
0000
0000
0000
,  // measure 1
0000
0000
0000
0000
,  // measure 2
0000
0000
0000
0000
,  // measure 3
0000
0000
0000
0000
,  // measure 4
1000
0000
0000
0000
0010
0000
1000
0000
0001
0000
0000
0100
0010
1000
0001
0000
,  // measure 5
0100
0010
0001
0010
2000
0000
0100
3100
,  // measure 6
1000
0000
0010
0000
0001
0000
0010
0100
,  // measure 7
0010
0000
0000
0000
0000
0000
1000
0000
0000
0000
0000
0000
0001
0000
0000
0000
0000
0000
1000
0000
0000
0000
0000
0000
0010
0000
0000
0000
0000
0000
0000
0000
0100
0000
0010
0000
0100
0000
0000
0010
0000
0000
0100
0000
0000
0000
0000
0000
,  // measure 8
0110
0000
0000
0010
1000
0000
0001
0000
0100
0001
0100
0000
0001
0000
0010
0000
,  // measure 9
0100
0000
0000
0010
0001
0010
0000
0100
0000
0100
1000
0000
0001
0001
0000
0000
,  // measure 10
0010
0000
0000
1000
0000
0010
0000
0000
0001
0010
0001
0000
1000
0000
0001
0000
,  // measure 11
1000
0000
0000
0010
0100
0010
0000
1000
0000
1000
0001
0000
0010
0001
0000
0000
,  // measure 12
1001
0000
1000
0100
0001
0100
0010
0001
0000
0100
0100
0000
1010
0000
1000
0000
,  // measure 13
1001
0000
0001
0000
0100
0000
0001
0010
0000
0010
1000
0000
1010
0000
1000
0000
,  // measure 14
1001
0000
0001
0100
0001
0000
0010
0000
0100
0010
0100
0000
0110
0000
0000
0100
,  // measure 15
1000
0001
0100
0010
0100
0000
0001
0010
1000
0010
0001
0000
1000
0000
0100
0000
,  // measure 16
1100
0000
1000
0100
1000
0000
0001
0000
0010
0100
0000
0010
0001
1000
0001
0000
,  // measure 17
0100
0000
0001
1000
0001
0000
0010
0100
0000
0100
1000
0000
0001
0000
1000
0001
,  // measure 18
1000
0000
0010
1000
0001
0000
1000
0000
0010
0000
1000
0000
0001
0000
0100
0010
,  // measure 19
0100
0000
0001
1000
0010
0000
0100
0010
0000
0010
0001
0000
0011
0000
0001
1000
,  // measure 20
0001
0000
0000
0000
0010
0000
0100
0000
1000
0000
0000
1000
0000
0000
0002
0000
0000
0000
0003
0000
0100
0000
0001
0000
1000
0000
0020
0000
0000
0000
0030
0000
,  // measure 21
0100
0000
0001
0100
0001
1000
0000
0020
0000
0000
0031
0010
0200
0000
0302
0000
,  // measure 22
1003
0000
0000
0000
0010
0000
1000
0000
0100
0000
0000
0010
0000
0000
0002
0000
0000
0000
0000
0000
1003
0000
0001
0000
0010
0000
0100
0000
1000
0000
0000
0000
,  // measure 23
0010
0000
0001
0000
0100
0000
1000
0000
0001
1000
0001
0000
1001
0000
1000
0000
,  // measure 24
1100
0100
0001
0100
1000
0100
0010
0000
,  // measure 25
0001
0000
0010
0000
1000
0000
0100
0000
0002
0000
0000
0000
1003
0001
1000
0000
,  // measure 26
0020
0000
0100
0000
0230
0000
0301
0000
0020
0000
0100
0000
0230
0000
1300
0100
,  // measure 27
1000
0000
0100
0000
0001
0000
0010
0000
2000
0000
0000
0000
0010
0000
3010
1000
,  // measure 28
0010
0100
1000
0100
0001
1000
0010
0000
,  // measure 29
0100
0000
0010
0000
0001
0000
0010
0000
2000
0000
0000
0000
3100
0010
0001
0000
,  // measure 30
2000
0000
0010
0000
3020
0000
0100
0000
0230
0000
0001
0000
0302
0000
0013
0001
,  // measure 31
0010
0100
1000
0100
0020
0000
0031
1000
,  // measure 32
0001
0000
0000
1000
0010
0000
0100
0000
0001
0100
0001
0000
1000
0100
0010
0100
,  // measure 33
1000
0000
0000
0010
1000
0000
0001
0000
1000
0000
0010
0000
0001
0010
0100
0010
,  // measure 34
1000
0000
0001
1000
0001
0000
0100
0000
0001
1000
0010
0000
1000
0000
0100
0000
,  // measure 35
0010
0100
1000
0000
0001
0000
0100
0001
1000
0010
0010
0000
1010
0000
0000
0000
,  // measure 36
1001
0000
0001
0100
0001
0000
0010
0000
0100
0000
1000
0100
1000
0000
0100
0000
,  // measure 37
0010
0000
0001
1000
0001
0000
0010
0100
0000
0100
1000
0000
0001
0100
0010
0100
,  // measure 38
0001
0000
0001
1000
0001
0000
0010
0000
0100
0000
1000
0100
1000
0000
0010
0000
,  // measure 39
1000
0000
0001
0000
0010
0000
0001
0100
0000
0100
1000
0000
0010
1000
0010
0000
,  // measure 40
1010
0000
1000
0100
1000
0000
0001
0000
0010
0000
0001
0000
1000
0100
0010
0100
,  // measure 41
1000
0000
0001
0100
0001
0000
0010
0100
0000
0100
1000
0000
0001
0100
0001
1000
,  // measure 42
0010
0000
0100
0001
0100
0000
0010
0000
1000
0100
1000
0000
0010
0100
0010
0000
,  // measure 43
1000
0000
0100
0010
0001
0000
1000
0100
0000
0100
0001
0000
0010
0001
0010
0000
,  // measure 44
0001
0000
0000
0000
;

//---------------dance-single - ----------------
#NOTES:
     dance-single:
     :
     Medium:
     9:
     0.306743,0.339844,0.084961,0.177646,0.115856,278.000000,267.000000,11.000000,23.000000,0.000000,0.000000,0.306743,0.339844,0.084961,0.177646,0.115856,278.000000,267.000000,11.000000,23.000000,0.000000,0.000000:
// measure 0
0000
0000
0000
0000
,  // measure 1
0000
0000
0000
0000
,  // measure 2
0000
0000
0000
0000
,  // measure 3
0000
0000
0000
0000
,  // measure 4
0001
0000
0100
0000
0010
0100
0001
0000
,  // measure 5
1000
0000
0100
0010
0002
0000
0100
0000
,  // measure 6
1003
0010
0001
0010
,  // measure 7
1000
0000
0001
0010
0200
0000
1300
1000
,  // measure 8
1100
0000
0000
0100
0000
1000
0000
0002
0000
0000
1000
0000
1003
0000
0000
0000
,  // measure 9
0100
0000
0000
0000
0010
0000
0000
0001
0000
0000
0010
0000
0001
0000
0000
0000
,  // measure 10
1000
0000
0000
0010
0000
1000
0000
0002
0000
0000
0010
0000
0013
0000
0000
0000
,  // measure 11
0001
0000
0000
0000
1000
0000
0000
0100
0000
0000
1000
0000
0001
0000
0000
0000
,  // measure 12
1001
0000
1000
0001
0100
0001
1000
0001
0100
0000
0001
0000
2000
0000
0000
0000
,  // measure 13
3001
0010
0001
1000
0010
0100
0002
0000
,  // measure 14
1003
0000
0001
0010
1000
0010
0001
0000
,  // measure 15
1000
0010
0100
0010
2000
0000
3002
0000
,  // measure 16
0013
0000
0100
0010
0100
0000
1000
0000
0010
0000
0100
0000
0010
0000
0001
0000
,  // measure 17
0010
0000
0100
0010
0100
0000
0001
0000
1000
0000
0100
0000
0001
0000
0100
0000
,  // measure 18
1000
0000
0001
0100
0001
0000
1000
0000
0010
0000
0100
0000
0010
0000
0001
0000
,  // measure 19
0010
0000
1000
0010
1000
0000
0100
0000
0001
0000
0100
0000
0010
0000
0001
0000
,  // measure 20
1000
0000
1001
0000
0001
1000
0010
0000
,  // measure 21
1000
0000
1100
0000
0100
0010
0001
0000
,  // measure 22
0100
0000
0101
0000
0001
1000
0010
0000
,  // measure 23
1000
0000
0000
0000
1001
0000
0000
0000
0001
1000
0001
0000
1000
0000
0000
0000
,  // measure 24
1001
1000
0001
0100
0001
1000
0100
0000
,  // measure 25
0010
0100
1000
0001
0200
0000
1300
0100
,  // measure 26
0020
0000
2030
3000
0002
0000
0203
0300
,  // measure 27
0001
0010
1000
0010
0002
0000
0100
0003
,  // measure 28
0101
0001
0100
1000
0100
0010
0100
0000
,  // measure 29
0001
0010
0100
1000
0020
0000
0031
0010
,  // measure 30
2000
0000
3002
0000
0203
0000
0320
0030
,  // measure 31
1000
0010
0001
0010
2000
0000
3001
0100
,  // measure 32
0001
0000
0000
0010
0000
0000
0001
0000
1000
0000
0000
0010
1000
0000
0001
0000
,  // measure 33
0010
0000
0000
0001
0000
0000
1000
0000
0100
0000
0000
0010
0001
0000
1000
0000
,  // measure 34
0001
0000
0000
0100
0010
0000
0100
0000
0001
0000
1000
0001
1000
0000
0010
0000
,  // measure 35
1000
0000
0000
0001
0010
0000
0001
0000
0100
0010
0010
0000
0110
0000
0000
0000
,  // measure 36
1001
1000
0010
0100
0001
1000
0001
0000
,  // measure 37
0010
0100
1000
0001
0200
0000
1300
0100
,  // measure 38
0001
0000
1000
0001
1000
0000
0010
0000
1000
0000
0100
0000
0010
0000
0000
0000
,  // measure 39
0001
0000
0100
0000
0001
0000
0000
1000
0000
1000
0100
0000
0010
0000
0000
0000
,  // measure 40
0101
0001
0100
0010
1000
0001
0100
0000
,  // measure 41
0010
0100
1000
0100
0002
0000
1003
0001
,  // measure 42
0010
0000
0100
0010
0100
0000
1000
0000
0001
0000
0100
0000
0001
0000
0000
0000
,  // measure 43
1000
0000
0100
0000
0010
0000
0000
0001
0000
0001
1000
0000
0002
0000
0000
0000
,  // measure 44
0013
0000
0000
0000
;

//---------------dance-single - ----------------
#NOTES:
     dance-single:
     :
     Easy:
     4:
     0.198610,0.237891,0.030895,0.000000,0.000000,180.000000,176.000000,4.000000,0.000000,0.000000,0.000000,0.198610,0.237891,0.030895,0.000000,0.000000,180.000000,176.000000,4.000000,0.000000,0.000000,0.000000:
// measure 0
0000
0000
0000
0000
,  // measure 1
0000
0000
0000
0000
,  // measure 2
0000
0000
0000
0000
,  // measure 3
0000
0000
0000
0000
,  // measure 4
1000
0000
0100
0000
,  // measure 5
0010
0000
0001
1000
,  // measure 6
0001
0000
0100
0000
,  // measure 7
0010
0000
1000
0001
,  // measure 8
1001
1000
0000
0100
,  // measure 9
1000
0001
0000
0010
,  // measure 10
0100
1000
0000
0001
,  // measure 11
1000
0010
0000
0100
,  // measure 12
0001
0000
1000
0000
0010
1000
0001
0000
,  // measure 13
0010
0000
0100
0000
1000
0100
0010
0000
,  // measure 14
0001
0000
0100
0000
0001
1000
0010
0000
,  // measure 15
1000
0000
0001
0000
0100
0010
1000
0000
,  // measure 16
1010
0000
1000
0100
0010
0100
1000
0000
,  // measure 17
0001
0000
0100
0001
1000
0001
0100
0000
,  // measure 18
0010
0000
0100
0010
1000
0001
0010
0000
,  // measure 19
0100
0000
0010
0001
1000
0001
0010
0000
,  // measure 20
0100
1000
0000
0001
,  // measure 21
0100
0001
0000
0010
,  // measure 22
0100
0010
0000
0001
,  // measure 23
0100
0001
0000
1000
,  // measure 24
1001
0000
1000
0000
0010
1000
0001
0000
,  // measure 25
0010
0000
0100
0010
0001
0000
1000
0000
,  // measure 26
0001
0010
1000
0100
,  // measure 27
0001
0000
1000
0001
1000
0000
0100
0000
,  // measure 28
0010
0000
0100
0000
1000
0001
0010
0000
,  // measure 29
0100
0000
1000
0001
0100
0000
0001
0000
,  // measure 30
1000
0100
0001
0010
,  // measure 31
1000
0001
0100
0001
1000
0000
0010
0000
,  // measure 32
0100
0001
1000
0010
,  // measure 33
1000
0001
0010
0100
,  // measure 34
0010
0001
1000
0010
,  // measure 35
0100
0001
1000
0100
,  // measure 36
1100
0000
1000
0000
0001
0100
0001
0000
,  // measure 37
0010
0000
0100
0010
0001
0000
1000
0000
,  // measure 38
0001
0100
1000
0010
,  // measure 39
0001
1000
0010
1000
0001
0000
0010
0100
,  // measure 40
1000
0000
0001
0000
0100
0010
1000
0000
,  // measure 41
0100
0000
0010
0100
0010
0000
0001
0000
,  // measure 42
1000
0010
0001
0100
,  // measure 43
1000
0001
0010
0001
1000
0000
0100
1000
,  // measure 44
0100
0000
0000
0000
;

//---------------dance-single - ----------------
#NOTES:
     dance-single:
     :
     Beginner:
     1:
     0.071720,0.084961,0.000000,0.000000,0.000000,65.000000,65.000000,0.000000,0.000000,0.000000,0.000000,0.071720,0.084961,0.000000,0.000000,0.000000,65.000000,65.000000,0.000000,0.000000,0.000000,0.000000:
// measure 0
0000
0000
0000
0000
,  // measure 1
0000
0000
0000
0000
,  // measure 2
0000
0000
0000
0000
,  // measure 3
0000
0000
0000
0000
,  // measure 4
0001
0000
0000
0000
,  // measure 5
1000
0000
0000
0000
,  // measure 6
0001
0000
0000
0000
,  // measure 7
1000
0000
0000
0000
,  // measure 8
0100
0000
0000
0000
,  // measure 9
0010
0000
0000
0000
,  // measure 10
0001
0000
0000
0000
,  // measure 11
0100
0000
0000
0000
,  // measure 12
0010
0000
1000
0000
,  // measure 13
0001
0000
1000
0000
,  // measure 14
0010
0000
1000
0000
,  // measure 15
0001
0000
0010
0000
,  // measure 16
0100
0000
1000
0000
,  // measure 17
0100
0000
0010
0000
,  // measure 18
0001
0000
0010
0000
,  // measure 19
0100
0000
1000
0000
,  // measure 20
0001
0000
0000
0000
,  // measure 21
1000
0000
0000
0000
,  // measure 22
0100
0000
0000
0000
,  // measure 23
0010
0000
0000
0000
,  // measure 24
0001
0000
0010
0000
,  // measure 25
0001
0000
1000
0000
,  // measure 26
0001
0000
0010
0000
,  // measure 27
0100
0000
1000
0000
,  // measure 28
0010
0000
1000
0000
,  // measure 29
0001
0000
1000
0000
,  // measure 30
0100
0000
0010
0000
,  // measure 31
0100
0000
1000
0000
,  // measure 32
0001
0000
0000
0000
,  // measure 33
1000
0000
0000
0000
,  // measure 34
0010
0000
0000
0000
,  // measure 35
0100
0000
0000
0000
,  // measure 36
0001
0000
1000
0000
,  // measure 37
0001
0000
0100
0000
,  // measure 38
0001
0000
1000
0000
,  // measure 39
0100
0000
0010
0000
,  // measure 40
0100
0000
1000
0000
,  // measure 41
0001
0000
0100
0000
,  // measure 42
0001
0000
1000
0000
,  // measure 43
0100
0000
0010
0000
,  // measure 44
0001
0000
0000
0000
;
