#TITLE:Deus ex Machina;
#SUBTITLE:;
#ARTIST:青龍×BlackY;
#TITLETRANSLIT:;
#SUBTITLETRANSLIT:;
#ARTISTTRANSLIT:Seiryu×BlackY;
#GENRE:Renaissance Speed;
#CREDIT:;
#BANNER:Deus ex Machina.png;
#BACKGROUND:Deus ex Machina-bg.png;
#LYRICSPATH:;
#CDTITLE:cdtitle.png;
#MUSIC:Deus ex Machina.ogg;
#OFFSET:-0.047345;
#SAMPLESTART:33.514004;
#SAMPLELENGTH:18.461540;
#SELECTABLE:YES;
#DISPLAYBPM:52.000000:208.000000;
#BPMS:0.000000=208.000000
,276.000000=52.000000
,284.000000=104.000000
,300.000000=208.000000
,328.000000=416.000000
,334.000000=208.000000
;
#STOPS:
;
#BGCHANGES:;
#KEYSOUNDS:;
#ATTACKS:;

//---------------dance-single - ----------------
#NOTES:
     dance-single:
     :
     Challenge:
     19:
     1.086978,1.299366,0.727936,0.183900,0.908004,993.000000,898.000000,95.000000,24.000000,33.000000,0.000000,1.086978,1.299366,0.727936,0.183900,0.908004,993.000000,898.000000,95.000000,24.000000,33.000000,0.000000:
0000
0000
0000
0000
,
0000
0000
0000
0000
,
0000
0000
0000
0000
,
0000
0000
0000
0000
,
0000
0000
0000
0000
0000
0000
0000
0000
0000
0000
0000
0000
0001
1000
0001
1000
,
0001
0000
0000
0101
0000
0000
1000
1100
,
0000
0000
0000
0000
0000
0000
0000
0000
0000
0000
0000
0000
0001
0010
0100
1000
,
0001
0000
0000
0000
0000
0000
1010
0000
0000
0000
0000
0000
0011
0000
0100
1000
,
0010
0000
0000
0110
0000
0000
0101
0000
2001
0000
0000
0000
3100
0010
0001
1000
,
0200
0000
0301
0100
1000
0001
0100
1000
,
1100
1000
0100
0001
0001
1000
0100
0001
,
0101
0000
0001
0000
0100
0000
1000
0100
1000
0001
0100
0000
0010
0000
0100
0001
,
1000
0000
0100
0000
0010
0000
0001
0000
0100
0010
0100
0010
1000
0100
0010
0001
,
1000
0010
0001
0010
1010
0100
0001
0010
,
0011
0010
1000
0010
0011
0100
1000
0010
,
0100
0010
0100
0010
1000
0001
1000
0001
0010
0100
0010
0100
1000
0100
0010
0001
,
0100
0010
1000
0010
0100
0010
1000
0010
0100
0001
1000
0100
0010
0001
0100
0010
,
1000
0000
0020
0000
,
0000
0000
0000
0000
0000
0000
0000
0000
1030
0010
1000
0010
0100
0001
1000
0100
,
0020
0000
0000
0000
,
0130
0000
0000
0000
0000
0000
0000
0000
1000
0100
1000
0100
0010
0001
0100
0010
,
1000
0010
0100
0110
0001
0010
0110
1000
,
0010
0000
1010
0000
0100
0000
0101
0000
1000
0000
0010
0000
1000
0100
0010
0000
,
0001
0010
0100
0110
1000
0010
0110
0001
,
0010
0000
0011
0000
0100
0000
1100
0000
0001
0000
0100
0000
0000
0010
0000
0000
,
0110
0000
0010
1000
0100
0000
0010
0000
0110
0000
0100
0000
0010
0000
0001
0000
,
1000
0010
0100
0001
0010
0000
0100
0000
0100
0000
0100
0000
0010
0001
0000
0001
,
1000
0000
0010
0000
0100
0000
0001
0000
1000
0010
0100
0001
0010
0100
1000
0001
,
0100
0000
0000
0000
0110
0000
0010
1000
0001
1000
0100
0000
0010
0001
0100
0010
,
1000
0000
1000
0000
0100
M0MM
0100
0000
0001
0000
0001
0000
0010
MM0M
0010
0000
,
1000
0010
0001
0010
1000
0100
0001
0100
,
1000
0000
0001
0000
0100
0000
0001
0100
1000
0100
1000
0000
0100
0000
1000
0100
,
0001
0000
1000
0000
0100
0000
0010
0000
0001
0100
0010
1000
0100
1000
0010
0100
,
0001
0000
0010
0000
0100
M0MM
0100
0000
0010
0000
1000
0000
0100
M0MM
0100
0000
,
0001
0000
0010
0000
1000
0000
0001
0000
0100
0000
1000
0000
0001
0100
0010
0100
,
1000
0000
1100
0101
0000
0110
0000
1001
,
0000
0000
0011
0000
1010
0000
0000
0000
1001
0000
0001
0010
0100
1000
0010
0100
,
0001
0000
0001
0000
0100
M0MM
0100
0000
1000
0000
1000
0000
0010
MM0M
0010
0000
,
0001
0010
1000
0010
0001
0100
1000
0100
,
0001
0000
1000
0000
0100
0000
1000
0100
0001
0100
0001
0000
0100
0000
0001
0100
,
1000
0000
0001
0000
0100
0000
0010
0000
1000
0100
0010
0001
0100
0001
0010
0100
,
1000
0000
0010
0000
0100
M0MM
0100
0000
0010
0000
0001
0000
0100
M0MM
0100
1000
,
0001
0000
0100
0001
1000
0000
0100
0000
0010
0000
0100
0000
1001
0000
0000
0000
,
0110
0000
0011
0101
0000
1100
0000
1010
,
0000
0000
0110
0000
1001
0000
1000
0001
0010
0001
1000
0010
1000
0100
0010
0000
,
0011
0000
0100
0000
0100
0000
0010
0001
0100
0000
0100
0000
1010
0000
0110
0000
,
0000
0000
1001
0000
1001
0000
1000
0100
1000
0000
0001
0000
0100
0000
0010
0000
,
1010
0000
0100
0000
0100
0000
0010
1000
0100
0000
0100
0000
0011
0000
0110
0000
,
0000
0000
1001
0000
1001
0000
0001
0100
0001
0000
0010
0000
0100
0000
1000
0000
,
1010
0101
0001
1001
0001
0011
0001
1001
,
0000
0000
0101
0000
0101
0000
0010
1000
0100
0000
0001
0000
0100
0000
0010
0000
,
0011
0000
1100
0000
1001
0000
1000
0010
0100
0000
0101
0000
0000
0000
0001
0100
,
1000
0000
0100
0000
0100
0000
1000
0100
0002
0000
0000
0000
0000
0000
0000
0000
,
0013
0001
0100
0001
0010
0000
0100
1000
0010
0000
0010
0000
1000
0100
0010
0001
,
0000
0000
1010
0000
0010
0100
0001
0010
0100
0000
1100
0000
0001
0000
0100
0000
,
0010
1000
0100
1000
0010
0000
1000
0000
0010
0100
0001
0010
0100
1000
0010
0100
,
0001
0000
0010
0000
0011
0000
0010
0100
1000
0010
0100
0000
0101
0000
0000
0000
,
0001
0100
0001
0100
1000
0100
1000
0100
0001
0100
0010
1000
0200
0000
0310
0001
,
1000
0100
1000
0100
0001
0100
0001
0100
1000
0001
0020
0000
0031
1000
0020
0000
,
1030
0010
1000
0010
0001
0010
1000
0000
0010
0000
1000
0010
0001
0010
1000
0100
,
0002
0000
0000
0000
0000
0000
0000
0000
0203
0000
0000
0000
0000
0000
0000
0300
,
1100
1000
0001
1000
1010
1000
0001
0010
,
0011
0001
1000
0001
0101
0001
1000
1100
,
1100
0000
1000
0000
0001
0000
0100
0000
0110
0000
1000
0010
1000
0000
0100
0000
,
0110
0000
0001
0010
0001
0000
0100
0000
0110
0000
1000
0000
0010
1000
0100
0010
,
0001
0010
1000
0010
0011
0100
1000
0010
,
1010
0000
0010
0000
0001
0000
0010
0000
1010
0000
0010
1000
0100
0010
0001
0010
,
0100
1000
0010
0100
0010
0100
0001
0010
0100
0010
0100
1000
0010
0100
0001
0010
,
0100
0001
0100
0001
0100
1000
0010
0100
1000
0100
1000
0100
0001
0010
0100
1000
,
0020
0230
0302
2003
,
3200
0000
0000
0000
0320
0000
0000
0000
0032
0000
0000
0000
2000
0000
0000
0003
,
3010
1000
0010
0000
1010
0000
0001
0100
1000
0100
0001
0000
0101
0000
0010
0100
,
0001
0010
0001
0000
0011
0000
1000
0100
0001
0100
1000
0000
1100
0000
0010
0100
,
1000
0010
1000
0010
0110
0000
1000
0010
0001
0010
1000
0010
0110
0000
0010
0100
,
0001
0010
0001
0010
0110
0000
0001
0010
1000
0001
0100
1000
2001
0000
0000
0000
,
3010
0100
0010
0100
0001
1000
0001
1000
,
0010
0001
1000
0100
0001
1000
0010
1000
,
0100
0010
0100
0010
0001
1000
0001
1000
,
0100
0001
1000
0010
0001
1000
0100
0010
,
0001
0100
0010
1000
0001
0100
0001
0100
0010
0100
0010
0100
0010
1000
0010
1000
,
0100
0010
0001
1000
0100
0010
0100
0010
0001
0010
0001
0010
0001
1000
0001
1000
,
0010
0100
0001
0010
0100
1000
0100
0010
0001
0100
0010
1000
0100
0010
0001
1000
,
0M20
0000
0M00
0000
,
0M00
0000
0000
0000
0130
0000
0001
0100
,
0101
0010
1000
1100
0010
0001
0011
0100
,
1000
0000
1010
0000
0100
0010
1000
0000
0100
0000
0001
MMM0
0001
0000
0010
0000
,
0100
0000
1000
0000
0001
0100
0010
0000
0001
0000
0010
0100
0001
0000
1000
0000
,
0100
0000
0001
0100
0010
0001
0100
0010
0100
0010
0001
0010
0100
0000
0010
0000
,
1010
0100
0001
1001
0001
0010
0011
0100
,
1000
0000
1001
0000
1000
0010
0100
0000
0010
0000
1000
0000
0100
0000
0001
0000
,
1000
0000
0010
0000
0001
0000
1000
0000
0100
0000
0001
0100
1000
0000
0001
0100
,
1000
0000
0001
0010
1000
0010
1000
0100
0010
0001
0100
0010
1000
0000
0100
0000
,
1100
0010
0001
0101
1000
0010
1010
0100
,
0001
0000
0011
0000
0100
0010
0001
0000
0100
0000
1000
0MMM
1000
0000
0010
0000
,
0100
0000
0001
0000
1000
0100
0010
0000
1000
0000
0010
0100
1000
0000
0001
0000
,
0100
0000
1000
0100
0010
1000
0100
0010
0100
0010
1000
0010
0200
0000
1000
0000
,
1000
0000
1000
0000
0320
0000
0001
0000
0001
0000
0130
1000
0020
0000
1000
0000
,
1000
0000
0130
0001
0010
0100
0010
0000
0100
0000
0100
0000
0010
0001
1000
0001
,
0100
0010
0100
0001
0100
1000
0100
0001
1000
0100
0001
0100
2000
0000
0000
0000
,
3000
0000
0001
0010
0100
1000
0010
1000
0010
1000
0100
0010
0001
0000
0000
0000
;

//---------------dance-single - ----------------
#NOTES:
     dance-single:
     :
     Hard:
     18:
     0.998312,1.261149,0.559361,0.245199,0.747092,912.000000,839.000000,73.000000,32.000000,21.000000,0.000000,0.998312,1.261149,0.559361,0.245199,0.747092,912.000000,839.000000,73.000000,32.000000,21.000000,0.000000:
0000
0000
0000
0000
,
0000
0000
0000
0000
,
0000
0000
0000
0000
,
0000
0000
0000
0000
,
0000
0000
0000
0000
0000
0000
0000
0000
0000
0000
0000
0000
1000
0001
1000
0001
,
1000
0000
0000
1100
0000
0000
0001
0101
,
0000
0000
0000
0000
0000
0000
0000
0000
0000
0000
0000
0000
0001
1000
0001
1000
,
0001
0000
0000
0000
0000
0000
0110
0000
0000
0000
0000
0000
1001
0000
0001
1000
,
0100
0000
0000
0110
0000
0000
1100
0000
0012
0000
0000
0000
1003
0010
1000
0010
,
0200
0000
0301
0100
1000
0100
0001
0010
,
1000
0010
1000
0010
0001
1000
0100
0001
,
0100
0000
1000
0000
0001
0000
0100
0010
0100
0010
0100
0000
0001
0000
0010
0100
,
0010
0000
0100
0000
1000
0000
0001
0000
1000
0010
1000
0010
0100
0001
1000
0001
,
0100
0010
0100
0001
0011
0001
0100
0001
,
0011
0010
0100
1000
1010
1000
0100
1000
,
0001
0010
0001
0000
1000
0010
1000
0000
0001
0100
0010
0000
1000
0100
0010
0000
,
0011
0000
0000
1100
0000
0000
0101
0000
0000
1010
0000
0000
1000
0010
0100
0001
,
0010
0000
0002
0000
,
0000
0000
0000
0000
0013
0100
1000
0001
,
0200
0000
0000
0000
,
0310
0000
0000
0000
0000
0000
0000
0000
1002
0000
0000
0000
0103
0010
0100
0010
,
1000
0100
0001
1000
0001
0100
1000
0010
,
0001
0000
1000
0000
0001
0000
0010
0000
0100
0000
0001
0000
0010
0100
0010
0000
,
0001
0100
1000
0001
1000
0100
0001
0010
,
1000
0000
0001
0000
1000
0000
0010
0000
0100
0000
0110
0000
0000
0011
0000
0000
,
1001
0000
1000
0010
1000
0000
0010
0000
0001
0000
0010
0000
1000
0000
0100
0000
,
0010
0001
0010
0001
0010
0000
1000
0000
0010
0000
0001
0000
1000
0001
0000
0001
,
0100
0000
0100
0000
0010
0000
0010
0000
0100
0010
0100
0010
1000
0001
1000
0001
,
0020
0000
0000
0000
0000
0000
0000
0000
0000
0000
0000
0000
0031
0010
0100
1000
,
0001
0100
0001
0100
1000
0100
1000
0001
,
0010
1000
0100
0001
1000
0010
0001
1000
,
0010
0000
1000
0000
0010
0000
0100
0001
1000
0001
0100
0000
0001
0000
0010
0001
,
0010
0000
0100
0000
0010
0000
0001
0000
1000
0010
1000
0010
0100
0001
0010
0100
,
1000
0010
1000
0010
0001
0010
0001
1000
,
0100
0000
0001
0000
1000
0000
0001
0000
0010
0000
0001
0000
1000
0001
0100
0001
,
0010
0000
1100
0110
0000
0011
0000
1001
,
0000
0000
0101
0000
0110
0000
0000
0000
1010
0000
1001
0000
1000
0100
0010
0001
,
1000
0100
1000
0100
0001
0100
0001
1000
,
0010
0001
0100
1000
0001
0010
1000
0001
,
0010
0000
0001
0000
0010
0000
0100
1000
0001
1000
0100
0000
1000
0000
0010
1000
,
0010
0000
0100
0000
0010
0000
1000
0000
0001
0010
0001
0010
0100
1000
0010
0100
,
0001
0000
0010
0000
1000
0000
0001
0000
0100
0000
1000
0000
0001
0000
0100
0010
,
1000
0000
0100
0010
0001
0000
0100
0000
0010
0000
0100
0000
0110
0000
0000
0000
,
1001
0000
1010
1100
0000
0101
0000
0011
,
0000
0000
1001
0000
0110
0000
0000
0000
1001
0000
0000
0000
0001
0100
0010
1000
,
0200
0001
0301
0200
1000
1300
1100
0011
,
0000
0000
1001
0000
1001
0000
1000
0010
1000
0000
0001
0000
0010
0000
0001
0000
,
0200
1000
1300
0200
0001
0301
0101
1010
,
0000
0000
1001
0000
1001
0000
0001
0010
0001
0000
1000
0000
0010
0000
1000
0000
,
0002
0010
0013
0011
0001
1001
0001
0101
,
0000
0000
1010
0000
1010
0000
0100
0001
1000
0000
0001
0000
0010
0000
0100
0000
,
2000
0000
0010
0000
3010
0000
1010
0000
0100
0000
0101
0000
0000
0000
0010
1000
,
0100
0000
0010
0000
0100
0000
0010
0001
0200
0000
0000
0000
0000
0000
0000
0000
,
0301
0100
0001
0100
0010
0000
0100
0001
0010
0000
0001
0000
0010
0100
1000
0001
,
0000
0000
1001
0000
1000
0010
0100
0001
1000
0000
1001
0000
0000
0000
0011
0000
,
1000
0100
1000
0100
0010
0000
0010
0000
0100
1000
0010
1000
0010
1000
0010
0100
,
0001
0000
1000
0000
1001
0000
0001
0010
0100
1000
0001
0000
1001
0000
0000
0000
,
1000
0100
0010
0100
1000
0100
0010
0100
1000
0010
0100
0010
2000
0000
0000
0000
,
3001
0100
0010
0100
0001
0100
0010
0100
0001
0010
0200
0000
1300
0010
0200
0000
,
0301
0100
0010
0100
0010
0000
1001
0000
0000
0000
1000
0010
0100
0001
0010
0100
,
2000
0000
3002
0000
,
1003
1000
0010
1000
0100
0100
0010
0001
,
0100
0100
0001
0010
0001
0001
0100
0010
,
1000
0000
1000
0000
0001
0000
0010
0000
0110
0000
0000
1100
0000
0000
1001
0000
,
1001
0000
0000
0101
0000
0000
0110
0000
0010
0000
1000
0000
0100
0010
0100
0010
,
0001
0100
0010
1000
1010
1000
0100
1000
,
1010
0010
0100
0001
0011
0001
0100
0010
,
1000
0001
1000
0001
1000
0001
1000
0001
0010
0100
0010
0100
0010
0100
0010
0100
,
1000
0001
0010
0001
1000
0010
1000
0001
0010
0001
1000
0010
1000
0100
0010
0001
,
2000
3020
0230
0302
,
0023
0230
2300
3002
,
1003
0100
1000
0000
1010
0000
0001
0100
0001
0000
0010
0000
0011
0000
1000
0100
,
1000
0000
0001
0000
1001
0000
0001
0100
0001
0000
1000
0000
1001
0000
1000
0100
,
0010
0100
1000
0000
1100
0000
0010
0001
0100
0001
0010
0000
1100
0000
0001
0100
,
0010
0100
0001
0000
0101
0000
0010
1000
0100
1000
0010
0100
2001
0000
0000
0000
,
3100
0010
0100
0010
0001
1000
0001
1000
,
0100
0001
0100
1000
0010
0001
0010
1000
,
0100
0010
0100
0010
0001
1000
0001
1000
,
0010
0001
0010
1000
0100
0001
0100
1000
,
0001
0100
0010
0000
1000
0010
1000
0000
0010
1000
0010
0000
1000
0010
1000
0000
,
0100
0010
0001
0000
0010
0001
0010
0000
0001
0010
0001
0000
0010
0001
0010
0000
,
0001
0100
0001
0100
0010
0100
0010
0100
0010
1000
0010
1000
0100
0010
0001
0100
,
M020
0000
M000
0000
,
M000
0000
0000
0000
0000
0000
0000
0000
1030
0000
0000
0000
0001
0000
0100
M00M
,
0100
0000
1000
0000
0010
M00M
0010
0000
0001
0000
0100
M00M
0100
0000
1000
0000
,
0010
0000
0001
0000
0010
0100
0010
0000
0001
0000
0010
0000
1000
0000
0100
0000
,
0001
0000
1000
0000
0010
0001
0010
0000
0001
0000
0100
0001
0100
0000
1000
0000
,
0100
0000
0001
0100
0010
1000
0100
0010
0100
0010
0001
1000
0010
0000
0100
M00M
,
0100
0000
1000
0000
0100
M00M
0100
0000
0001
0000
0010
M00M
0010
0000
0100
0000
,
0001
0000
0010
0000
0100
0010
0100
0000
1000
0000
0010
0000
0100
0000
0100
0000
,
0001
0000
0100
0000
1000
0000
0100
0000
0001
0000
1000
0100
0010
0000
0001
0100
,
0010
0000
0100
0010
1000
0100
0010
0001
1000
0100
0010
0001
1000
0000
0100
M00M
,
0100
0000
0001
0000
0010
M00M
0010
0000
1000
0000
0100
M00M
0100
0000
0001
0000
,
0010
0000
1000
0000
0010
0100
0010
0000
1000
0000
0010
0000
0001
0000
0100
0000
,
1000
0000
0001
0000
0010
1000
0010
0000
1000
0000
0100
1000
0100
0000
0001
0000
,
0100
0000
1000
0100
0010
0001
0100
0010
0100
0010
1000
0001
0020
0000
0001
0000
,
0001
0000
0001
0000
0230
0000
1000
0000
1000
0000
1300
0001
0200
0000
0001
0000
,
0001
0000
0301
1000
0100
1000
0100
0000
0010
0000
0001
0000
1000
0010
1000
0010
,
1000
0100
1000
0100
0010
0001
0010
0001
0100
0001
1000
0100
0020
0000
0000
0000
,
0000
0000
0031
0010
0100
1000
0001
0100
0010
1000
0100
0010
0001
0000
0000
0000
;

//---------------dance-single - ----------------
#NOTES:
     dance-single:
     :
     Medium:
     16:
     0.853820,1.146499,0.521049,0.229874,0.340980,780.000000,712.000000,68.000000,30.000000,3.000000,0.000000,0.853820,1.146499,0.521049,0.229874,0.340980,780.000000,712.000000,68.000000,30.000000,3.000000,0.000000:
0000
0000
0000
0000
,
0000
0000
0000
0000
,
0000
0000
0000
0000
,
0000
0000
0000
0000
,
0000
0000
0000
0000
,
0011
0000
0000
1001
0000
0000
0001
0101
,
0000
0000
0000
0000
,
1010
0000
0000
1001
0000
0000
1100
0100
,
0010
0000
0000
0011
0000
0000
1001
0000
2010
0000
0000
0000
3001
0000
0010
0000
,
0210
0000
1300
0100
0010
0001
0100
0010
,
1010
0000
0101
0000
1001
0000
1000
0100
,
0010
0000
0000
0000
0100
0000
1000
0001
1000
0001
1000
0000
0000
0000
0001
1000
,
0001
0000
0100
0000
0010
0000
1000
0000
0001
0010
0001
0000
1000
0010
1000
0000
,
0001
0001
0010
0100
1000
1000
0010
0100
,
0001
0001
0010
0100
1000
1000
0010
0100
,
0001
0010
1000
0001
0100
1000
0001
0010
,
2000
0000
0000
0000
0000
0000
0000
0000
3010
0000
0001
0000
0100
0010
0100
0010
,
0100
0000
0002
0000
,
0000
0000
0000
0000
1003
0010
0100
0001
,
0020
0000
0000
0000
,
0130
0000
0000
0000
1002
0000
0103
0001
,
1000
0100
0010
1000
0010
0100
1000
0010
,
0100
0000
1000
0000
0100
0000
0010
0000
1000
0000
0100
0000
0010
0100
0010
0000
,
0001
0010
0100
0001
0100
0010
0001
0100
,
0010
0000
0001
0000
0010
0000
0100
0000
0001
0000
0010
0000
0000
0100
0000
0000
,
1000
0100
0001
1000
0010
0001
1000
0010
,
0001
0000
1000
0000
0100
0000
0001
0000
1000
0000
0100
0000
0010
0100
0010
0000
,
0001
0000
1000
0000
0001
0000
1000
0000
0001
0100
0001
0000
1000
0100
1000
0000
,
0002
0000
0000
0000
0000
0000
0103
0001
,
1000
0100
0001
0100
1000
0010
0001
0010
,
1010
0000
0011
0000
1010
0000
0010
1000
,
0100
0000
0010
0000
0100
0000
1000
0010
1000
0010
1000
0000
0000
0000
0001
0010
,
0001
0000
0100
0000
0001
0000
0010
0000
0001
0100
0010
0000
1000
0100
0010
0000
,
0001
1000
0100
1000
0001
1000
0010
1000
,
1001
0000
0000
0000
0110
0000
0000
0000
0001
0000
0010
0000
0100
1000
0100
1000
,
0100
0000
0010
0110
0000
0011
0000
1010
,
0000
0100
0110
0000
1001
1001
0000
1000
,
0001
0100
1000
0100
0001
0010
1000
0010
,
0011
0000
1010
0000
0011
0000
0010
0001
,
0100
0000
0010
0000
0100
0000
0001
0010
0001
0010
0001
0000
0000
0000
1000
0010
,
1000
0000
0100
0000
1000
0000
0010
0000
1000
0100
0010
0000
0001
0100
0010
0000
,
1000
0001
0100
0001
1000
0001
0010
0001
,
0100
1000
0100
0001
0010
1000
0010
0001
,
0011
0000
1000
1100
0000
1001
0000
1010
,
0000
0001
0101
0000
2002
0000
3003
0000
,
0002
0010
0013
0200
0010
0310
0100
0101
,
0000
0101
0100
0010
0001
0001
0100
0010
,
2000
0010
3010
0200
0010
0310
0100
1100
,
0000
1100
0100
0010
1000
1000
0100
0010
,
0002
0100
0103
2000
0100
3100
0010
0110
,
0000
1001
1000
0010
0001
1000
0100
0001
,
0020
0100
0100
0130
0000
0110
0000
1000
,
0100
0001
1000
0010
0002
0000
0000
0000
,
1003
0010
1000
0000
0010
0000
0100
0010
0100
0000
0010
0000
1000
0010
1000
0000
,
0000
0000
1010
0000
0100
0010
0100
0000
0001
0000
1001
0000
0000
0000
1000
0000
,
0001
0010
0001
0000
0010
0000
0100
0000
0010
0100
0010
0000
0001
0010
0001
0000
,
0010
0000
0000
0000
0011
0000
0100
0010
0100
0000
1000
0000
1001
0000
0000
0000
,
1000
0000
0010
0000
0100
0000
0010
0000
1000
0000
0010
0000
0100
0001
0010
0000
,
0001
0000
0010
0000
0100
0000
0010
0000
0100
1000
0010
0000
0100
0001
0010
0000
,
0100
0010
0100
0000
0010
0000
0110
0000
0000
0000
0100
0010
0100
0010
0100
0000
,
2002
0000
3003
0000
,
1001
0000
0001
0010
0011
0000
1000
0010
,
1010
0000
0001
0100
0101
0000
1000
1100
,
1100
0000
0000
0000
0001
0000
0100
0000
0110
0000
0000
1010
0000
0000
0100
0000
,
0110
0000
0000
0011
0000
0000
0100
0000
0010
0000
0110
0000
0000
0000
1000
0001
,
1000
1000
0010
0100
1000
1000
0100
0001
,
0010
0010
0100
0001
0100
0100
0010
0001
,
1000
0010
0001
1000
0100
0001
1000
0010
,
0001
0000
1000
0000
0100
0000
0001
0000
1000
0010
0100
0001
1000
0000
0000
0000
,
0102
2003
3200
0320
,
0032
0203
0320
2030
,
3001
0000
0010
0000
0011
0000
0010
0001
1000
0000
0001
0000
1001
0000
1000
0001
,
0100
0000
0001
0000
0101
0000
0100
0001
1000
0000
0001
0000
1001
0000
1000
0001
,
0010
0001
0010
0000
0110
0000
0001
1000
0010
1000
0010
0000
0110
0000
1000
0010
,
0100
0001
0010
0000
0110
0000
0001
0010
0100
1000
0010
0000
1002
0000
0000
0000
,
1003
0010
1000
0010
1000
0001
1000
0001
,
1000
0100
0010
0100
0001
0100
0010
0100
,
1000
0001
1000
0001
1000
0010
1000
0010
,
0100
0010
0001
0010
0100
0010
1000
0001
,
1000
0100
0010
0000
0100
0000
0010
0000
0100
0000
0010
0000
0100
0000
0010
0000
,
0001
0100
0010
0000
0100
0000
0010
0000
0100
0000
0010
0000
0100
0000
0010
0000
,
1000
0010
1000
0000
0001
0010
0001
0000
1000
0010
0100
0000
0001
0010
0100
0000
,
002M
0000
000M
0000
,
000M
0000
0000
0000
0031
0000
1000
0100
,
1000
0100
0001
0100
0001
0100
0001
1000
,
0010
0000
0001
0000
0100
0010
0100
0000
1000
0000
0100
0000
0001
0000
0010
0000
,
1000
0000
0010
0000
0001
0010
0001
0000
1000
0000
0001
0100
0001
0000
1000
0000
,
0001
0000
1000
0010
1000
0010
1000
0000
0001
1000
0100
0000
0010
0000
0001
0000
,
0010
0001
0100
0001
0100
0001
0100
1000
,
0100
0000
0001
0000
0010
0100
0010
0000
1000
0000
0010
0000
0001
0000
0100
0000
,
0010
0000
1000
0000
0100
0000
0010
0000
0001
0000
1000
0001
1000
0000
0000
0000
,
1001
0000
1000
0000
0010
1000
0001
0000
0010
0001
1000
0000
0001
0000
0100
0000
,
0001
0100
1000
0100
1000
0100
1000
0001
,
0010
0000
1000
0000
0100
0010
0100
0000
0001
0000
0100
0000
1000
0000
0010
0000
,
0001
0000
0010
0000
1000
0010
1000
0000
0001
0000
1000
0100
1000
0000
0001
0000
,
1000
0000
0001
0010
0001
0010
0001
0000
1000
0001
0100
0000
0001
0000
0010
0000
,
0010
0000
0100
0000
1000
0000
0010
0000
0010
0000
1000
0010
1000
0000
0001
0000
,
1000
0000
0001
0010
0001
0000
1000
0000
0001
0000
0000
0000
1000
0010
1000
0000
,
0010
0100
0010
0000
0100
0001
0100
0000
0001
1000
0001
1000
0002
0000
0000
0000
,
0000
0000
1003
0100
1000
0100
1000
0100
0010
0001
1000
0100
0010
0000
0000
0000
;

//---------------dance-single - ----------------
#NOTES:
     dance-single:
     :
     Easy:
     13:
     0.592200,0.687899,0.436762,0.268187,0.045975,541.000000,484.000000,57.000000,35.000000,0.000000,0.000000,0.592200,0.687899,0.436762,0.268187,0.045975,541.000000,484.000000,57.000000,35.000000,0.000000,0.000000:
0000
0000
0000
0000
,
0000
0000
0000
0000
,
0000
0000
0000
0000
,
0000
0000
0000
0000
,
0000
0000
0000
0000
,
0001
0000
0000
0001
0000
0000
1000
0001
,
0000
0000
0000
0000
,
1000
0000
0000
1000
0000
0000
0001
1000
,
0100
0000
0000
0100
0000
0000
0100
0000
2002
0000
0000
0000
3003
0000
0000
0000
,
1001
0000
1000
0010
1000
0000
0001
0010
,
0001
0000
0010
0000
0100
0000
1000
0001
,
0100
0000
0001
1000
0100
0100
0000
0010
,
0100
0000
1000
0000
0001
0100
0010
1000
,
1001
0100
1001
0001
,
1001
1000
1001
0010
,
1000
0001
1000
0001
1000
0001
1000
0001
,
0020
0000
0000
0000
0130
0010
0100
1000
,
0010
0000
2000
0000
,
0000
0000
3100
0010
,
0002
0000
0000
0000
,
0013
0000
2002
3003
,
0001
0000
0100
0001
0000
0001
0010
0000
,
0100
0000
1000
0000
0000
0000
0001
0000
0000
0000
1000
0000
0000
0010
0000
0000
,
1000
0000
0100
1000
0000
1000
0010
0000
,
0100
0000
0001
0000
0000
0000
1000
0000
0000
0000
0001
0000
0000
0010
0000
0000
,
0001
0000
1000
0010
0000
0100
0001
0000
,
0010
0100
1000
0000
0001
0100
0010
0000
,
0100
0010
0100
0010
1000
0001
0100
0000
,
0220
0000
0000
0330
,
1001
0000
1000
0010
0100
0000
0001
0010
,
0100
0011
1001
1010
,
1001
0000
0001
0010
0100
0100
0000
0010
,
0001
0000
0010
0001
0100
0010
1000
0000
,
1001
0000
0001
0100
0010
0000
1000
0100
,
0010
0000
0100
0000
0010
0001
0100
0010
,
0100
0000
0010
0010
0000
1001
0000
1001
,
0000
0100
0100
0000
1001
1001
0000
0000
,
1001
0000
0001
0010
0100
0000
1000
0010
,
0100
1010
1001
0011
,
1001
0000
1000
0010
0100
0100
0000
0010
,
1000
0000
0010
1000
0100
0010
0001
0000
,
1001
0000
1000
0100
0010
0000
0001
0100
,
0010
1000
0100
0000
0011
0000
1100
0000
,
1001
0000
0000
1010
0000
0110
0000
0101
,
0000
0001
1000
0000
2002
0000
3003
0000
,
1002
0000
0000
0023
0000
0000
0031
0011
,
0000
1000
1100
0000
0001
0000
1000
0000
,
2001
0000
0000
3020
0000
0000
1030
1010
,
0000
0001
0100
0101
0000
1001
0000
1000
,
0100
0100
0000
1001
0000
0110
0000
1001
,
0000
0001
0100
0100
0000
0110
0000
1000
,
0010
0100
0001
0010
0000
0010
0000
0010
,
0001
0010
0100
1000
0020
0000
0000
0000
,
1030
0010
1000
0010
1000
0100
1000
0100
,
0000
1000
0100
0001
0100
1000
0000
0000
,
0001
0010
0001
0010
0001
0100
0001
0100
,
1000
0100
0001
0100
1000
0100
0001
0000
,
1000
0010
1000
0010
0001
0010
1000
0000
,
0001
0010
0001
0010
1000
0010
0001
0000
,
1000
0010
0100
0001
0000
0001
0010
0100
,
2000
0000
3000
0000
,
0002
0103
0200
1300
,
2000
0000
3010
0000
0020
0000
0031
0100
,
0100
0000
0000
0000
0001
0000
1000
0000
0100
0000
0000
1000
0000
0000
0001
0000
,
0100
0000
0000
0001
0000
0000
1000
0000
0100
0000
0100
0000
0000
0000
0100
0000
,
1001
0010
1001
0100
,
1010
0100
0011
0100
,
1000
0001
1000
0001
1000
0001
1000
0001
,
1000
0001
1000
0001
1000
0001
1000
0000
,
1002
0203
0320
2030
,
3002
0023
0230
2300
,
3001
0000
0101
0000
0010
0100
0101
0000
,
1000
0000
1100
0000
0010
0100
1100
0000
,
1000
0010
1010
0000
0010
0001
0011
0000
,
0001
0100
0101
0000
0100
1000
1100
0000
,
0002
0000
0100
0000
0103
0000
0010
1000
,
0010
0000
0100
0001
0100
0000
0001
0000
,
2000
0000
0100
0000
3100
0000
0010
0001
,
0010
0000
0100
1000
0100
0000
1000
0000
,
1001
0000
0100
0010
0100
0010
0100
0000
,
1001
0000
0001
0100
0010
1000
0100
0000
,
1000
0100
0010
0001
0100
0010
1000
0100
,
0020
0000
0000
0000
,
0000
0000
0000
0000
0030
0000
0001
0010
,
0001
0000
0001
0100
0000
0100
1000
0000
,
0100
0000
0001
0000
0000
0010
0000
0000
0001
0000
0010
0000
0100
0000
0010
0000
,
0100
0000
1000
0000
0000
0010
0000
0000
0100
0000
0000
0010
0000
0000
1000
0000
,
0000
0001
0010
0100
1000
0000
0001
0100
,
0010
0000
1000
0100
0000
0010
0001
0000
,
1000
0000
0010
0000
0000
1000
0000
0000
0010
0000
0100
0000
0001
0000
0010
0000
,
1000
0010
0000
0001
0010
1000
0010
0001
,
2000
0000
3020
0000
0130
0001
1000
0010
,
1000
0000
1000
0100
0000
0100
0001
0000
,
0100
0000
1000
0000
0000
0010
0000
0000
1000
0000
0010
0000
0100
0000
0010
0000
,
0100
0000
0001
0000
0000
0010
0000
0000
0100
0000
0000
0010
0000
0000
0001
0000
,
0000
1000
0010
0100
0001
0000
0010
0001
,
0010
0001
0010
0001
0100
0000
0010
1000
,
0010
1000
0010
1000
0100
0000
0010
0001
,
0100
0010
1000
0100
0010
0001
0200
0000
,
0000
0000
0000
0300
;

//---------------dance-single - ----------------
#NOTES:
     dance-single:
     :
     Beginner:
     9:
     0.361231,0.458600,0.206887,0.268187,0.000000,330.000000,303.000000,27.000000,35.000000,0.000000,0.000000,0.361231,0.458600,0.206887,0.268187,0.000000,330.000000,303.000000,27.000000,35.000000,0.000000,0.000000:
// measure 0
0000
0000
0000
0000
,  // measure 1
0000
0000
0000
0000
,  // measure 2
0000
0000
0000
0000
,  // measure 3
0000
0000
0000
0000
,  // measure 4
0000
0000
0000
0000
,  // measure 5
1000
0000
0000
1000
0000
0000
1000
0000
,  // measure 6
0000
0000
0000
0000
,  // measure 7
0001
0000
0000
0001
0000
0000
0001
0000
,  // measure 8
1000
0000
2002
3003
,  // measure 9
1000
1000
0010
0010
,  // measure 10
1000
0100
0010
0001
,  // measure 11
0100
0100
0001
0001
,  // measure 12
0010
0100
1000
0001
,  // measure 13
0100
0100
0010
0010
,  // measure 14
1000
1000
0001
0001
,  // measure 15
0010
0100
0010
0100
,  // measure 16
1000
0001
0100
0010
,  // measure 17
2002
0000
0000
0000
,  // measure 18
0000
0000
0000
0000
,  // measure 19
0000
0000
0000
0000
,  // measure 20
3003
0000
0000
0000
,  // measure 21
1000
0100
1000
0001
,  // measure 22
1000
0100
1000
0010
,  // measure 23
1000
0100
1000
0001
,  // measure 24
0100
0010
1000
0000
,  // measure 25
0001
0100
0001
1000
,  // measure 26
0001
0100
0001
0010
,  // measure 27
0100
0100
0010
0010
,  // measure 28
2002
0000
3003
0000
,  // measure 29
1000
1000
0010
0010
,  // measure 30
0100
0001
0010
0100
,  // measure 31
1000
0100
0001
0000
,  // measure 32
0001
0100
1000
1000
,  // measure 33
0001
0001
0100
0100
,  // measure 34
0010
1000
0100
0010
,  // measure 35
0002
0000
0000
1000
0000
1000
0000
2003
,  // measure 36
0000
3001
2002
3003
,  // measure 37
0001
0001
0010
0010
,  // measure 38
0100
1000
0010
0100
,  // measure 39
0001
0100
1000
0000
,  // measure 40
1000
0100
0001
0001
,  // measure 41
1000
1000
0100
0100
,  // measure 42
0010
0001
1000
0010
,  // measure 43
0200
0000
0000
0010
0000
0010
0000
0320
,  // measure 44
0000
2030
0002
3003
,  // measure 45
1002
0000
0000
0023
0000
0000
0031
0000
,  // measure 46
0000
0011
1100
0000
,  // measure 47
2001
0000
0000
3020
0000
0000
1030
0000
,  // measure 48
0000
1010
0101
0000
,  // measure 49
1002
0000
0000
0013
0000
0001
0000
1001
,  // measure 50
0000
1010
0101
0000
,  // measure 51
2001
0000
0000
3010
0000
1000
0000
1001
,  // measure 52
0000
0011
2000
0000
,  // measure 53
3001
0100
1000
0100
,  // measure 54
0001
0100
0110
0000
,  // measure 55
1000
0100
0001
0100
,  // measure 56
1000
0100
0110
0000
,  // measure 57
0001
0010
1000
1000
,  // measure 58
0010
0001
1000
1000
,  // measure 59
0010
0001
0010
1000
,  // measure 60
0002
0000
0003
0000
,  // measure 61
1001
0000
0011
0000
,  // measure 62
1001
0000
1010
0000
,  // measure 63
1001
0000
0100
0000
,  // measure 64
0100
0000
0100
0100
,  // measure 65
0001
0001
1000
1000
,  // measure 66
0100
0100
0010
0010
,  // measure 67
0001
1000
0001
1000
,  // measure 68
0001
1000
0001
1000
,  // measure 69
2002
0000
3003
0000
,  // measure 70
0200
0000
0300
0000
,  // measure 71
0001
0010
0100
0010
,  // measure 72
0100
1000
0010
0100
,  // measure 73
0010
0100
0001
0010
,  // measure 74
0100
1000
0010
0100
,  // measure 75
0001
0000
0010
0000
,  // measure 76
0001
0010
0001
0000
,  // measure 77
1000
0000
0010
0000
,  // measure 78
1000
0010
1000
0000
,  // measure 79
0100
0010
0100
0010
,  // measure 80
0001
1000
0001
1000
,  // measure 81
0010
0100
0001
1000
,  // measure 82
0200
0000
0000
0000
,  // measure 83
0000
0000
0300
1000
,  // measure 84
0100
1000
0100
0001
,  // measure 85
0100
0001
0100
1000
,  // measure 86
0010
0001
0010
1000
,  // measure 87
0010
0100
0100
0001
,  // measure 88
0010
0001
0010
1000
,  // measure 89
0010
1000
0010
0001
,  // measure 90
0100
0010
1000
0100
,  // measure 91
0020
0032
2003
3001
,  // measure 92
0100
0001
0100
1000
,  // measure 93
0100
1000
0100
0001
,  // measure 94
0010
1000
0010
0001
,  // measure 95
0010
0100
0100
2002
,  // measure 96
3003
0010
1000
2002
,  // measure 97
3003
0010
0001
0100
,  // measure 98
1000
0100
0001
0010
,  // measure 99
0000
0002
2000
3003
;
