#TITLE:Deserts of Mars;
#SUBTITLE:;
#ARTIST:Bazz;
#TITLETRANSLIT:;
#SUBTITLETRANSLIT:;
#ARTISTTRANSLIT:;
#GENRE:;
#CREDIT:;
#MUSIC:week 4 song.ogg;
#BANNER:;
#BACKGROUND:;
#CDTITLE:;
#SAMPLESTART:54.763;
#SAMPLELENGTH:12.000;
#SELECTABLE:YES;
#OFFSET:-0.218;
#BPMS:0.000=110.000
,189.250=55.000
,190.125=110.000
;
#STOPS:187.500=0.273
,190.000=0.341
;
#BGCHANGES:0.000=00.mp4=1.000=1=0=1===CrossFade==,
254.000=00.mp4=1.000=0=0=1=Visualization2File=deserts_of_marsbg.png=CrossFade_Fastest==,
99999.000=-nosongbg-=1.000=0=0=0=StretchNoLoop====
;
#FGCHANGES:;

//--------------- dance-single - ----------------
#NOTES:
     dance-single:
     :
     Challenge:
     15:
     0.541987,0.570967,0.293943,0.608393,0.454586,555,512,43,89,22,0,0.541987,0.570967,0.293943,0.608393,0.454586,555,512,43,89,22,0:
0000
0000
0000
0000
,
0000
0000
0000
0000
,
0000
0000
0000
0000
,
0000
0000
0000
0000
,
2000
0000
0000
0000
0000
0000
0000
0000
0001
0000
0000
0000
0000
0000
0000
0000
3000
0000
0000
0000
0010
0000
1000
0000
0001
0000
0000
0000
0010
0001
0000
0000
,
2000
0000
3001
0200
0000
0310
0000
1000
,
0002
0000
0000
0000
0103
0000
0020
0000
0000
0030
0001
0010
0100
0000
0002
0000
,
1000
0000
0000
0000
0000
0000
0000
0000
0003
0000
0000
0000
0100
0000
0001
0000
1000
0000
0000
0000
0100
0000
0000
0000
0100
0010
0000
0000
0001
0000
0000
0000
,
21M0
0000
3000
0000
0002
0000
0003
0000
1000
0000
0100
0010
0001
0000
1000
0000
,
1020
0000
0000
0000
0030
0000
0000
0000
0M01
0000
0000
0000
0020
0000
0000
0000
0130
0000
0000
0000
1000
0010
0000
0000
00M1
0000
0000
0000
1000
0000
0000
0000
,
0110
0000
0000
0000
M010
0000
0010
0000
2001
0000
0000
0000
3000
0000
0000
0000
002M
0000
0000
0000
1030
0000
0100
0000
0010
0000
0000
0000
0001
1000
0000
0000
,
0102
0000
0000
0000
0000
0000
0003
0000
0000
0000
0000
0000
0M10
0000
0000
0000
0000
0000
1000
0000
0000
0100
0000
0000
0010
0000
0000
0000
0000
0000
0001
0000
0000
0000
0000
0000
4000
0000
0040
0000
0000
0000
0000
0000
0000
0000
3000
0000
,
0130
0000
0000
0000
0000
0000
0000
0000
1001
0000
0000
0000
0000
0000
0000
0000
001M
0000
0000
0000
0100
0000
1000
0000
0001
0000
0000
0000
0100
0010
0000
0000
,
0210
0000
0000
0000
0300
0000
0000
0000
0001
0000
0000
0000
2000
0000
0000
0000
3010
0000
0000
0000
00M1
1000
0000
0000
1001
0000
0000
0000
0100
0000
0000
0000
,
0M02
0000
0103
0100
1001
0000
2000
0000
3010
0000
0100
0001
0010
0000
20M0
0000
,
3001
0000
0000
0000
0000
0000
0000
0000
1001
0000
0000
0000
1000
0000
0001
0000
0010
0000
0000
0000
0100
0000
0000
0000
0100
1000
0000
0000
0001
0000
0000
0000
,
0201
0000
0000
0000
0300
0000
0000
0000
2010
0000
0000
0000
3000
0000
0000
0000
0001
0000
0000
0000
0010
0000
0100
0000
1000
0000
0000
0000
M100
0001
0000
0000
,
0021
0000
0000
0000
0030
0000
0000
0000
1000
0000
0000
0000
0020
0000
0000
0000
0130
0000
0000
0000
0001
1000
0000
0000
0110
0000
0000
0000
1000
0000
0000
0000
,
0012
0000
0000
0000
01M3
0000
0100
0000
1002
0000
0000
0000
0003
0000
0000
0000
2000
0000
0000
0000
3100
0000
0M01
0000
1000
0000
0000
0000
M010
0001
0000
0000
,
0102
0000
0000
0000
0000
0000
0003
0000
0000
0000
0000
0000
1000
0000
0000
0000
0000
0000
0100
0000
0000
0010
0000
0000
0001
0000
0000
0000
0000
0000
1000
0000
0000
0000
0000
0000
4000
0000
0040
0000
0000
0000
0000
0000
0000
0000
3000
0000
,
1030
0000
0000
0000
0000
0000
0000
0000
2100
0000
0000
0000
0000
0000
0000
0000
3001
0000
0000
0000
1000
0000
0100
0000
0010
0000
0000
0000
0001
1000
0000
0000
,
0200
0000
0000
0000
0300
0000
0000
0000
0010
0000
0000
0000
0002
0000
0000
0000
1003
0000
0000
0000
0010
0100
0000
0000
0001
0000
0000
0000
1000
0000
0000
0000
,
2001
0000
3010
0010
0001
0000
2000
0000
3010
0000
00M1
1000
0010
0000
00M1
0000
,
2000
0000
0000
0000
3000
0000
0000
0000
1010
0000
0000
0000
0001
0000
0100
0000
0001
0000
0000
0000
1000
0000
0000
0000
0100
0010
0000
0000
0001
0000
0000
0000
,
2001
0000
3000
0000
0001
0000
0200
0000
0310
0000
0010
1000
0001
0000
1000
0000
,
2000
0100
0000
3100
0010
0000
0002
0000
1003
0000
0010
0100
1000
0000
0100
0000
,
0001
0010
0100
1000
0001
0010
0001
0010
0200
0000
1300
0001
1000
0000
0100
0000
,
0020
0000
0000
0000
0000
0000
0100
0000
0000
0000
0000
0000
0000
0000
0000
0000
0000
0000
0130
0000
0000
0000
0000
0000
1000
0000
0000
0000
0000
0000
0000
0000
0000
0000
0000
0000
0002
0000
0000
0000
0000
0000
0000
0000
0000
0000
0000
0000
0103
0000
0000
0000
0000
0000
0000
0000
0000
0000
0000
0000
0001
0000
0000
1000
0000
0000
0000
0000
0000
0000
0000
0000
0040
0000
0000
0000
0400
0000
0000
0000
0000
0000
0000
0000
0000
0000
0000
0000
0000
0000
0000
0000
0030
0000
0000
0000
,
0301
0000
0000
0000
1000
0000
0000
0000
0110
0000
0000
0000
0002
0000
0000
0000
1003
0000
0000
0000
1000
0000
0100
0000
0010
0000
0000
0000
0001
0100
0000
0000
,
2M00
0001
3000
0001
1000
0000
0200
0000
0310
0000
0001
0000
1010
0000
0001
0000
,
1000
0010
0100
0010
1000
0100
0010
0001
0200
0000
0301
0010
0001
0000
2000
0000
,
3010
0000
0000
0000
1010
0000
0001
0100
0001
0000
1000
0000
0110
0000
0001
0000
,
2001
0010
0001
3001
,
0201
0000
0301
2000
0010
0000
3010
0000
,
1200
1000
0010
0310
,
0120
0000
0031
0002
0010
0000
0013
0000
,
0201
0001
0010
0310
,
2010
0000
3001
0200
0010
0000
0310
0000
,
1020
0000
1030
0002
0100
0000
0103
0002
,
0010
0010
0010
0013
,
0021
0000
0000
0000
0030
0001
1000
0000
0001
0000
0000
0010
0000
0000
0100
0000
,
2000
0000
0000
3000
0010
1000
0010
0000
0100
0000
0000
0100
0001
1000
0100
0010
,
0002
0000
0000
0000
0003
0100
0001
0000
1000
0000
0000
0010
0000
0000
1000
0000
,
0200
0000
0000
0000
0310
0001
0010
0000
0001
0000
0000
1000
0010
0100
0010
1000
,
0002
0000
0000
0000
0103
0010
0100
0000
1000
0000
0000
0100
0000
0000
0001
0000
,
0020
0000
0000
0000
0130
1000
0100
0010
0100
0000
0000
1000
0100
0000
0010
0001
,
0200
0000
0000
0300
1000
0100
0010
0100
0002
0000
0000
0013
0100
0000
2002
0000
,
0000
0000
0000
0000
3003
0110
1001
0001
,
1000
0000
0100
0010
0001
0000
0001
1000
0020
0100
0030
0100
0001
0000
2000
0000
,
3100
0000
0M01
0000
1100
0000
0001
0000
0010
0100
0010
0100
1000
0010
0100
0001
,
2000
0000
0000
0000
3001
0000
0010
0000
0100
0000
0000
0000
1000
0001
0000
0000
0200
0000
0010
0000
0000
0000
0310
0000
1000
0000
0000
0000
0002
0000
0000
0000
,
0013
0000
0000
0000
0000
0000
0100
0000
0000
0000
0000
0000
4000
0000
0004
0000
0000
0000
0000
0000
0000
0000
3000
0000
1003
0000
0000
0000
0000
0000
1000
0000
0000
0100
0000
0000
0001
0000
0000
0000
0000
0000
0001
0000
0000
0100
0000
0000
,
1000
0000
1000
0010
0001
0000
0001
0010
2000
0100
0000
3100
0010
0000
0002
0000
,
1003
0000
0001
0000
0101
0000
1000
0000
0001
0100
0010
1000
0001
0010
0001
1000
,
0010
0000
0100
0001
1000
0000
0020
0000
0100
0000
0030
0000
0110
0000
0001
1000
,
0001
0000
0000
0000
0010
0000
0000
0000
0100
1000
0000
0000
0001
0000
0000
0000
2100
0000
0000
0000
3001
0000
0100
0000
0010
0000
0000
0000
2000
0000
0000
0000
,
3001
0000
0000
0000
0010
0000
0100
0000
1000
0000
0000
0000
0200
0010
0300
0000
0002
0000
1000
0000
0000
0000
1003
0000
0001
0000
0000
0000
0200
0000
0000
0000
,
0310
0000
0000
0000
1000
0100
0000
0000
0M01
0000
0000
0000
2000
0000
0000
0000
3001
0000
0100
0000
0001
0000
1000
0000
0010
0000
0100
0000
0010
0000
1000
0000
,
0200
0000
0000
0000
0310
0000
0001
0000
1000
0000
0000
0000
0010
0100
0000
0000
0002
0000
0010
0000
0000
0000
0013
0000
0001
0000
0000
0000
1000
0000
0100
0000
,
0010
0000
0000
0000
0000
0000
0001
0000
0000
0000
0000
0000
0400
0000
0040
0000
0000
0000
0000
0000
0000
0000
0300
0000
2030
0000
0000
0000
0000
0000
3001
0000
0000
0100
0000
0000
0010
0000
0000
0000
0000
0000
00M2
0000
0000
0000
0000
0000
,
1003
0100
0010
0000
20M0
0000
3000
1000
0002
0100
0000
0103
0001
0000
0020
0000
,
0130
0000
0000
0000
1000
0001
0000
0000
1001
0000
0000
0000
M100
0000
0000
0000
0001
0000
1000
0000
0100
0000
0010
0000
0001
0000
0100
0000
0001
0000
1000
0000
,
0010
0000
0100
0001
0100
0000
0020
0000
1030
0000
0000
0000
1010
0000
0010
1000
,
0001
0000
0000
0000
0010
0000
0000
0000
0010
0100
0000
0000
1000
0000
0000
0000
2001
0000
0000
0000
0000
0000
0000
0000
0000
0000
0000
0000
0000
0000
0000
0000
,
0000
3000
0000
0000
;
