#VERSION:0.83;
#TITLE:Dawn Saga;
#SUBTITLE:;
#ARTIST:Nhato;
#TITLETRANSLIT:;
#SUBTITLETRANSLIT:;
#ARTISTTRANSLIT:;
#GENRE:;
#ORIGIN:;
#CREDIT:;
#BANNER:Dawn Saga.png;
#BACKGROUND:Dawn Saga-bg.png;
#PREVIEWVID:;
#JACKET:Dawn Saga-jacket.png;
#CDIMAGE:;
#DISCIMAGE:;
#LYRICSPATH:;
#CDTITLE:;
#MUSIC:Dawn Saga.ogg;
#OFFSET:-0.001000;
#SAMPLESTART:36.324326;
#SAMPLELENGTH:12.972973;
#SELECTABLE:YES;
#BPMS:0.000=185.000,
192.000=92.500,
208.000=185.000,
246.000=92.500,
247.000=185.000,
311.000=92.500;
#STOPS:;
#DELAYS:;
#WARPS:;
#TIMESIGNATURES:0.000=4=4;
#TICKCOUNTS:0.000=4;
#COMBOS:0.000=1;
#SPEEDS:0.000=1.000=0.000=0;
#SCROLLS:0.000=1.000;
#FAKES:;
#LABELS:0.000=Song Start;
#BGCHANGES:0.000=Dawn Saga.avi=1.000=1=0=1===CrossFade==,
99999=-nosongbg-=1.000=0=0=0 // don't automatically add -songbackground-
;
#KEYSOUNDS:;
#ATTACKS:
;

//---------------dance-single - ----------------
#NOTEDATA:;
#CHARTNAME:;
#STEPSTYPE:dance-single;
#DESCRIPTION:;
#CHARTSTYLE:;
#DIFFICULTY:Hard;
#METER:16;
#RADARVALUES:0.706351,0.983395,0.290362,0.871087,0.933308,596.000000,561.000000,35.000000,105.000000,0.000000,0.000000,2.000000,0.000000,0.000000,0.706351,0.983395,0.290362,0.871087,0.933308,596.000000,561.000000,35.000000,105.000000,0.000000,0.000000,2.000000,0.000000,0.000000;
#CREDIT:Pandemonium X;
#NOTES:
// measure 0
0000
0000
0000
0000
,  // measure 1
0000
0000
0000
0000
,  // measure 2
0000
0000
0000
0000
,  // measure 3
0000
0000
0000
0000
,  // measure 4
0000
0000
0000
0000
,  // measure 5
0000
0000
0000
0000
,  // measure 6
0000
0000
0000
0000
,  // measure 7
0000
0000
0000
1000
,  // measure 8
0201
0000
0310
1000
0200
0000
0310
0001
,  // measure 9
0200
0000
0010
0000
0310
0000
0100
0001
,  // measure 10
2000
0000
3100
0010
0002
0000
0023
0000
,  // measure 11
0130
0000
1000
0000
0110
0000
0001
0100
0010
0000
0100
0000
1001
0000
0000
0000
,  // measure 12
1000
0001
0200
0000
0320
0000
1000
0000
,  // measure 13
0130
0010
0010
1000
0001
0010
0100
0000
,  // measure 14
2001
0000
0000
0000
,  // measure 15
0002
0000
0000
3003
,  // measure 16
0110
0001
0110
1000
,  // measure 17
1001
0000
1000
0000
0001
0000
0110
0000
0001
0000
0100
0000
,  // measure 18
0010
0000
0000
0000
1000
0000
0000
0000
0010
0000
0000
0000
0100
0000
0000
0000
0001
0000
0000
0000
0100
0000
0000
0000
0001
0000
0000
0000
0010
0000
0000
0000
0001
0000
0000
0000
1000
0000
0000
0001
0000
0000
1000
0000
0000
0001
0000
0000
,  // measure 19
0020
0000
0230
0000
,  // measure 20
1300
0100
1000
0100
1000
0100
0010
0100
0010
0100
0010
0100
,  // measure 21
0010
0001
0010
0001
0010
0001
1000
0010
0100
0001
1000
0010
,  // measure 22
0100
0001
0100
0001
0100
0001
1000
0001
1000
0001
1000
0001
,  // measure 23
1000
0100
1000
0100
1000
0100
1000
0100
1000
0100
1000
0100
,  // measure 24
1000
0010
1000
0010
1000
0010
0100
0001
0100
0001
0100
0001
,  // measure 25
0010
0001
0010
0001
0010
0001
1000
0001
1000
0001
1000
0001
,  // measure 26
1000
0010
1000
0010
1000
0010
0100
0001
0100
0001
0100
0001
,  // measure 27
0010
0001
0010
0001
0010
0001
2000
0000
0000
0000
0000
0000
,  // measure 28
3002
0000
0000
0013
0100
1000
0200
0000
0000
0310
0001
0010
,  // measure 29
0200
0000
0000
0010
0000
0000
0310
0000
0200
0000
2300
0000
,  // measure 30
3002
0000
0000
0013
0100
1000
0020
0000
0000
0130
0010
1000
,  // measure 31
0002
0010
0100
0023
,  // measure 32
0230
0000
0000
0310
0001
0100
0020
0000
0000
1000
0000
0000
,  // measure 33
0100
0000
0000
0130
0001
1000
0100
1000
0001
0010
0100
1000
,  // measure 34
0002
0000
0000
0010
0000
0000
1000
0000
0000
0013
0001
0020
,  // measure 35
0200
0000
0000
0000
0000
0000
0000
0330
,  // measure 36
1001
0000
0000
0000
0000
0000
0000
0000
0000
0000
0000
0000
0000
0000
0000
0000
0000
0000
0000
0000
0000
0000
0000
0000
2010
0000
0000
0000
0000
0000
0000
3000
2100
0000
0000
0000
0000
0000
0000
3000
2010
0000
0000
0000
0000
0000
0000
3000
,  // measure 37
2001
0000
0000
0000
0000
0000
0000
3000
2100
0000
0000
0000
0000
0000
0000
3000
2010
0000
0000
0000
0000
0000
0000
3000
2001
0000
0000
0000
0000
0000
0000
3000
2100
0000
0000
0000
0000
0000
0000
3000
2010
0000
0000
0000
0000
0000
0000
0000
,  // measure 38
3001
0000
0010
0001
0100
0001
1000
0100
0010
0002
0000
1003
,  // measure 39
0002
0000
0203
0000
2300
0000
3200
0000
0310
1000
0001
1000
,  // measure 40
0010
0000
0000
0000
0100
0000
0000
0000
0010
0000
0000
0000
1000
0000
0000
0000
0001
0000
0000
0000
0100
0000
0000
0000
0102
0000
0000
0000
0000
0000
0000
0003
0012
0000
0000
0000
0000
0000
0000
0003
1002
0000
0000
0000
0000
0000
0000
0003
,  // measure 41
0102
0000
0000
0000
0000
0000
0000
0003
1002
0000
0000
0000
0000
0000
0000
0003
0012
0000
0000
0000
0000
0000
0000
0003
0102
0000
0000
0000
0000
0000
0000
0003
1002
0000
0000
0000
0000
0000
0000
0003
0012
0000
0000
0000
0000
0000
0000
0000
,  // measure 42
0103
0010
1000
0010
0100
0001
1000
0100
0010
0002
0000
0000
,  // measure 43
0023
0000
0032
2003
,  // measure 44
3010
0100
0010
0100
0010
0100
0010
0100
,  // measure 45
0010
0100
0010
0100
0010
0100
0010
0100
,  // measure 46
0010
0100
0001
1000
0010
0100
0001
1000
,  // measure 47
0004
4000
0000
0000
0000
0000
0000
0000
0000
0000
0000
0000
0000
0000
0000
3003
,  // measure 48
0210
0000
0000
0310
2000
0000
0000
3100
2000
0000
0001
0000
3001
0000
1000
0010
,  // measure 49
0200
0000
0000
0301
0200
0000
0302
0000
0023
0000
0100
0000
0100
0000
0032
0000
,  // measure 50
2003
0000
3010
1000
0200
0000
0010
0000
0010
0000
0310
1000
0010
0001
0100
0000
,  // measure 51
0020
0000
0000
0000
0100
0000
0000
0000
1000
0000
0000
0000
0130
0000
0001
0000
1000
0000
1000
0000
1001
0000
0001
0100
0000
0010
1000
0000
1100
0000
0100
0000
,  // measure 52
0110
0000
0100
1000
0020
0000
0130
0001
,  // measure 53
2000
0000
0100
0000
3100
0000
0010
0100
,  // measure 54
2000
0000
3100
1000
0020
0000
0230
0000
,  // measure 55
0301
0000
0010
0000
0110
0000
0100
0010
0000
0001
1000
0000
0110
0000
0000
0000
,  // measure 56
0001
0100
0020
0000
2030
0000
0001
0000
,  // measure 57
3100
0010
0010
0001
1000
0010
0200
0000
,  // measure 58
0320
0000
1000
0000
0100
0000
1030
0001
,  // measure 59
0202
0000
0000
0300
,  // measure 60
2003
0000
3100
0020
0000
0130
2000
0000
3100
0020
0000
0130
2000
0000
3010
0000
,  // measure 61
0100
0010
1000
0001
0010
0100
1000
0001
0200
0000
0000
0000
0301
0000
0000
0010
,  // measure 62
0000
0000
0100
0000
0000
0010
0000
0000
0001
0010
0001
0100
0001
0000
0000
1000
,  // measure 63
0000
0000
0100
0000
0010
0100
0010
0100
0010
0100
0010
0100
0010
0000
0000
0001
,  // measure 64
0000
0000
1000
0000
0000
0100
0000
0000
0010
0100
0010
0001
0010
0000
0000
0001
,  // measure 65
0000
0000
1000
0000
1002
0000
0000
0000
1003
0100
0010
0001
1000
0000
0000
0010
,  // measure 66
0000
0000
1000
0000
0000
0100
0000
0000
0010
0100
1000
0100
0010
0000
0000
0100
,  // measure 67
0000
0000
1000
0000
0001
0000
0000
0100
0010
1000
0001
0010
0100
0000
0000
0100
,  // measure 68
0000
0000
0010
0000
0000
0010
0000
0000
0100
0010
0001
0010
0100
1000
0010
0100
,  // measure 69
0010
1000
0010
0100
0001
0010
0100
0010
0001
0100
0010
0100
0002
0000
0000
0000
,  // measure 70
1003
0100
0010
0100
2000
0000
0000
0000
3001
0010
0100
0010
0002
0000
0000
0000
,  // measure 71
0100
0000
0000
0000
0010
0000
0000
0000
1003
0001
0010
0100
0020
0000
0000
0000
,  // measure 72
0130
0001
0010
0100
0020
0000
0000
0000
0130
1000
0100
0010
0200
0000
0000
0000
,  // measure 73
0010
1000
0320
0032
,  // measure 74
0013
0100
1000
0100
0020
0000
0000
0000
0001
0000
0000
0000
0100
0000
0000
0000
,  // measure 75
0031
0010
0100
0010
0001
0100
0010
1000
0001
0000
0000
0000
1000
0000
0000
1000
,  // measure 76
0000
0000
0000
0000
0000
0000
0001
0000
0000
0000
0000
0000
0000
0000
0000
0001
0000
0000
0000
0000
0000
0000
0000
0000
0100
0000
0000
0010
0000
0000
1000
0000
0000
0001
0000
0000
0010
0000
0000
0000
0100
0000
0000
0000
1000
0000
0000
0000
,  // measure 77
0100
0000
0000
0000
0001
0000
0000
0000
0100
0000
0000
0000
1000
0000
0000
0000
0010
0000
0000
0000
0001
0000
0000
0000
0010
0000
0000
0000
1000
0000
0000
0000
0001
0000
0000
0000
2000
0000
0000
0000
0000
0000
0000
0000
0000
3100
0000
0000
,  // measure 78
2000
0000
0000
3100
0020
0000
0000
0000
0000
0000
0130
0010
0002
0000
0000
0013
,  // measure 79
0200
0000
0320
0000
0032
0000
0000
0000
1003
0001
0200
0000
0310
1000
0200
0000
,  // measure 80
0020
0000
0000
0000
0330
0100
0010
0001
1000
0010
0100
0000
0020
0000
0000
0000
,  // measure 81
0000
0000
0130
0002
2000
0000
0000
0000
0000
0000
0000
0000
3003
0000
0000
0000
;

//---------------dance-single - ----------------
#NOTEDATA:;
#CHARTNAME:;
#STEPSTYPE:dance-single;
#DESCRIPTION:;
#CHARTSTYLE:;
#DIFFICULTY:Medium;
#METER:12;
#RADARVALUES:0.468135,0.678204,0.066369,0.796423,0.481172,395.000000,387.000000,8.000000,96.000000,0.000000,0.000000,0.000000,0.000000,0.000000,0.468135,0.678204,0.066369,0.796423,0.481172,395.000000,387.000000,8.000000,96.000000,0.000000,0.000000,0.000000,0.000000,0.000000;
#CREDIT:Pandemonium X;
#NOTES:
// measure 0
0000
0000
0000
0000
,  // measure 1
0000
0000
0000
0000
,  // measure 2
0000
0000
0000
0000
,  // measure 3
0000
0000
0000
0000
,  // measure 4
0000
0000
0000
0000
,  // measure 5
0000
0000
0000
0000
,  // measure 6
0000
0000
0000
0000
,  // measure 7
0000
0000
0000
1000
,  // measure 8
0201
0000
0000
0301
0020
0000
0000
0031
,  // measure 9
0200
0000
0000
0000
0000
0000
0310
1000
,  // measure 10
0200
0000
0000
0310
0200
0000
0320
0000
,  // measure 11
0032
0000
0000
0000
1003
0100
0010
0000
,  // measure 12
0100
1000
0002
0000
0023
0000
0000
0000
,  // measure 13
0000
0031
0100
1000
0100
0010
2000
0000
,  // measure 14
3002
0000
0000
0000
,  // measure 15
2000
0000
0000
3003
,  // measure 16
0001
1100
0001
1010
,  // measure 17
0001
0000
0010
0000
0001
0000
0100
0000
0001
0000
1000
0000
,  // measure 18
0001
0000
0001
0100
0000
0100
0010
0000
0010
1000
0000
1000
,  // measure 19
0200
0000
0310
0000
,  // measure 20
1000
0000
1000
0001
0000
0001
0100
0000
0100
0001
0000
0001
,  // measure 21
0010
0000
0100
0010
0000
0001
0100
0000
0010
1000
0000
0100
,  // measure 22
0010
0000
0100
1000
0000
0100
0010
0000
0100
1000
0000
0001
,  // measure 23
0100
0000
0100
0010
0000
0010
1000
0000
1000
0001
0000
0001
,  // measure 24
0010
0000
0010
0001
0000
0001
0100
0000
0100
0001
0000
0001
,  // measure 25
1000
0000
1000
0010
0000
0010
0100
0000
0100
0001
0000
0001
,  // measure 26
1000
0000
1000
0100
0000
1000
0001
0000
0001
0100
0000
0100
,  // measure 27
0010
0000
0100
0001
0000
0010
0200
0000
0000
0000
0000
0000
,  // measure 28
1300
0000
0000
0000
0100
0000
0020
0000
0000
0000
0031
0000
,  // measure 29
0200
0000
0000
0000
0000
0000
0000
0000
0310
0000
1000
0000
,  // measure 30
0002
0000
0000
0000
1003
0000
0200
0000
0000
0000
0310
0000
,  // measure 31
0200
0000
0000
0000
0000
0000
0000
0000
0000
0000
0310
0000
,  // measure 32
0002
0000
0000
0003
0100
0010
2000
0000
0000
0000
0000
0000
,  // measure 33
0000
0000
0000
0000
3100
1000
0010
0000
0100
0000
0010
0000
,  // measure 34
2000
0000
0000
0000
0000
0000
0000
0000
0000
0000
3001
0010
,  // measure 35
0100
0000
0010
0001
0000
1000
0100
0000
0010
0001
0000
1000
,  // measure 36
0010
0000
0000
0000
0000
0000
0200
0000
0302
0000
0023
0000
,  // measure 37
2030
0000
3020
0000
0032
0000
0203
0000
2300
0000
3200
0000
,  // measure 38
0320
0000
0000
0000
0000
0000
1030
0100
0010
0001
0000
0000
,  // measure 39
1000
0000
1000
0000
0001
0000
1000
0000
0001
0000
0100
0000
,  // measure 40
0010
0000
0000
0000
0000
0000
2000
0000
3020
0000
0032
0000
,  // measure 41
0023
0000
2030
0000
3200
0000
0302
0000
0203
0000
2300
0000
,  // measure 42
3020
0000
0000
0000
0000
0000
0130
0001
1000
0100
0000
0000
,  // measure 43
0020
0000
0031
1000
,  // measure 44
0010
0000
1000
0000
1010
0000
1000
0001
,  // measure 45
0010
0000
0100
0000
1100
0000
1000
0100
,  // measure 46
0010
0000
0001
0000
0011
0000
0001
0100
,  // measure 47
0020
0000
0000
0000
,  // measure 48
2030
0000
0000
3100
2000
0000
0000
3100
0020
0000
0000
0000
0000
0000
0130
1000
,  // measure 49
0020
0000
0000
0130
0002
0000
2003
0000
3002
0000
0000
0000
0000
0000
2003
0000
,  // measure 50
3200
0000
1300
0100
0020
0000
0000
0000
0000
0000
0130
1000
0010
0100
0001
0000
,  // measure 51
0020
0000
0000
0000
0000
0000
0130
1000
0002
0000
0000
0000
0000
0000
0103
0000
,  // measure 52
0020
0000
0130
0010
2000
0000
3001
0010
,  // measure 53
0200
0000
0000
0000
0000
0000
0310
0100
,  // measure 54
2000
0000
3100
1000
0020
0000
2030
0000
,  // measure 55
3002
0000
0000
0000
1003
0010
0100
0000
,  // measure 56
0010
1000
0100
0000
0020
0000
0000
0000
,  // measure 57
0000
0130
0100
0010
0001
1000
0010
0000
,  // measure 58
0200
0000
0000
0000
,  // measure 59
0020
0000
0000
0330
,  // measure 60
2001
0000
0000
3002
0000
0000
0023
0000
0000
0032
0000
0000
2003
0000
0000
3020
,  // measure 61
0000
0000
0230
0000
0000
0302
0000
0000
0013
0000
0000
0000
1100
0000
0000
0100
,  // measure 62
0000
0000
0100
0000
0000
0100
0000
0000
0010
0000
0100
0000
1000
0000
0000
0001
,  // measure 63
0000
0000
0010
0000
0001
0000
0000
0000
0010
0000
0100
0000
1000
0000
0000
1000
,  // measure 64
0000
0000
1000
0000
0000
1000
0000
0000
0100
0000
1000
0000
0010
0000
0000
0010
,  // measure 65
0000
0000
0100
0000
0001
0000
0100
0000
0010
0000
1000
0000
0001
0000
0000
0001
,  // measure 66
0000
0000
0001
0000
0000
0001
0000
0000
0010
0000
0001
0000
1000
0000
0000
0100
,  // measure 67
0000
0000
0010
0000
0100
0000
0000
0000
0010
0000
0001
0000
1000
0000
0000
1000
,  // measure 68
0000
0000
1000
0000
0000
1000
0000
0000
0100
0000
1000
0000
0010
0000
0001
0000
,  // measure 69
0010
1000
0001
0010
0100
0000
2000
0000
,  // measure 70
3100
1000
0020
0000
0130
0001
2000
0000
,  // measure 71
0001
0000
0001
0000
3010
0100
0002
0000
,  // measure 72
0013
0100
2000
0000
3020
0000
2030
0000
,  // measure 73
0001
0001
3020
2030
,  // measure 74
3100
1000
0020
0000
0100
0000
0100
0000
,  // measure 75
0130
0010
1000
0001
0010
0000
0200
0000
,  // measure 76
0010
0000
0000
0000
0000
0000
0010
0000
0000
0000
0000
0000
0310
0000
0000
0001
0000
0000
1000
0000
0100
0000
0010
0000
,  // measure 77
0001
0000
0000
0000
1000
0000
0000
0000
0100
0000
0000
0000
0010
0000
0000
0000
0001
0000
0000
0000
0010
0000
0000
0000
0200
0000
0000
0000
0000
0000
0000
0000
0000
0000
0000
0000
0320
0000
0000
0000
0000
0000
0000
0000
0000
0031
0000
0000
,  // measure 78
0020
0000
0000
0031
0020
0000
0000
0000
0000
0000
0031
0100
0020
0000
0000
0130
,  // measure 79
0002
0000
2003
0000
3002
0000
0000
0000
1003
0100
0010
0000
0100
1000
0010
0000
,  // measure 80
0200
0000
0000
0000
0000
1300
0100
0001
0100
1000
0001
0000
0020
0000
0000
0000
,  // measure 81
0000
0000
0000
0130
0020
0000
0000
0000
0000
0000
0000
0000
0030
0000
0000
0000
;

//---------------dance-single - ----------------
#NOTEDATA:;
#CHARTNAME:;
#STEPSTYPE:dance-single;
#DESCRIPTION:;
#CHARTSTYLE:;
#DIFFICULTY:Easy;
#METER:7;
#RADARVALUES:0.277326,0.440832,0.298659,0.365027,0.000000,234.000000,198.000000,36.000000,44.000000,0.000000,0.000000,0.000000,0.000000,0.000000,0.277326,0.440832,0.298659,0.365027,0.000000,234.000000,198.000000,36.000000,44.000000,0.000000,0.000000,0.000000,0.000000,0.000000;
#CREDIT:Pandemonium X;
#NOTES:
0000
0000
0000
0000
,
0000
0000
0000
0000
,
0000
0000
0000
0000
,
0000
0000
0000
0000
,
0000
0000
0000
0000
,
0000
0000
0000
0000
,
0000
0000
0000
0000
,
0000
0000
0000
1000
,
0001
0000
0010
0000
,
0200
0000
0000
0000
0000
0000
0310
0100
,
0010
0000
0100
1000
,
0020
0000
0000
0000
0130
0010
0100
0000
,
0010
1000
0001
0000
1000
0000
0000
0000
,
0000
0001
0010
0100
,
2000
0000
0000
0000
,
0002
0000
0000
3003
,
0100
1001
0010
1001
,
0001
0000
1000
0000
,
1010
0000
0101
0000
,
2002
0000
3003
0000
,
0101
0000
1100
0000
,
0101
0000
1001
0000
,
1010
0000
0011
0000
,
1010
0000
1001
0000
,
1100
0000
0011
0000
,
1100
0000
1001
0000
,
0101
0000
1010
0000
,
0101
0000
1001
0000
,
0002
0000
0203
0000
,
0020
0000
0330
0000
,
0020
0000
2030
0000
,
0200
0000
3300
0000
,
2000
0000
0002
0000
,
3003
0000
2000
0000
,
3002
0000
0000
0000
,
0200
0000
0000
0303
,
0001
0000
1010
0000
,
0011
0000
1100
0000
,
1001
0000
1000
0001
,
0100
0001
0010
0100
,
1000
0000
1100
0000
,
0011
0000
0101
0000
,
1010
0000
1000
0000
,
0001
0000
1000
0010
,
0100
0000
0010
0000
,
1000
0010
1000
0000
,
0010
0000
0100
0000
,
0002
0000
0000
0000
,
1003
0001
0200
0000
,
0310
1000
0200
0000
,
0310
0200
0000
1300
,
0020
0000
0000
0000
0200
0000
0000
0330
,
0002
0000
0000
1003
0002
0000
0000
1003
,
0002
0000
0000
1003
,
0002
0000
0000
1003
0010
0000
1000
0000
,
0200
0000
0000
0000
0310
0001
0100
0000
,
0001
0100
0010
0000
2000
0000
0000
0000
,
0000
3010
0100
0001
,
2000
0000
0000
0000
,
0002
0000
0000
3003
,
0101
0000
1010
0000
,
1000
0001
0110
0001
,
0000
1010
0000
1000
,
0000
0000
0100
0000
0010
0001
0100
0000
,
0000
0110
0000
0010
,
0000
0000
1000
0001
1000
0001
1000
0000
,
0000
1100
0000
0010
,
0000
0000
0001
0010
0100
1000
0001
0000
,
0000
0101
0000
0010
,
1000
0100
0010
0200
,
0000
1300
0200
0000
0000
1300
0200
0000
,
0000
0310
0000
0002
,
0000
0013
0001
0000
0010
0000
0200
0000
,
0000
0010
0302
0103
,
0010
1000
0002
0000
0000
0000
1000
0000
,
1003
0100
0010
0001
1000
0000
0020
0000
,
0000
0130
0000
0100
,
0010
1000
0001
1000
,
0001
0000
0020
0000
0000
0130
1000
0000
,
0010
1000
0002
0000
1003
0100
0010
0100
,
2000
0000
0000
3001
0100
0010
2000
0000
,
0000
0002
0000
3003
;

//---------------dance-single - ----------------
#NOTEDATA:;
#CHARTNAME:;
#STEPSTYPE:dance-single;
#DESCRIPTION:;
#CHARTSTYLE:;
#DIFFICULTY:Beginner;
#METER:5;
#RADARVALUES:0.157625,0.237371,0.074665,0.107849,0.000000,133.000000,124.000000,9.000000,13.000000,0.000000,0.000000,0.000000,0.000000,0.000000,0.157625,0.237371,0.074665,0.107849,0.000000,133.000000,124.000000,9.000000,13.000000,0.000000,0.000000,0.000000,0.000000,0.000000;
#CREDIT:Pandemonium X;
#NOTES:
0000
0000
0000
0000
,
0000
0000
0000
0000
,
0000
0000
0000
0000
,
0000
0000
0000
0000
,
0000
0000
0000
0000
,
0000
0000
0000
0000
,
0000
0000
0000
0000
,
0000
0000
0000
0000
,
1000
0000
1000
0000
,
1000
0000
0000
0000
,
0001
0000
0001
1000
,
0001
0000
0100
0000
,
0010
0000
0100
0000
,
0000
0000
0010
0000
,
2000
0000
0000
0000
,
0000
0000
0000
3000
,
0001
0000
1000
0000
,
0010
0000
0100
0000
,
0001
0000
1000
0000
,
0110
0000
0100
0000
,
1001
0000
0000
0000
,
1000
0000
0001
0000
,
0010
0000
0000
0000
,
0100
0000
0000
0000
,
0010
0000
0000
0000
,
0010
0000
0001
0000
,
0100
0000
0000
0000
,
0010
0000
1001
0000
,
0110
0000
0010
0000
,
1000
0000
0000
0000
,
0001
0000
0010
0000
,
0100
0000
0000
0000
,
0010
0000
0001
0000
,
0000
0000
1000
0000
,
0001
0000
0000
0000
,
0100
0000
0000
0000
,
0010
0000
2002
0000
,
0000
0000
0000
0000
,
3003
0000
0001
0000
,
0100
0000
0010
0000
,
1000
0000
0220
0000
,
0000
0000
0000
0330
,
0100
0000
0010
0000
,
1000
0000
0001
0000
,
0200
0000
0000
0000
,
0000
0000
0000
0000
,
0000
0000
0000
0000
,
0000
0000
0000
0300
,
0010
0010
0010
0000
,
1000
0001
1000
0000
,
0100
1000
0000
0010
,
0100
0000
0100
0000
,
0010
0000
1000
0000
,
0002
0000
0003
0000
,
1000
0000
0001
1000
,
0020
0000
0000
0000
,
1030
0000
0100
0000
,
0000
0000
0010
0100
,
2000
0000
0000
0000
,
3001
0000
0000
0000
,
0001
0000
1000
0000
,
0010
0000
1001
0110
,
0000
0010
0000
1000
,
0000
0001
0000
1000
,
0000
0100
0000
0010
,
0000
0100
0100
0100
,
0000
0010
0000
0001
,
0000
1000
0000
0001
,
0000
0100
0000
0010
,
0000
1000
0000
0001
,
0000
1000
0000
0020
,
0000
0030
0000
1000
,
0000
0100
0010
0002
,
0000
0000
0003
0010
,
0000
0200
0000
0300
,
0000
0010
0001
1000
,
0000
0000
0000
0002
,
0000
0000
0003
0100
,
0100
0100
0000
0010
,
0010
0010
0000
1000
,
0001
0000
0010
0100
,
0000
1000
0000
0110
;
