#VERSION:0.83;
#TITLE:Dark Line;
#SUBTITLE:;
#ARTIST:坂東慧;
#TITLETRANSLIT:;
#SUBTITLETRANSLIT:;
#ARTISTTRANSLIT:Satoshi Bandoh;
#GENRE:;
#ORIGIN:;
#CREDIT:;
#BANNER:Dark Line.png;
#BACKGROUND:Dark Line-bg.png;
#PREVIEWVID:;
#JACKET:Dark Line-jacket.png;
#CDIMAGE:;
#DISCIMAGE:;
#LYRICSPATH:;
#CDTITLE:;
#MUSIC:Dark Line.ogg;
#OFFSET:-0.626840;
#SAMPLESTART:17.715748;
#SAMPLELENGTH:22.857143;
#SELECTABLE:YES;
#BPMS:0.000=84.000;
#STOPS:22.500=0.714;
#DELAYS:;
#WARPS:;
#TIMESIGNATURES:0.000=4=4;
#TICKCOUNTS:0.000=4;
#COMBOS:0.000=1;
#SPEEDS:0.000=1.000=0.000=0;
#SCROLLS:0.000=1.000;
#FAKES:;
#LABELS:0.000=Song Start;
#BGCHANGES:;
#KEYSOUNDS:;
#ATTACKS:
;

//---------------dance-single - ----------------
#NOTEDATA:;
#CHARTNAME:;
#STEPSTYPE:dance-single;
#DESCRIPTION:;
#CHARTSTYLE:;
#DIFFICULTY:Challenge;
#METER:11;
#RADARVALUES:0.396295,0.469689,0.083500,0.760781,0.556669,299.000000,290.000000,9.000000,82.000000,0.000000,0.000000,0.000000,0.000000,0.000000,0.396295,0.469689,0.083500,0.760781,0.556669,299.000000,290.000000,9.000000,82.000000,0.000000,0.000000,0.000000,0.000000,0.000000;
#CREDIT:HealingDMax300;
#NOTES:
// measure 0
0000
0000
0000
0000
,  // measure 1
0000
0000
0000
0000
,  // measure 2
0100
0000
0000
0000
1001
0000
0000
0000
0001
0000
0100
0000
0110
0000
0010
1000
,  // measure 3
0001
0000
0001
0010
0000
0100
0000
1000
0000
1000
0001
0000
0110
0000
0000
0000
,  // measure 4
0010
0000
0000
0000
1001
0000
0000
0000
1000
0000
0010
0000
0110
0000
0100
0001
,  // measure 5
1000
0000
0000
0000
0000
0000
0000
0000
0000
0000
0000
0000
0000
0000
0000
0000
0000
0000
0000
0000
0000
0000
0000
0000
0000
0000
0000
0000
0000
0000
0000
0000
0000
0000
0000
0000
0000
0000
0000
0000
0000
0000
0000
0000
0000
0000
0000
0000
0100
0000
0000
0000
0000
0000
0000
0000
0000
0000
0000
0000
0000
0000
0000
0000
0000
0000
0000
0000
0000
0000
0000
0000
0000
0000
0000
0000
0000
0000
0000
0000
0000
0000
0000
0000
0110
0000
0000
0000
0000
0000
0000
0000
0000
0000
0000
0000
0000
0000
0000
0000
0000
0000
0000
0000
0000
0000
0000
0000
0000
0000
0000
0000
0000
0000
0000
0000
0000
0000
0000
0000
2002
3003
0000
0000
0000
0000
0000
0000
0000
0000
0000
0000
0000
0000
0000
0000
0000
0000
0000
0000
0000
0000
0000
0000
0001
0000
0000
0000
0000
0000
0000
0000
0000
0000
0000
0000
0000
0000
0000
0000
0000
0000
0000
0000
0000
0000
0000
0000
0001
0000
0000
0000
0000
0000
0000
0000
0000
0000
0000
0000
0100
0000
0000
0000
0000
0000
0000
0000
0000
0000
0000
0000
,  // measure 6
0000
0010
0000
0020
0000
0000
0100
0000
1030
0000
0010
1000
0001
0000
0001
0010
,  // measure 7
0000
0001
0010
0200
0000
0000
0010
0000
1300
0100
0010
0001
1000
0000
1000
0010
,  // measure 8
0000
0100
0000
2000
0000
0001
0000
3100
0000
0100
0010
1000
0002
0000
0010
0000
,  // measure 9
1003
0001
0010
0200
1000
0000
0010
0000
1300
0000
0000
0000
1000
0000
1000
0100
,  // measure 10
0000
0010
0000
0020
0000
0000
0100
0000
0031
0000
0010
0001
1000
0000
1000
0010
,  // measure 11
0000
1000
0010
0200
0000
0000
0010
0000
0301
0100
0010
1000
0001
0000
0001
0010
,  // measure 12
0000
0100
0000
0002
0000
1000
0000
0103
0000
0100
2000
0002
0000
0000
0000
0000
,  // measure 13
0000
0000
0000
0000
0000
0000
0000
0000
3003
0000
0001
0100
0020
0000
0000
0230
,  // measure 14
0000
0302
0000
2003
0000
0000
0001
0000
0100
0000
0000
0000
0001
0000
0000
0000
,  // measure 15
0010
0000
3001
0010
0200
0000
0310
0200
1000
0000
1300
0100
0020
0000
0000
0000
,  // measure 16
0001
0000
0100
0100
0001
0000
0100
0000
,  // measure 17
1000
0000
0000
0000
0100
0000
0001
0000
0031
0000
0001
0100
0020
0000
0000
0000
,  // measure 18
1000
0000
0000
0000
0001
0000
0100
0000
0031
0010
1000
0001
0020
0000
1030
0020
,  // measure 19
0100
0000
0000
0000
1000
0000
0100
0000
0031
0010
0100
1000
0020
0000
1030
0200
,  // measure 20
0010
0000
2300
0000
0001
0000
0010
0000
3001
0000
0000
0000
1000
0010
1000
0001
,  // measure 21
0010
0100
0001
1000
0010
0100
1000
0001
0100
0010
0001
1000
0100
0010
2000
0000
,  // measure 22
0010
0000
3001
0020
0000
0130
0001
2000
0000
3020
0000
0230
1000
0000
0310
0002
,  // measure 23
0000
0203
0000
0320
0000
0000
0030
1000
0000
1000
0000
1000
0002
0000
1003
0020
,  // measure 24
0000
0130
1000
0002
0000
0013
0100
0002
0000
2003
0000
3200
0010
0000
1300
0002
,  // measure 25
0000
0203
0000
2300
0000
3100
0001
0000
0010
0000
1000
0010
0100
0000
0100
1000
,  // measure 26
0000
1000
0010
0200
1000
0000
0010
0000
0301
0010
0100
0001
2000
0000
3010
0200
,  // measure 27
0000
2300
0000
3002
0100
0000
1000
0000
0010
0000
1003
0010
0002
0000
0000
0000
,  // measure 28
1000
0000
0003
0000
0002
0000
0023
0000
2030
0000
3200
0000
0301
0000
0001
0200
,  // measure 29
1000
0000
0000
0000
0010
0000
0010
0000
0302
0000
0203
0000
2300
0000
3001
0100
,  // measure 30
0020
0230
2300
3200
0320
2030
3200
0320
0032
0203
0320
0032
2003
3200
0320
2030
,  // measure 31
3200
0320
2030
3002
0203
0320
0032
2003
3002
0000
0000
0000
1003
0000
1000
0010
,  // measure 32
0000
0100
0000
0001
0000
0001
1000
0000
0001
0100
0010
1000
0001
0000
0001
0010
,  // measure 33
0000
0100
0000
0110
0000
1000
1002
0000
0000
0000
0003
0000
1000
0000
0000
0000
;
