#TITLE:Dads In Space;
#SUBTITLE:;
#ARTIST:Stephen Walking;
#TITLETRANSLIT:;
#SUBTITLETRANSLIT:;
#ARTISTTRANSLIT:;
#GENRE:Dad Beat;
#CREDIT:;
#BANNER:Dads In Space.png;
#BACKGROUND:Dads In Space-bg.png;
#LYRICSPATH:;
#CDTITLE:cdtitle.png;
#MUSIC:Dads In Space.ogg;
#OFFSET:0.075430;
#SAMPLESTART:83.311569;
#SAMPLELENGTH:16.270638;
#SELECTABLE:YES;
#BPMS:0.000000=118.003998
;
#STOPS:
;
#BGCHANGES:;
#KEYSOUNDS:;
#ATTACKS:;

//---------------dance-single - ----------------
#NOTES:
     dance-single:
     :
     Challenge:
     15:
     0.663623,0.738000,0.541435,0.604211,0.749378,592.000000,523.000000,69.000000,77.000000,0.000000,0.000000,0.663623,0.738000,0.541435,0.604211,0.749378,592.000000,523.000000,69.000000,77.000000,0.000000,0.000000:
0000
0000
0000
0000
,
0000
0000
0000
0000
,
0000
0000
0000
0000
,
0000
0000
0000
0000
,
0000
0000
0000
0000
,
2000
0000
3010
0000
0110
0000
0010
1000
0010
0000
0100
0000
0110
0000
0010
0001
,
0010
0000
0100
0000
0110
0000
0010
1000
0100
0000
0010
0000
0110
0000
0100
0010
,
0002
0000
0013
0000
0110
0000
0010
0001
0010
0000
0100
0000
0110
0000
0010
1000
,
0010
0000
0100
0000
0110
0000
0010
0001
0000
0001
0000
0001
0100
0010
1000
0100
,
0000
0100
0010
0100
2001
0000
3001
0100
0010
0000
0100
0000
0010
0100
0001
0010
,
0100
0000
0010
0000
0011
0000
0001
0010
0200
0300
0001
0200
0310
0001
0200
0301
,
0100
0000
0010
0000
1010
0000
1000
0010
0001
0000
0010
0000
0001
0010
0100
0010
,
1000
0000
0100
0000
1100
0000
1000
0100
0001
0000
0100
0000
0010
0001
0100
0010
,
1000
0000
0001
0000
1001
0000
1000
0100
0010
0000
0100
0000
0010
0100
1000
0010
,
0100
0000
0010
0000
1010
0000
1000
0010
0200
0300
1000
0200
0310
1000
0200
1300
,
0100
0000
0010
0000
0011
0000
0001
0010
1000
0000
0010
0000
1000
0010
0100
0010
,
0001
0000
0100
0000
0101
0000
0100
0010
1000
0000
0001
0000
1001
0000
0000
0000
,
1010
0000
0000
1000
0010
0000
1000
0000
0100
1000
0000
0000
0011
0000
0000
0001
,
0010
0000
0001
0000
0100
0001
0000
0000
1001
0000
0000
1000
0010
0000
0001
0000
,
0010
1000
0000
0000
1001
0000
0000
1000
0100
0000
0001
0000
0100
1000
0000
0000
,
1002
0000
0000
0203
0000
0000
2300
0000
0000
3002
0000
0000
0023
0000
2030
0000
,
3001
0000
0010
0001
1000
0000
0001
0000
1000
0001
0100
0000
0010
0000
0100
0001
,
1000
0000
0001
0000
1000
0001
0010
0000
0100
0000
1000
0010
0100
0000
0001
0000
,
1000
0100
1000
0100
0010
0100
0010
0100
0010
0001
0010
0001
1000
0001
1000
0001
,
0100
0001
0100
0001
0100
0010
0100
0010
1000
0010
1000
0010
0100
0001
0010
0100
,
1000
0000
0000
0000
0000
0000
0000
0000
0000
0000
0000
0000
2020
0000
0000
0000
0000
0000
3030
0000
0000
0202
0000
0000
0000
0000
0000
0303
0000
0000
0001
0000
0000
0000
0000
0000
1000
0000
0100
0000
0010
0000
0100
0000
0000
0000
0000
0000
,
0010
0001
0100
0010
0100
0000
1000
0000
0100
0001
0000
1000
0000
1000
0000
0100
,
0000
0000
0000
0010
0000
0000
0000
0000
0000
0010
0000
0000
0022
0000
0000
0000
0000
0000
0033
0000
0000
0000
0000
0000
2002
0000
0000
0000
0000
0000
3003
0000
0000
0000
0000
0000
1000
0000
0010
0000
1000
0000
0100
0000
0000
0000
0000
0000
,
0011
0000
0000
1001
0000
0000
0101
0000
0100
2000
0000
0000
3200
0000
0301
0001
,
1000
0000
0000
0001
0000
0000
0022
0000
0000
0033
0000
0000
2200
0000
0000
3300
0000
0000
0001
0100
0010
0100
0000
0000
,
0010
1000
0100
0010
0100
0000
0001
0000
0100
1000
0000
0001
0000
0001
0000
0100
,
0000
0000
0000
0010
0000
0000
0000
0000
0000
0010
0000
0000
2020
0000
0000
0000
0000
0000
3030
0000
0000
0000
0000
0000
2002
0000
0000
0000
0000
0000
3003
0000
0000
0000
0000
0000
0001
0000
0010
0000
0001
0000
0100
0000
0000
0000
0000
0000
,
0220
0000
0330
0000
1010
0000
1000
1001
0000
0011
0000
0110
0220
0000
0330
1000
,
0200
0000
0000
0000
0301
0000
1000
0010
0001
0000
0001
0000
0100
2000
0000
0000
,
3100
0000
0000
0000
0000
0000
0010
0000
0000
1000
0000
0000
0100
0000
0000
0000
0000
0000
0010
0000
0000
0000
0000
0000
0001
0000
0000
0020
0000
0000
0000
0000
0000
0031
0000
0000
0010
0000
0100
0000
1000
0000
0001
0000
0000
0000
0000
0000
,
0200
0000
0000
0000
1300
0000
0001
0010
1000
0000
1000
0000
0100
0002
0000
0000
,
0103
0000
0000
0000
0000
0000
0010
0000
0000
0001
0000
0000
0100
0000
0000
0000
0000
0000
0010
0000
0000
0000
0000
0000
1000
0000
0000
0020
0000
0000
0000
0000
0000
1030
0000
0000
0010
0000
0100
0000
0001
0000
1000
0000
0000
0000
0000
0000
,
0002
0000
0013
0000
0100
0010
1000
0010
0000
0001
0000
0001
0000
0100
1000
0000
,
0100
0000
0000
0000
0000
0000
1000
0000
0000
0100
0000
0000
0001
0000
0000
0000
0000
0000
0010
0000
0000
0000
0000
0000
0100
0000
0000
0020
0000
0000
0000
0000
0000
0130
0000
0000
0010
0000
0001
0000
0100
0000
0010
0000
0000
0000
0000
0000
,
2000
0000
3010
0000
0100
0010
0001
0010
0000
1000
0000
1000
0000
0100
0001
0000
,
0220
0000
0330
0000
0011
0000
0001
1001
0000
1010
0000
0110
0220
0000
0330
0100
,
0001
0000
0000
0010
0000
0000
0022
0000
0000
0033
0000
0000
2020
0000
0000
3030
0000
0000
0001
0100
0010
0100
0000
0000
,
1000
0100
1000
0100
0001
0000
0010
0000
1000
0001
0000
0100
0000
0100
0000
1000
,
0000
0000
0000
0010
0000
0000
0000
0000
0000
0010
0000
0000
0202
0000
0000
0000
0000
0000
0303
0000
0000
0000
0000
0000
2002
0000
0000
0000
0000
0000
3003
0000
0000
0000
0000
0000
0001
0000
0010
0000
0001
0000
0100
0000
0000
0000
0000
0000
,
1010
0000
0000
1001
0000
0000
1100
0000
0100
0002
0000
0000
0203
0000
1300
1000
,
0001
0000
0000
1000
0000
0000
2020
0000
0000
3030
0000
0000
0022
0000
0000
0033
0000
0000
1000
0100
0010
0100
0000
0000
,
0001
0100
0001
0100
1000
0000
0010
0000
0001
1000
0000
0100
0000
0100
0000
0001
,
0000
0000
0000
0010
0000
0000
0000
0000
0000
0010
0000
0000
2200
0000
0000
0000
0000
0000
3300
0000
0000
0000
0000
0000
2020
0000
0000
0000
0000
0000
3030
0000
0000
0000
0000
0000
1000
0000
0010
0000
1000
0000
0100
0000
0000
0000
0000
0000
,
0022
0000
0033
0000
1100
0000
1000
1010
0000
0101
0000
1001
0001
0010
0001
0100
,
0000
0100
0010
0100
1002
0000
1003
0100
0010
0000
1000
0000
0010
0100
1000
0010
,
0100
0000
0010
0000
0110
0000
1000
0010
0002
0003
1000
0200
0301
1000
0200
1300
,
0100
0000
0010
0000
0011
0000
0001
0010
1000
0000
0010
0000
1000
0010
0001
0100
,
1000
0000
0100
0000
1100
0000
1000
0100
0001
0000
0100
0000
0010
1000
0100
0010
,
0001
0000
1000
0000
1001
0000
0001
0100
0010
0000
0001
0000
0010
0100
0001
0010
,
0100
0000
0010
0000
0110
0000
0001
0010
2000
3000
0001
0200
1300
0001
0200
0301
,
0100
0000
0010
0000
1010
0000
1000
0010
0001
0000
0010
0000
0001
0010
1000
0100
,
0001
0000
0100
0000
0101
0000
0001
0100
1000
0000
0001
0000
1001
0000
0000
0000
,
0010
0000
0000
0000
;

//---------------dance-single - ----------------
#NOTES:
     dance-single:
     :
     Hard:
     11:
     0.434942,0.447273,0.235407,0.643445,0.333493,388.000000,358.000000,30.000000,82.000000,0.000000,0.000000,0.434942,0.447273,0.235407,0.643445,0.333493,388.000000,358.000000,30.000000,82.000000,0.000000,0.000000:
0000
0000
0000
0000
,
0000
0000
0000
0000
,
0000
0000
0000
0000
,
0000
0000
0000
0000
,
0000
0000
0000
0000
,
2001
0000
3010
0000
1000
0010
1000
0000
,
0010
0001
0010
0000
1000
0010
1000
0000
,
1002
0000
0013
0000
0001
0010
0001
0000
,
0010
0000
1000
0000
0010
0000
0000
0001
0000
0001
0000
0010
0100
0000
0000
1000
,
0000
0010
0100
0000
0110
0000
0000
0000
1000
0000
0010
0000
0001
0000
0000
0000
,
0010
0000
1000
0000
0100
0000
0000
0000
0002
0000
0000
0203
0000
0000
2300
0000
,
3010
0100
0001
0000
0010
0100
1000
0000
,
0001
0000
0100
0000
1000
0000
0000
0000
1000
0000
0100
0000
0001
1000
0001
0000
,
0100
0001
0010
0000
0001
0010
1000
0000
,
0010
0000
0001
0000
0100
0000
0000
0000
2000
0000
0000
3200
0000
0000
0302
0000
,
0013
0100
1000
0000
0010
0100
0001
0000
,
1000
0000
0100
0000
0001
0000
0100
0010
0100
0000
1000
0000
1001
0000
0000
0000
,
2000
0000
0000
0010
0000
0000
0001
0000
0000
0010
0000
0000
3002
0000
0000
0010
,
0000
0000
1000
0000
0000
0010
0000
0000
2003
0000
0000
0100
0000
0000
0010
0000
,
0000
0100
0000
0000
3002
0000
0000
0100
0000
0000
0010
0000
0000
0100
0000
0000
,
2003
0000
0000
3200
0000
0000
0302
0000
0000
0203
0000
0000
2300
0000
3002
0000
,
0103
0010
0100
0010
1000
0001
0010
0100
,
0010
0100
1000
0001
0100
0010
0100
0010
,
1000
1000
0100
0100
0010
0010
0001
0001
,
1000
0000
0100
0000
0001
0000
0100
0000
1000
0000
0010
0000
0100
0000
0001
0100
,
0001
0000
0000
0000
0022
0000
0033
2200
0000
3300
0000
0000
0001
1000
0001
0000
,
0100
0000
0000
0000
0110
0000
0010
0000
1000
0100
0000
0010
0000
0100
0000
1000
,
0001
0000
1000
0000
2020
0000
3030
0000
2200
0000
3300
0000
1000
0010
1000
0000
,
0200
0000
0000
0302
0000
0000
2003
0000
0000
3010
0000
0000
0011
0000
0000
0000
,
0001
0000
1000
0000
2020
0000
3030
0000
0202
0000
0303
0000
1000
0001
1000
0000
,
0100
0000
0000
0000
0110
0000
0010
0000
0001
0100
0000
0010
0000
0100
0000
0001
,
1000
0000
0001
0000
0022
0000
0033
0000
0202
0000
0303
0000
0001
0010
0001
0000
,
2000
0000
3010
0000
0020
0000
0030
0001
0000
0100
0000
0100
2000
0000
3000
1000
,
0002
0000
0000
0000
0103
0000
0010
1000
0010
0000
0100
0000
0101
0000
0000
0000
,
0100
0000
0001
0020
0000
0000
2030
0000
0000
3020
0000
0000
0031
0100
0001
0000
,
2000
0000
0000
0000
3100
0000
0010
0001
0010
0000
0100
0000
1100
0000
0000
0000
,
0100
0000
1000
0020
0000
0000
0032
0000
0000
0023
0000
0000
1030
0100
1000
0000
,
0001
0000
0100
0000
1000
0000
0000
0100
0000
0010
0000
0010
0000
0100
0001
0000
,
0010
0000
0100
2000
0000
0000
3020
0000
0000
0230
0000
0000
0301
1000
0001
0000
,
1000
0000
0100
0000
0001
0000
0000
0100
0000
0010
0000
0010
0000
0100
1000
0000
,
0002
0000
0013
0000
0020
0000
0030
1000
0000
0100
0000
0100
0002
0000
0003
0001
,
1000
0000
0000
0000
2020
0000
3030
0000
0022
0000
0033
0000
0001
0100
0001
0000
,
0100
0000
0000
0000
1100
0000
1000
0000
0010
0001
0000
0010
0000
1000
0000
0100
,
0001
0000
0100
0000
0220
0000
0330
0000
2002
0000
3003
0000
0001
0010
0001
0000
,
0200
0000
0000
2300
0000
0000
3002
0000
0000
0013
0000
0000
1010
0000
0000
0000
,
1000
0000
0001
0000
0022
0000
0033
0000
2020
0000
3030
0000
1000
0100
1000
0000
,
0100
0000
0000
0000
0101
0000
0001
0000
0010
1000
0000
0010
0000
0001
0000
0100
,
1000
0000
0100
0000
0220
0000
0330
0000
2002
0000
3003
0000
1000
0010
1000
0000
,
0002
0000
0013
0000
0020
0000
0030
1000
0000
0100
0000
0100
0002
0000
0003
1000
,
0000
1000
0100
0000
0110
0000
0000
0000
0001
0000
0010
0000
1000
0000
0000
0000
,
0010
0000
0001
0000
0100
0000
0000
0000
2000
0000
0000
3002
0000
0000
0023
0000
,
1030
0100
0001
0000
1000
0010
0001
0000
,
1000
0000
0100
0000
0001
0000
0000
0000
0001
0000
0100
0000
1000
0001
1000
0000
,
0100
1000
0010
0000
1000
0010
0001
0000
,
0010
0000
1000
0000
0100
0000
0000
0000
0002
0000
0000
2003
0000
0000
3020
0000
,
0031
0100
1000
0000
0001
0010
1000
0000
,
0001
0000
0100
0000
1000
0000
0100
0010
0100
0000
0001
0000
1001
0000
0000
0000
,
0010
0000
0000
0000
;

//---------------dance-single - BONUS EXPERT----------------
#NOTES:
     dance-single:
     BONUS EXPERT:
     Edit:
     13:
     0.539194,0.581455,0.400191,0.698373,0.396268,481.000000,430.000000,51.000000,89.000000,0.000000,0.000000,0.539194,0.581455,0.400191,0.698373,0.396268,481.000000,430.000000,51.000000,89.000000,0.000000,0.000000:
0000
0000
0000
0000
,
0000
0000
0000
0000
,
0000
0000
0000
0000
,
0000
0000
0000
0000
,
0000
0000
0000
0000
,
1000
0100
0001
0100
0100
1000
0001
0100
,
0100
1000
0001
1000
1000
0100
0001
1000
,
0001
0010
1000
0010
0010
0001
1000
0010
,
0010
0000
0001
0000
1000
0000
0100
0001
0000
0100
0000
0001
0010
0000
0100
1000
,
0000
0100
1000
0000
1001
0000
0001
0000
0100
0000
0001
0000
1001
0000
0001
0000
,
0010
0000
0001
0000
1001
0000
0001
0000
0200
0300
0010
2000
3100
0000
0020
0031
,
0100
0001
0101
1000
0010
1000
1100
0001
,
0010
0000
0001
0000
0101
0000
1000
0000
0010
0000
0100
0000
0010
0100
0001
0010
,
0100
1000
1001
1000
0100
1000
1001
1000
,
0010
0000
1000
0000
1001
0000
1000
0000
0200
0300
0010
0002
0103
0000
0020
1030
,
0100
1000
1100
0010
0001
0100
0101
0010
,
1000
0000
0100
0000
1100
0000
0010
0001
1000
0000
0001
0000
1001
0000
0000
0000
,
2000
0000
0000
3020
0000
0000
0230
0000
0000
0302
0000
0000
0023
0000
0000
0230
,
0000
0000
2300
0000
0000
3020
0000
0000
0032
0000
0000
2003
0000
0000
3200
0000
,
0000
0302
0000
0000
0023
0000
0000
0230
0000
0000
2300
0000
0000
3200
0000
0000
,
0302
0000
0000
0203
0000
0000
2300
0000
0000
3002
0000
0000
0203
0000
0320
0000
,
1030
0100
1000
0010
1000
0100
1000
0010
,
0100
0001
0010
0001
0100
0001
0010
0001
,
1000
0010
1000
0000
0010
1000
0010
0000
0100
0001
0100
0000
0001
0100
0001
0000
,
0010
0001
0010
0000
0100
1000
0100
0000
1000
0001
1000
0000
0001
0100
0001
0100
,
0010
0000
0000
0000
2020
0000
3030
0202
0000
0303
0000
0000
1000
0001
1000
0000
,
0100
0000
0001
0000
0100
0000
1000
0000
0010
0100
0000
0001
0000
0001
0000
1000
,
0000
0000
0001
0000
0022
0000
0033
0000
2002
0000
3003
0000
0001
0100
0001
0000
,
0200
0000
0000
2300
0000
0000
3002
0000
0013
1000
0000
0000
1010
0000
0010
0000
,
1000
0000
0001
0000
0022
0000
0033
0000
2200
0000
3300
0000
0001
1000
0001
0000
,
0100
0000
1000
0000
0100
0000
0001
0000
0010
0100
0000
1000
0000
1000
0000
0001
,
0000
0000
1000
0000
2020
0000
3030
0000
2002
0000
3003
0000
1000
0100
1000
0000
,
0200
0000
0301
0000
2000
0000
3010
0001
0000
0100
0000
0010
0220
0000
0330
0010
,
2000
0000
0000
3000
1010
0000
0001
0100
0001
0000
0001
0000
1000
0200
0000
0000
,
0310
0000
0010
0001
1000
0000
0001
0000
0100
0020
0000
0000
1030
0100
0010
0000
,
0002
0000
0000
0003
0011
0000
1000
0100
1000
0000
1000
0000
0001
0200
0000
0000
,
0310
0000
0010
1000
0001
0000
1000
0000
0100
0020
0000
0000
0031
0100
0010
0000
,
1000
0000
0010
0000
0110
0000
0010
1000
0000
0100
0000
0001
0000
0100
1000
0000
,
0001
0000
0100
0010
0100
0000
0010
0000
1000
0200
0000
0000
1300
0010
0100
0000
,
0001
0000
0010
0000
0110
0000
0010
0001
0000
0100
0000
1000
0000
0100
0001
0000
,
0200
0000
1300
0000
0002
0000
0013
1000
0000
0100
0000
0010
0220
0000
0330
0010
,
0001
0000
0000
0000
0022
0000
0033
0000
2002
0000
3003
0000
0001
0100
1000
0000
,
0001
0000
0010
0000
1000
0000
0100
0000
0001
0100
0000
1000
0000
1000
0000
0001
,
0000
0000
0100
0000
0220
0000
0330
0000
2002
0000
3003
0000
1000
0001
1000
0000
,
0200
0000
0000
0302
0000
0000
2003
0000
3010
0001
0000
0000
0011
0000
0001
0000
,
1000
0000
0010
0000
2020
0000
3030
0000
2002
0000
3003
0000
1000
0100
0001
0000
,
1000
0000
0010
0000
0001
0000
0100
0000
1000
0100
0000
0001
0000
0001
0000
1000
,
0000
0000
0100
0000
0220
0000
0330
0000
2002
0000
3003
0000
0001
1000
0001
0000
,
0200
0000
1300
0000
0200
0000
0301
0010
0000
1000
0000
0010
0001
0000
0010
0001
,
0000
0001
0100
0000
0110
0000
0010
0000
1000
0000
0100
0000
0110
0000
0010
0000
,
0001
0000
0100
0000
0110
0000
0010
0000
0002
0003
1000
0200
0301
0000
0200
0301
,
0010
0001
1001
0001
0010
1000
1010
1000
,
0010
0000
0001
0000
1001
0000
0001
0000
0100
0000
0010
0000
0100
0010
1000
0100
,
0010
0100
0110
0010
0001
0100
0110
0010
,
1000
0000
0100
0000
0110
0000
0010
0000
2000
3000
0001
0200
1300
0000
0200
1300
,
0010
1000
1001
1000
0010
0001
0011
0001
,
0010
0000
1000
0000
1001
0000
1000
0100
0010
0000
0010
0000
0110
0000
0000
0000
,
1001
0000
0000
0000
;

//---------------dance-single - ----------------
#NOTES:
     dance-single:
     :
     Medium:
     8:
     0.326206,0.335455,0.313876,0.204019,0.027464,291.000000,251.000000,40.000000,26.000000,0.000000,0.000000,0.326206,0.335455,0.313876,0.204019,0.027464,291.000000,251.000000,40.000000,26.000000,0.000000,0.000000:
0000
0000
0000
0000
,
0000
0000
0000
0000
,
0000
0000
0000
0000
,
0000
0000
0000
0000
,
0000
0000
0000
0000
,
0002
0010
1003
0101
,
1000
0110
1000
0101
,
2000
0010
3001
1100
,
0001
0110
0001
1100
,
0000
0001
1001
0000
1000
0000
0010
0000
,
0001
0000
0000
0000
0010
0000
0000
0000
2000
0000
0000
3020
0000
0000
0230
0000
,
0301
0000
0011
0000
0100
1000
0100
0000
,
1000
0000
1010
0000
0100
0001
0100
0000
,
0001
1000
0001
0010
,
1000
0000
0000
0000
0010
0000
0000
0000
0002
0000
0000
0023
0000
0000
0230
0000
,
1300
0000
1010
0000
0100
0001
0100
0000
,
0001
0000
0011
0000
0100
0100
1000
0000
,
0002
0010
0010
2003
,
0010
0010
3002
0100
,
0010
2003
0100
0010
,
3002
0203
2300
3200
,
0301
0001
0010
0010
,
0100
0100
1000
1000
,
0010
1000
0010
0000
1000
0001
1000
0000
,
0100
1000
0100
0000
0010
0001
0100
0000
,
0010
0000
0000
0000
1001
0000
0000
2002
0000
0000
3003
0000
0001
0000
1000
0000
,
0001
0000
0010
0000
0100
0010
0100
0000
,
1000
0000
1010
0000
0101
0000
1000
0001
,
0010
0000
0000
0010
0000
0000
0010
0000
0000
0000
0100
0000
0110
0000
0000
0000
,
0001
0000
1001
0000
1001
0000
1000
0001
,
1000
0000
0010
0000
0100
0010
0100
0000
,
0001
0000
0011
0000
1100
0000
0001
1000
,
0010
0000
0100
0000
0010
0100
1001
0000
,
2000
0000
3001
0000
1000
0100
0100
0000
,
0001
0100
0100
0000
1000
0000
1001
0000
,
2000
0000
3001
0000
1000
0010
0010
0000
,
0001
0010
0010
0000
1000
0000
1001
0000
,
0001
0010
0001
0000
0100
0100
0100
0000
,
0010
0010
0010
0000
1000
0000
1001
0000
,
1000
0010
1000
0000
0100
0100
0100
0000
,
0010
0000
0100
0000
0010
0100
1001
0000
,
0001
0000
1010
0000
0101
0000
1000
0100
,
0001
0000
0100
0000
0001
0100
1000
0000
,
0001
0000
0101
0000
0011
0000
0100
1000
,
0010
0000
0000
0010
0000
0000
0010
0000
0000
0000
0100
0000
0110
0000
0000
0000
,
1000
0000
0011
0000
1100
0000
0001
0100
,
1000
0000
0100
0000
1000
0100
0001
0000
,
1000
0000
1100
0000
1010
0000
0100
0001
,
0010
0000
0100
0000
0010
0100
1001
0000
,
0000
1000
1001
0000
0001
0000
0010
0000
,
1000
0000
0000
0000
0100
0000
0000
0000
0002
0000
0000
0023
0000
0000
0230
0000
,
1300
0000
1010
0000
0100
0001
0010
0000
,
0100
0000
0011
0000
0100
1000
0010
0000
,
1000
0001
1000
0010
,
0001
0000
0000
0000
0100
0000
0000
0000
2000
0000
0000
3020
0000
0000
0230
0000
,
0301
0000
0011
0000
0100
1000
0010
0000
,
0100
0000
1010
0000
0100
0100
0001
0000
,
1000
0000
0000
0000
;

//---------------dance-single - ----------------
#NOTES:
     dance-single:
     :
     Easy:
     4:
     0.180478,0.223636,0.133397,0.172632,0.000000,161.000000,144.000000,17.000000,22.000000,0.000000,0.000000,0.180478,0.223636,0.133397,0.172632,0.000000,161.000000,144.000000,17.000000,22.000000,0.000000,0.000000:
// measure 0
0000
0000
0000
0000
,  // measure 1
0000
0000
0000
0000
,  // measure 2
0000
0000
0000
0000
,  // measure 3
0000
0000
0000
0000
,  // measure 4
0000
0000
0000
0000
,  // measure 5
0002
0010
0000
0100
,  // measure 6
0000
0010
0000
0100
,  // measure 7
2003
0010
0000
0100
,  // measure 8
0000
0010
0000
3100
,  // measure 9
0000
2002
3003
1000
,  // measure 10
0000
1000
0010
0100
,  // measure 11
0001
1000
0000
1001
,  // measure 12
0000
0001
0000
1001
,  // measure 13
0000
1000
0000
0001
,  // measure 14
0000
0001
0010
0100
,  // measure 15
1000
0001
0000
1001
,  // measure 16
0000
1000
0000
1001
,  // measure 17
0002
0000
0000
0203
,  // measure 18
0000
0000
0320
0000
,  // measure 19
0000
2030
0000
0000
,  // measure 20
3200
0000
0320
0000
,  // measure 21
0031
0000
0001
0100
,  // measure 22
0000
0100
0010
0000
,  // measure 23
0010
1000
0000
1000
,  // measure 24
0100
0000
0100
0010
,  // measure 25
0001
0000
0000
0000
2002
0000
0000
3003
0000
0000
0000
0000
0001
0000
0000
0000
,  // measure 26
1000
0000
0010
1000
,  // measure 27
0100
0010
0010
0000
,  // measure 28
0100
0010
2002
3003
,  // measure 29
0001
1000
1000
0000
,  // measure 30
0001
0000
0010
0001
,  // measure 31
0100
0010
0010
0000
,  // measure 32
0100
0100
0010
1000
,  // measure 33
0002
0003
0011
0000
,  // measure 34
0010
0001
0100
0010
,  // measure 35
2000
3000
1010
0000
,  // measure 36
0010
1000
0100
0010
,  // measure 37
0002
1003
1001
0000
,  // measure 38
1000
0010
0100
0001
,  // measure 39
2000
3001
1001
0000
,  // measure 40
1000
1000
0100
0010
,  // measure 41
0001
0100
0100
0000
,  // measure 42
0010
0000
1000
0010
,  // measure 43
1000
0100
0100
0000
,  // measure 44
1000
0010
2002
3003
,  // measure 45
1000
0100
0100
0000
,  // measure 46
0010
0000
0001
0010
,  // measure 47
0001
0100
0100
0000
,  // measure 48
0010
0010
1000
0001
,  // measure 49
0000
2002
3003
0001
,  // measure 50
0000
0001
0010
1000
,  // measure 51
0100
0001
0000
1001
,  // measure 52
0000
1000
0000
1001
,  // measure 53
0000
0001
0000
1000
,  // measure 54
0000
1000
0010
0001
,  // measure 55
0100
1000
0000
1001
,  // measure 56
0000
0001
0000
1001
,  // measure 57
0010
0000
0000
0000
;

//---------------dance-single - ----------------
#NOTES:
     dance-single:
     :
     Beginner:
     2:
     0.110977,0.156545,0.023541,0.094163,0.000000,99.000000,96.000000,3.000000,12.000000,0.000000,0.000000,0.110977,0.156545,0.023541,0.094163,0.000000,99.000000,96.000000,3.000000,12.000000,0.000000,0.000000:
0000
0000
0000
0000
,
0000
0000
0000
0000
,
0000
0000
0000
0000
,
0000
0000
0000
0000
,
0000
0000
0000
0000
,
2000
0000
3000
0000
,
1000
0000
1000
0000
,
0002
0000
0003
0000
,
0001
0000
0001
0000
,
0000
2002
3003
0000
,
1000
0000
0010
0000
,
2000
0000
3000
0000
,
0001
0000
0001
0000
,
2000
0000
3000
0000
,
0001
0000
0010
0000
,
0002
0000
0003
0000
,
1000
0000
1000
0000
,
0010
0000
0000
0010
,
0000
0000
0100
0000
,
0000
0100
0000
0000
,
0001
0000
1000
0000
,
0100
0000
0000
0100
,
0000
0000
0010
0000
,
0000
0010
0000
0000
,
0001
0000
1000
0000
,
0000
1001
0000
0000
,
0001
0000
1000
0000
,
0010
0000
0100
0000
,
0001
0001
0001
0000
,
1000
0000
0001
0000
,
1000
0000
0001
0000
,
0010
0000
0100
0000
,
1000
1000
1000
0000
,
0001
0000
0001
0000
,
0100
0000
0100
0000
,
0010
0000
0010
0000
,
1000
0000
1000
0000
,
0100
0000
0010
0000
,
0100
0000
0010
0000
,
0001
0000
1000
0000
,
0001
0001
0001
0000
,
1000
0000
0010
0000
,
0100
0000
0001
0000
,
0010
0000
0001
0000
,
0100
0100
0100
0000
,
0001
0000
0010
0000
,
0100
0000
1000
0000
,
0010
0000
1000
0000
,
0100
0100
0100
0100
,
0000
2002
3003
0000
,
0001
0000
0010
0000
,
0002
0000
0003
0000
,
1000
0000
1000
0000
,
0002
0000
0003
0000
,
1000
0000
0010
0000
,
2000
0000
3000
0000
,
0001
0000
1000
0000
,
0100
0000
0000
0000
;
