#TITLE:DaBaby VS Goku;
#SUBTITLE:(CYPHER MIX);
#ARTIST:Remixed by STEEZTHEPRODUCER mixed by Z-I-v Step Team "about-blank";
#TITLETRANSLIT:;
#SUBTITLETRANSLIT:;
#ARTISTTRANSLIT:;
#GENRE:;
#CREDIT:;
#MUSIC:DaBaby 2.mp3;
#BANNER:dababy vs goku-banner.png;
#BACKGROUND:bg.jpg;
#CDTITLE:;
#SAMPLESTART:141.354;
#SAMPLELENGTH:3.200;
#SELECTABLE:YES;
#OFFSET:1.287;
#BPMS:0.000=180.000
,200.000=181.000
,204.000=180.000
,208.000=182.000
,217.000=180.000
,256.000=178.000
,260.000=180.000
,428.000=150.000
;
#STOPS:;
#LASTBEATHINT:0.807108;
#BGCHANGES:0.000=bg.jpg=1.000=0=0=1,
36.000=dababy.jpg=1.000=0=0=1,
37.000=dababy2.jpg=1.000=0=0=1,
38.000=dababy.jpg=1.000=0=0=1,
39.000=dababy2.jpg=1.000=0=0=1,
40.000=dababy.jpg=1.000=0=0=1,
41.000=dababy2.jpg=1.000=0=0=1,
42.000=dababy.jpg=1.000=0=0=1,
43.000=dababy2.jpg=1.000=0=0=1,
44.000=dababy.jpg=1.000=0=0=1,
45.000=dababy2.jpg=1.000=0=0=1,
46.000=dababy.jpg=1.000=0=0=1,
47.000=dababy2.jpg=1.000=0=0=1,
48.000=dababy.jpg=1.000=0=0=1,
49.000=dababy2.jpg=1.000=0=0=1,
50.000=dababy.jpg=1.000=0=0=1,
51.000=dababy2.jpg=1.000=0=0=1,
52.000=dababy.jpg=1.000=0=0=1,
53.000=dababy2.jpg=1.000=0=0=1,
54.000=dababy.jpg=1.000=0=0=1,
55.000=dababy2.jpg=1.000=0=0=1,
56.000=dababy.jpg=1.000=0=0=1,
57.000=dababy2.jpg=1.000=0=0=1,
58.000=dababy.jpg=1.000=0=0=1,
59.000=bg.jpg=1.000=0=0=1,
60.000=dababy.jpg=1.000=0=0=1,
61.000=dababy2.jpg=1.000=0=0=1,
62.000=dababy.jpg=1.000=0=0=1,
63.000=dababy2.jpg=1.000=0=0=1,
64.000=dababy.jpg=1.000=0=0=1,
65.000=dababy2.jpg=1.000=0=0=1,
66.000=dababy.jpg=1.000=0=0=1,
67.000=wheres goku.png=1.000=0=0=1,
68.000=bg.jpg=1.000=0=0=1,
69.000=dababy.jpg=1.000=0=0=1,
70.000=bg.jpg=1.000=0=0=1,
71.000=dababy2.jpg=1.000=0=0=1,
72.000=bg.jpg=1.000=0=0=1,
73.000=dababy.jpg=1.000=0=0=1,
74.000=bg.jpg=1.000=0=0=1,
75.000=wheres goku.png=1.000=0=0=1,
76.000=bg.jpg=1.000=0=0=1,
77.000=dababy2.jpg=1.000=0=0=1,
78.000=bg.jpg=1.000=0=0=1,
79.000=dababy.jpg=1.000=0=0=1,
80.000=bg.jpg=1.000=0=0=1,
81.000=dababy2.jpg=1.000=0=0=1,
82.000=bg.jpg=1.000=0=0=1,
83.000=dababy.jpg=1.000=0=0=1,
84.000=dababy2.jpg=1.000=0=0=1,
85.000=dababy2.jpg=1.000=0=0=1=Centered====,
86.000=dababy.jpg=1.000=0=0=1,
87.000=dababy.jpg=1.000=0=0=1=Centered====,
88.000=dababy2.jpg=1.000=0=0=1,
89.000=dababy2.jpg=1.000=0=0=1=Centered====,
92.000=dababy.jpg=1.000=0=0=1,
93.000=dababy.jpg=1.000=0=0=1=Centered====,
94.000=dababy2.jpg=1.000=0=0=1,
95.000=dababy2.jpg=1.000=0=0=1=Centered====,
96.000=dababy.jpg=1.000=0=0=1,
97.000=dababy.jpg=1.000=0=0=1=Centered====,
98.000=dababy2.jpg=1.000=0=0=1,
99.000=dababy2.jpg=1.000=0=0=1=Centered====,
100.000=wheres goku.png=1.000=0=0=1,
101.000=bg.jpg=1.000=0=0=1,
102.000=wheres goku.png=1.000=0=0=1,
103.000=bg.jpg=1.000=0=0=1,
104.000=wheres goku.png=1.000=0=0=1,
105.000=bg.jpg=1.000=0=0=1,
106.000=there he is.png=1.000=0=0=1,
107.000=bg.jpg=1.000=0=0=1,
108.000=wheres goku.png=1.000=0=0=1,
109.000=bg.jpg=1.000=0=0=1,
110.000=wheres goku.png=1.000=0=0=1,
111.000=bg.jpg=1.000=0=0=1,
112.000=wheres goku.png=1.000=0=0=1,
113.000=bg.jpg=1.000=0=0=1,
116.000=dababy.jpg=1.000=0=0=1,
117.000=dababy2.jpg=1.000=0=0=1,
118.000=dababy.jpg=1.000=0=0=1,
119.000=dababy2.jpg=1.000=0=0=1,
120.000=dababy.jpg=1.000=0=0=1,
121.000=dababy2.jpg=1.000=0=0=1,
122.000=bg.jpg=1.000=0=0=1,
124.000=dababy2.jpg=1.000=0=0=1,
125.000=dababy.jpg=1.000=0=0=1,
126.000=dababy2.jpg=1.000=0=0=1,
127.000=dababy.jpg=1.000=0=0=1,
128.000=dababy2.jpg=1.000=0=0=1,
129.000=dababy.jpg=1.000=0=0=1,
130.000=dababy2.jpg=1.000=0=0=1,
131.000=dababy.jpg=1.000=0=0=1,
132.000=bg.jpg=1.000=0=0=1,
140.000=dababy.jpg=1.000=0=0=1,
141.000=dababy2.jpg=1.000=0=0=1,
142.000=dababy.jpg=1.000=0=0=1,
143.000=bg.jpg=1.000=0=0=1,
144.000=dababy.jpg=1.000=0=0=1,
145.000=dababy2.jpg=1.000=0=0=1,
146.000=dababy.jpg=1.000=0=0=1,
147.000=bg.jpg=1.000=0=0=1,
148.000=wheres goku.png=1.000=0=0=1,
149.000=bg.jpg=1.000=0=0=1,
150.000=there he is.png=1.000=0=0=1,
151.000=bg.jpg=1.000=0=0=1,
152.000=wheres goku.png=1.000=0=0=1,
153.000=bg.jpg=1.000=0=0=1,
154.000=dababy.jpg=1.000=0=0=1,
155.000=dababy2.jpg=1.000=0=0=1,
156.000=wheres goku.png=1.000=0=0=1,
157.000=bg.jpg=1.000=0=0=1,
158.000=bg.jpg=1.000=0=0=1====#FF0000=,
159.000=bg.jpg=1.000=0=0=1====#0000FF=,
160.000=wheres goku.png=1.000=0=0=1,
161.000=bg.jpg=1.000=0=0=1,
164.000=wheres goku.png=1.000=0=0=1,
165.000=bg.jpg=1.000=0=0=1,
166.000=wheres goku.png=1.000=0=0=1,
167.000=bg.jpg=1.000=0=0=1,
168.000=wheres goku.png=1.000=0=0=1,
169.000=bg.jpg=1.000=0=0=1,
170.000=wheres goku.png=1.000=0=0=1,
171.000=bg.jpg=1.000=0=0=1,
172.000=wheres goku.png=1.000=0=0=1,
173.000=bg.jpg=1.000=0=0=1,
174.000=wheres goku.png=1.000=0=0=1,
175.000=bg.jpg=1.000=0=0=1,
176.000=wheres goku.png=1.000=0=0=1,
177.000=bg.jpg=1.000=0=0=1,
178.000=wheres goku.png=1.000=0=0=1,
179.000=wheres goku.png=1.000=0=0=1====#00FF00=,
180.000=wheres goku.png=1.000=0=0=1,
181.000=bg.jpg=1.000=0=0=1,
182.000=wheres goku.png=1.000=0=0=1,
183.000=bg.jpg=1.000=0=0=1,
184.000=wheres goku.png=1.000=0=0=1,
185.000=bg.jpg=1.000=0=0=1,
186.000=wheres goku.png=1.000=0=0=1,
187.000=bg.jpg=1.000=0=0=1,
188.000=wheres goku.png=1.000=0=0=1,
189.000=bg.jpg=1.000=0=0=1,
190.000=wheres goku.png=1.000=0=0=1,
191.000=bg.jpg=1.000=0=0=1,
192.000=wheres goku.png=1.000=0=0=1,
193.000=bg.jpg=1.000=0=0=1,
194.000=wheres goku.png=1.000=0=0=1,
195.000=bg.jpg=1.000=0=0=1,
196.000=there he is.png=1.000=0=0=1,
200.000=OH GOD OH F.png=1.000=0=0=1,
205.000=death.jpg=1.000=0=0=1,
222.500=bg.jpg=1.000=0=0=1,
231.500=death.jpg=1.000=0=0=1,
233.500=bg.jpg=1.000=0=0=1,
235.000=death.jpg=1.000=0=0=1,
244.000=charge.png=1.000=0=0=1,
258.000=bg.jpg=1.000=0=0=1,
258.500=charge.png=1.000=0=0=1,
259.000=bg.jpg=1.000=0=0=1,
259.500=charge.png=1.000=0=0=1,
260.000=drip.jpg=1.000=0=0=1,
261.000=drip2.jpg=1.000=0=0=1,
262.000=drip.jpg=1.000=0=0=1,
263.000=drip2.jpg=1.000=0=0=1,
264.000=iidx.jpg=1.000=0=0=1,
265.000=ddr.png=1.000=0=0=1,
266.000=popn.jpeg=1.000=0=0=1,
267.000=bemani.jpg=1.000=0=0=1,
268.000=drip.jpg=1.000=0=0=1,
269.000=drip2.jpg=1.000=0=0=1,
270.000=drip.jpg=1.000=0=0=1,
271.000=drip2.jpg=1.000=0=0=1,
272.000=bg.jpg=1.000=0=0=1,
276.000=drip.jpg=1.000=0=0=1,
277.000=drip2.jpg=1.000=0=0=1,
278.000=drip.jpg=1.000=0=0=1,
279.000=drip2.jpg=1.000=0=0=1,
280.000=drip.jpg=1.000=0=0=1,
281.000=drip2.jpg=1.000=0=0=1,
282.000=bg.jpg=1.000=0=0=1,
283.000=dababy.jpg=1.000=0=0=1=Centered====,
284.000=goku4.png=1.000=0=0=1,
286.000=drip.jpg=1.000=0=0=1,
287.000=drip2.jpg=1.000=0=0=1,
288.000=drip.jpg=1.000=0=0=1,
289.000=drip2.jpg=1.000=0=0=1,
292.000=ddr.png=1.000=0=0=1,
294.000=bemani.jpg=1.000=0=0=1,
296.000=wheres goku.png=1.000=0=0=1,
297.000=bg.jpg=1.000=0=0=1,
298.000=there he is.png=1.000=0=0=1,
298.750=OH GOD OH F.png=1.000=0=0=1,
299.250=there he is.png=1.000=0=0=1,
300.000=iidx.jpg=1.000=0=0=1,
301.000=bg.jpg=1.000=0=0=1,
302.000=OH GOD OH F.png=1.000=1=0=1===CrossFade==,
308.000=dababy.jpg=1.000=0=0=1,
309.000=dababy2.jpg=1.000=0=0=1,
310.000=dababy.jpg=1.000=0=0=1,
311.000=dababy2.jpg=1.000=0=0=1,
312.000=dababy.jpg=1.000=0=0=1,
313.000=dababy2.jpg=1.000=0=0=1,
314.000=bg.jpg=1.000=0=0=1,
316.000=drip.jpg=1.000=0=0=1,
317.000=drip2.jpg=1.000=0=0=1,
318.000=drip.jpg=1.000=0=0=1,
319.000=drip2.jpg=1.000=0=0=1,
320.000=bg.jpg=1.000=0=0=1,
321.000=bg.jpg=1.000=0=0=1====#FF0000=,
322.000=bg.jpg=1.000=0=0=1,
324.000=dababy.jpg=1.000=0=0=1,
325.000=dababy2.jpg=1.000=0=0=1,
326.000=drip.jpg=1.000=0=0=1,
327.000=drip2.jpg=1.000=0=0=1,
328.000=dababy.jpg=1.000=0=0=1,
329.000=dababy2.jpg=1.000=0=0=1,
330.000=drip.jpg=1.000=0=0=1,
331.000=drip2.jpg=1.000=0=0=1,
332.000=dababy.jpg=1.000=0=0=1,
333.000=dababy2.jpg=1.000=0=0=1,
334.000=drip.jpg=1.000=0=0=1,
335.000=drip2.jpg=1.000=0=0=1,
336.000=bg.jpg=1.000=0=0=1,
340.000=dababy.jpg=1.000=0=0=1,
341.000=drip.jpg=1.000=0=0=1,
342.000=dababy2.jpg=1.000=0=0=1,
343.000=drip2.jpg=1.000=0=0=1,
344.000=dababy.jpg=1.000=0=0=1,
345.000=drip.jpg=1.000=0=0=1,
346.000=dababy2.jpg=1.000=0=0=1,
347.000=drip2.jpg=1.000=0=0=1,
348.000=dababy.jpg=1.000=0=0=1,
349.000=drip.jpg=1.000=0=0=1,
350.000=dababy2.jpg=1.000=0=0=1,
351.000=drip2.jpg=1.000=0=0=1,
352.000=dababy.jpg=1.000=0=0=1,
353.000=drip.jpg=1.000=0=0=1,
354.000=dababy2.jpg=1.000=0=0=1,
355.000=drip2.jpg=1.000=0=0=1,
356.000=piss your pants.png=1.000=1=0=1===CrossFade==,
364.000=naruto.jpg=1.000=0=0=1,
365.000=naruto2.jpg=1.000=0=0=1,
366.000=naruto.jpg=1.000=0=0=1,
367.000=naruto2.jpg=1.000=0=0=1,
368.000=naruto.jpg=1.000=0=0=1,
369.000=naruto2.jpg=1.000=0=0=1,
370.000=naruto.jpg=1.000=0=0=1,
371.000=naruto2.jpg=1.000=0=0=1,
372.000=drip.jpg=1.000=0=0=1,
373.000=drip2.jpg=1.000=0=0=1,
374.000=drip.jpg=1.000=0=0=1,
375.000=drip2.jpg=1.000=0=0=1,
376.000=bg.jpg=1.000=0=0=1,
380.000=naruto.jpg=1.000=0=0=1,
381.000=naruto2.jpg=1.000=0=0=1,
382.000=dababy.jpg=1.000=0=0=1,
383.000=dababy2.jpg=1.000=0=0=1,
384.000=naruto.jpg=1.000=0=0=1,
385.000=naruto2.jpg=1.000=0=0=1,
386.000=drip.jpg=1.000=0=0=1,
387.000=drip2.jpg=1.000=0=0=1,
388.000=popn.jpeg=1.000=0=0=1,
394.000=bg.jpg=1.000=0=0=1,
395.000=piss your pants.png=1.000=0=0=1,
396.000=naruto.jpg=1.000=0=0=1,
397.000=naruto2.jpg=1.000=0=0=1,
398.000=drip.jpg=1.000=0=0=1,
399.000=drip2.jpg=1.000=0=0=1,
400.000=dababy.jpg=1.000=0=0=1,
401.000=dababy2.jpg=1.000=0=0=1,
402.000=wheres goku.png=1.000=0=0=1,
403.000=bg.jpg=1.000=0=0=1,
404.000=naruto.jpg=1.000=0=0=1,
405.000=naruto2.jpg=1.000=0=0=1,
406.000=bg.jpg=1.000=0=0=1,
407.000=wheres goku.png=1.000=0=0=1,
408.000=bg.jpg=1.000=0=0=1,
409.000=there he is.png=1.000=0=0=1,
410.000=bg.jpg=1.000=0=0=1,
411.000=OH GOD OH F.png=1.000=0=0=1,
412.000=naruto.jpg=1.000=0=0=1,
413.000=naruto2.jpg=1.000=0=0=1,
414.000=dababy.jpg=1.000=0=0=1,
415.000=dababy2.jpg=1.000=0=0=1,
416.000=drip.jpg=1.000=0=0=1,
417.000=drip2.jpg=1.000=0=0=1,
418.000=naruto.jpg=1.000=0=0=1,
419.000=naruto2.jpg=1.000=0=0=1,
420.000=bg.jpg=1.000=1=0=1=Checkerboard1File2x2==CrossFade=#FF0000=,
426.000=drip.jpg=1.000=0=0=1,
426.333=drip.jpg=1.000=0=0=1====#00FF00=,
426.667=drip.jpg=1.000=0=0=1====#0000FF=,
428.000=end.png=1.000=1=0=1===CrossFade==,
432.000=disclaimer.png=1.000=1=0=1===CrossFade==,
99999.000=-nosongbg-=1.000=0=0=0=StretchNoLoop====
;
#FGCHANGES:;

//--------------- dance-single - DaBlank ----------------
#NOTES:
     dance-single:
     DaBlank:
     Beginner:
     5:
     0.136622,0.332689,0.156001,0.040696,0,141,118,23,6,0,0,0.136622,0.332689,0.156001,0.040696,0,141,118,23,6,0,0:
0000
0000
0000
0000
,
0000
0000
0000
0000
,
0000
0000
0000
0000
,
0000
0000
0000
0000
,
0000
0000
0000
0000
,
0000
0000
0000
0000
,
0000
0000
0000
0000
,
0000
0000
0000
0000
,
0000
0000
0000
0000
,
1000
0000
0000
0000
,
1000
0000
0000
0000
,
0001
0000
0000
0000
,
0001
0000
0000
0000
,
0100
0000
0000
0000
,
0100
0000
0000
0000
,
0010
0000
0000
0000
,
0010
0000
0000
0000
,
1000
0000
1000
0000
,
1000
0000
0000
0000
,
0001
0000
0001
0000
,
0001
0000
0000
0000
,
0010
0000
0100
0000
,
1000
0000
0000
0000
,
0010
0000
0100
0000
,
0001
0000
0000
0000
,
1000
0000
1000
0000
,
1001
0000
0000
0000
,
0001
0000
0001
0000
,
1001
0000
0000
0000
,
0100
0000
0100
0000
,
0010
0000
0000
0000
,
0010
0000
0010
0000
,
0100
0000
0000
0000
,
0001
0000
0000
0000
,
0001
0000
0000
0000
,
1000
0100
0010
0000
,
1001
0000
0000
0000
,
0001
0000
0000
0000
,
0010
0000
0000
0000
,
1000
0000
0100
0000
,
0001
0000
0000
0000
,
1000
0000
1000
0000
,
0010
0000
0000
0000
,
0100
0000
0100
0000
,
0001
0000
0000
0000
,
0010
0000
0010
0000
,
0100
0000
0000
0000
,
1000
0000
1000
0000
,
0001
0000
0000
0000
,
2002
0000
0000
0000
,
0000
0000
0000
0000
,
0000
0000
0000
0000
,
0000
0000
0000
0000
,
3003
0000
0000
0000
,
0000
0000
0000
0000
,
0000
0000
0000
0000
,
0000
0000
0000
0000
,
1000
0000
0000
0000
,
0000
0000
0000
0000
,
0001
0000
0000
0000
,
0000
0000
0000
0000
,
0100
0000
0000
0000
,
0000
0000
0000
0000
,
0010
0000
0000
0000
,
0000
0000
0000
0000
,
1000
0000
1000
0000
,
1000
0000
0000
0000
,
0001
0000
0001
0000
,
0001
0000
0000
0000
,
0100
0000
0100
0000
,
0010
0000
0000
0000
,
1001
0000
0100
0000
,
0100
0000
0010
0000
,
0110
0000
0110
0000
,
0110
0000
0000
0000
,
0001
0000
0000
0000
,
0000
0000
0000
0000
,
1000
0000
1000
0000
,
1000
0000
0000
0000
,
0001
0000
0001
0000
,
0001
0000
0000
0000
,
0100
0000
0010
0000
,
0100
0000
0000
0000
,
0010
0000
0100
0000
,
0010
0000
0000
0000
,
1000
0000
0001
0000
,
1000
0000
0001
0000
,
1000
0000
0001
0000
,
1000
0000
0001
0000
,
2002
0000
0000
0000
,
0000
0000
0000
3003
,
1001
0000
0000
0000
,
1001
0000
0000
0000
,
0110
0000
0000
0000
,
0110
0000
0000
0000
,
0001
0000
0001
0000
,
1000
0000
1000
0000
,
0000
0000
0000
0000
,
0000
0000
0000
0000
,
1001
0000
0110
0000
,
1001
0000
0000
0000
,
1001
0000
0110
0000
,
0001
0000
1000
0000
,
1001
0000
1001
0000
,
1001
0000
1001
0000
,
0000
0000
0000
0000
,
0000
0000
0000
0000
,
2002
0000
0000
0000
,
0000
0000
0000
0000
,
3003
0000
0000
0000
;

//--------------- dance-single - DaBlank ----------------
#NOTES:
     dance-single:
     DaBlank:
     Easy:
     8:
     0.254834,0.479449,0.135653,0.088174,0.003391,263,243,20,13,0,0,0.254834,0.479449,0.135653,0.088174,0.003391,263,243,20,13,0,0:
0000
0000
0000
0000
,
0000
0000
0000
0000
,
0000
0000
0000
0000
,
0000
0000
0000
0000
,
0000
0000
0000
0000
,
1000
0000
0000
0000
,
0001
0000
0000
0000
,
0100
0000
0000
0000
,
0010
0000
0000
0000
,
1000
1000
1000
0000
,
0001
0001
0001
0000
,
0010
0010
0010
0000
,
0100
0100
0100
0000
,
1000
0010
1000
0000
,
0001
0100
0001
0000
,
1000
0100
1000
0000
,
0001
0010
0001
0000
,
1000
1000
1000
0010
,
1000
1000
1000
0000
,
0001
0001
0001
0100
,
0001
0001
0001
0000
,
1000
0100
0001
0100
,
1000
0100
0000
0000
,
0001
0010
1000
0010
,
0001
0010
1000
0010
,
0001
0000
1001
0000
,
0001
0000
0000
0000
0100
0010
0000
0000
,
1000
0000
1001
0000
,
1000
0000
0100
0100
,
1000
0100
0001
0010
,
1000
0001
0000
0000
,
0001
0100
1000
0010
,
0001
1000
0010
0100
,
0001
0000
0001
0000
,
1000
0000
1000
0000
,
0110
0010
1001
1000
,
0100
0010
0000
0000
,
0001
0001
1000
0000
,
0001
0001
0100
0000
,
0001
0001
0010
0001
,
1000
1000
0000
0000
,
0010
0000
1000
0000
,
0100
0000
0010
0000
,
0001
0000
0100
0000
,
0001
0000
1000
0000
,
0010
0000
0010
0000
,
0100
0000
0001
0000
,
1000
0000
0100
0000
,
0010
0000
0001
0000
,
2002
0000
0000
3003
,
0220
0000
0000
0000
,
0330
0000
0000
0000
,
0000
0000
0000
0000
,
0000
0000
0000
0000
,
0000
0000
0000
0000
,
0000
0000
0000
0000
,
0000
0000
0000
0000
,
2000
0000
3000
0000
,
0002
0000
0003
0000
,
0200
0000
0300
0000
,
0020
0000
0030
0000
,
2002
0000
0000
0000
,
0000
0000
0000
0000
,
0000
0000
0000
0000
,
0000
0000
0000
3003
,
1000
1000
0100
0100
,
0010
0010
0001
1000
,
0001
0001
0100
0100
,
0010
0000
1000
0010
,
0100
0100
0001
0001
,
1000
1000
0100
0010
,
0001
0000
0100
0100
,
0010
0010
1000
1000
,
0001
0000
1001
0000
,
0110
0000
0000
0000
0000
0000
0000
0000
1000
0000
0000
0001
0000
0000
1000
0000
,
0001
0000
0000
0000
,
0000
0000
0000
0000
,
0001
0001
0101
0101
,
1000
1000
0000
0000
,
1000
1000
1010
1010
,
0000
0000
0000
0000
,
0001
1000
0010
0100
,
0001
1000
0100
0010
,
0001
1000
0010
0100
,
0000
0000
0000
0000
,
0001
0010
0100
1000
,
0001
0100
0010
1000
,
0001
0010
0100
1000
,
0001
0100
0010
1000
,
0002
0000
0000
0000
,
0000
0000
0000
0003
,
1000
1000
0010
0100
,
0001
0001
1000
0100
,
0010
0010
0001
1000
,
0100
0000
0000
0000
,
0001
1000
0010
0100
,
0001
1000
0010
0100
,
0000
0000
0000
0000
,
0000
0000
0000
0000
,
0001
0100
1000
0100
,
0001
0100
1000
0000
,
1000
0100
0001
0000
,
1001
0000
0110
0000
,
1001
0100
0110
0010
,
1001
0100
0110
0010
,
0000
0000
0000
0000
,
0000
0000
0000
0000
,
2002
0000
0000
0000
,
0000
0000
0000
3003
;

//--------------- dance-single - DaBlank ----------------
#NOTES:
     dance-single:
     DaBlank:
     Medium:
     11:
     0.468972,0.626971,0.6647,0.189914,0.003391,484,386,98,28,0,0,0.468972,0.626971,0.6647,0.189914,0.003391,484,386,98,28,0,0:
0000
0000
0000
0000
,
0000
0000
0000
0000
,
0000
0000
0000
0000
,
0000
0000
0000
0000
,
0000
0000
0000
0000
,
1000
0000
0000
0000
,
0001
0000
0000
0000
,
0100
0000
0000
0000
,
0010
0000
0000
0000
,
1000
1000
1100
1100
,
0001
0001
0101
0101
,
1000
1000
1010
1010
,
0001
0001
0011
0011
,
2000
3010
1010
0110
,
0002
0000
0010
0000
1003
0100
0010
0000
,
0002
0103
0011
1010
,
2000
0000
3100
0000
0001
1000
0100
0000
,
1100
0100
0110
0100
,
0101
0000
0100
0000
0001
0100
1000
0000
,
0101
0100
0110
0100
,
1100
0000
0100
0000
0110
0000
1000
0100
,
0001
0010
0001
0000
1000
0100
1000
0000
,
0001
0010
0001
0000
2000
0000
3002
0000
,
1003
0010
1000
0000
0010
0100
0010
0000
,
0001
0010
0001
0000
0010
0100
0010
0000
,
1001
1001
0100
0100
,
1001
0000
1001
0000
0010
0100
0000
0000
,
1001
1001
0010
0010
,
1001
0000
1001
0000
0100
0100
0100
0000
,
0011
0101
1100
1010
,
0110
0101
0000
0000
,
1010
0011
0101
1100
,
1010
0110
0011
1001
,
1000
1000
1000
1000
,
0001
0001
0001
0001
,
0101
1100
0011
1010
,
0101
0000
1100
0000
0001
1000
0001
0000
,
0101
0101
1000
1000
,
1010
0000
1010
0000
0001
0100
1000
0000
,
0110
0000
0110
0000
0001
0100
1000
0100
,
0001
0000
1001
0000
1000
0001
0100
0000
,
0010
0010
1000
1000
,
0001
0001
0010
0010
,
0100
0100
1000
1000
,
0010
0010
0100
0100
,
1001
0001
0100
0100
,
0010
0010
1000
1000
,
0001
0010
0100
1000
,
0010
0000
0100
0000
0001
1000
0001
0000
,
0202
0000
0000
0303
,
2020
0000
0000
3030
,
0000
0000
0000
0000
,
0000
0000
0000
0000
,
0002
0000
0000
0000
,
0003
2000
0000
3000
,
0002
0000
0000
0000
,
0003
2000
0000
0000
,
3010
0010
0100
0001
,
1000
1000
0100
0010
,
0001
0100
1000
0100
,
0001
0010
1000
0010
,
2002
0000
0000
0000
,
3003
0220
0000
0330
,
2002
0000
0000
0000
,
3003
0220
0000
0330
,
1000
1000
1010
0110
,
0001
0001
0011
0110
,
1000
1000
1100
0110
,
0001
1000
0000
0000
0100
0010
0100
0010
,
0001
0001
0101
1100
,
1000
0000
1000
0000
0001
1000
0001
0000
,
0110
0000
1000
0100
0001
0000
0110
0000
,
1000
0010
0110
1001
,
0011
0000
1000
0100
0001
0000
1000
0100
,
0001
0000
0000
0000
1100
0000
0000
0000
0001
0000
0000
1000
0000
0000
0010
0000
,
0100
0000
0000
0000
,
0000
0000
0000
0000
,
0001
0100
0001
0100
0010
1000
0010
1000
,
0001
1000
0001
1000
0000
0000
0000
0000
,
1000
0100
1000
0100
0010
0001
0010
0001
,
0000
0000
0000
0000
,
1100
0000
0011
0000
1000
0001
0100
0000
,
0101
0000
1010
0000
1000
0001
0100
0000
,
0011
0000
1100
0000
1000
0100
0010
0000
,
0002
0000
2003
0000
3010
0100
0010
0000
,
1000
0010
0001
0010
1000
0010
1000
0000
,
0001
0100
0001
0100
1000
0100
0001
0000
,
1000
0100
1000
0100
0001
0100
1000
0000
,
0001
0010
0001
0010
1000
0010
0001
0000
,
2002
0000
0000
0000
,
0000
0000
3003
0000
,
1000
0001
1000
0000
1000
0100
1000
0000
,
0001
1000
0001
0000
0001
0100
0001
0000
,
1000
0010
1000
0000
1000
0100
1000
0000
,
1001
0000
0110
0000
0010
0010
0010
0000
,
1000
0100
0110
0011
,
1000
0010
0110
0101
,
0000
0000
0000
0000
,
0000
0000
0000
0000
,
1001
0000
0001
0100
1000
0000
0101
0000
,
1010
0000
1000
0100
0001
0000
0000
0000
,
1010
0000
1000
0010
0100
0000
1000
0100
,
0001
0100
0101
0010
,
1001
0100
1001
0010
,
1001
0100
1001
0010
,
0000
1000
0100
0000
,
0010
0001
0000
0000
,
2002
0000
0000
0000
,
0000
0000
0000
3003
;

//--------------- dance-single - DaBlank ----------------
#NOTES:
     dance-single:
     DaBlank:
     Hard:
     12:
     0.533891,0.695094,0.549395,0.210262,0.027131,551,470,81,31,0,0,0.533891,0.695094,0.549395,0.210262,0.027131,551,470,81,31,0,0:
0000
0000
0000
0000
,
0000
0000
0000
0000
,
0000
0000
0000
0000
,
0000
0000
0000
0000
,
0000
0000
0000
1000
,
0002
0100
0103
0010
,
2000
3100
0010
0001
,
0200
1300
0200
0301
,
0020
1030
0020
0031
,
1000
1000
1010
1010
,
0001
0001
0011
0011
,
1000
1000
1100
1100
,
0001
0001
0101
0101
,
1100
0000
0101
0000
1000
0100
0001
0000
,
1010
0000
0011
0000
1000
0010
0001
0010
,
1001
0000
0101
0000
0001
0010
0001
0000
,
1001
0000
1100
0000
0001
1000
0001
0000
,
0021
0000
1000
0000
0031
0000
1000
0200
,
0001
0000
1300
0000
1000
0010
0001
0010
,
0200
0000
1000
0000
0301
0000
0010
0001
,
0200
0000
0000
0000
1000
0000
0000
0000
0310
0000
0000
0000
1000
0100
1000
0100
,
1000
0001
0100
0001
1000
0001
0010
0001
,
1000
0010
0100
0001
0000
0000
0000
0000
,
0001
1000
0100
1000
0001
1000
0010
1000
,
0001
0100
0010
0100
0001
0000
1001
0000
,
1000
0100
0001
0000
0001
0010
1000
0000
,
1000
0100
0001
0000
1000
0001
0000
0000
,
0001
0100
1000
0000
1000
0010
0001
0000
,
0001
0000
0100
0000
1000
0000
0000
0000
0001
0000
1000
0000
0010
0100
0010
0000
,
0110
1001
0110
1001
,
1100
0000
0000
0000
0101
0000
0000
0000
0001
1000
0001
1000
0000
0000
0000
0000
,
0110
1001
0110
1001
,
1010
0011
1100
0101
,
1000
0010
0100
0001
,
1000
0000
0010
0000
0100
0000
0001
1000
,
0200
0000
0010
0000
0301
0000
1000
0010
,
0002
0000
0100
0000
1003
0001
0100
0010
,
1001
0000
1000
0002
0100
0000
0103
0000
,
0110
0000
0001
2000
0100
0100
3010
0000
,
1001
0000
0110
0000
1000
0100
0001
0010
,
1001
0000
1001
0000
0100
0010
0100
0000
,
0001
1000
0010
0100
,
0001
0010
0100
1000
,
0001
0100
0010
1000
,
0010
0100
0001
1000
,
1000
0100
0010
0001
,
0010
0100
1000
0001
,
0100
0020
1030
0100
,
0001
0000
0100
0000
1000
0001
1000
0001
,
2002
0000
0000
3003
,
0220
0000
0000
0000
,
0330
0000
0000
0000
,
0000
0000
0000
0000
,
1000
0100
0010
0001
,
1000
0001
0010
0100
,
1000
0010
0100
0001
,
1000
0001
0100
0010
,
1000
0100
1000
0000
0001
0000
0001
0000
,
1000
0010
1000
0000
0100
0000
0100
0000
,
0010
0001
0010
0000
0100
0000
0100
0000
,
0001
0100
1000
0000
0001
0000
0001
0000
,
2000
0000
3000
0000
,
0000
0020
0000
0030
,
0200
0000
0300
0000
,
0001
1000
0004
4000
0000
0000
0000
3003
,
1001
0000
0110
0000
0001
0100
1000
0000
,
1001
0000
0110
0000
1000
0100
0001
0100
,
1001
0000
0110
0000
1000
0010
0001
0000
,
0010
1000
0000
1000
0100
0010
0100
0010
,
0011
0000
1100
0000
0001
1000
0100
0000
,
1010
0000
0101
0000
1000
0010
0100
0100
,
1000
0000
1000
0100
0001
0000
1001
0000
,
1100
0000
0001
1000
0100
0000
0110
0000
,
1001
0000
0001
0100
1000
0000
0001
0100
,
1000
0000
0000
0000
0110
0000
0000
0000
0001
0000
0000
1000
0000
0000
0010
0000
,
0100
0001
2000
0000
,
3010
0000
0000
0000
0100
0010
0100
0010
0100
0000
0001
0000
1000
0000
0000
0000
,
0001
0100
1000
0100
0001
0100
1000
0100
,
0001
0010
1000
0010
0001
0000
0000
0000
,
1000
0100
0001
0100
1000
0010
0001
0010
,
1000
0000
0000
0000
,
1000
0000
1000
0000
0100
2000
0010
3000
,
0001
0000
0001
0000
0010
0002
0100
0003
,
1000
0000
1000
0000
0100
2000
0010
3000
,
1001
0000
0110
0000
1000
0001
1000
0000
,
0001
0100
0001
0100
0010
1000
0010
0100
,
0001
0010
0100
1000
0010
0100
0001
0000
,
1000
0100
1000
0100
0010
0001
0010
0100
,
1000
0010
0100
0001
0010
0100
1000
0000
,
2002
0000
0000
0000
,
0000
0000
0000
3003
,
1100
0000
1001
0000
0010
1000
0100
0000
,
0011
0000
1001
0000
0100
0001
0010
0000
,
1100
0000
1001
0000
0010
1000
0100
0000
,
0100
0000
0010
0010
0001
1000
0001
0000
,
0101
1100
0011
1010
,
0101
1100
0011
1001
,
0000
0000
0000
0000
,
0000
0000
0000
0000
,
1001
0000
1000
0010
0001
0000
0110
0000
,
1001
0000
0001
0010
1000
0000
0020
0030
,
1001
0000
0001
0100
1000
0000
0100
0010
,
0100
0000
0001
1000
0001
0000
0100
0010
,
1000
1000
1100
1100
,
0001
0001
0101
0101
,
0000
1000
0001
0000
,
0100
0010
0000
0000
,
2002
0000
0000
0000
0000
0000
3000
0003
;

//--------------- dance-single - DaBlank VS Goku???? ----------------
#NOTES:
     dance-single:
     DaBlank VS Goku????:
     Challenge:
     16:
     0.717992,0.887171,0.603656,0.529047,0.396785,741,652,89,78,0,0,0.717992,0.887171,0.603656,0.529047,0.396785,741,652,89,78,0,0:
0000
0000
0000
0000
,
0000
0000
0000
0000
,
0000
0000
0000
0000
,
0000
0000
0000
0000
,
0000
0000
0000
0000
0000
0000
0000
0000
0000
1000
0010
0100
,
0002
0000
0000
0010
0000
0000
0013
0000
0000
0001
1000
0100
,
0010
0000
0010
0001
0000
0000
1000
0001
0100
0010
1000
0010
,
0200
0301
1002
0103
,
2001
0000
0000
0000
3010
0000
0000
0000
1000
0000
0001
0100
0001
0000
0010
0000
,
1002
0000
0003
0000
0100
0001
0000
0000
0011
0000
0000
1000
0001
0000
0100
0000
,
0101
0000
0000
0000
0010
0001
0000
0000
1001
0000
0000
0001
0010
0000
0010
0000
,
0110
0000
0000
0000
1000
0010
0000
0000
1100
0000
0000
0001
1000
0000
0010
0000
,
1010
0000
0000
0000
0001
1000
0000
0000
0110
0000
0000
0001
0100
0000
0010
0000
,
1010
0000
0000
0000
0101
0000
0000
0000
1000
0001
0000
0100
0001
0000
0000
0000
,
0011
0000
0000
0000
0000
0000
0000
0000
0000
0000
0000
0000
1100
0000
0000
0000
0000
0000
0000
0000
0000
0000
0000
0000
0001
0000
0000
0000
0000
0000
0010
0000
0000
0100
0000
0000
1000
0000
0000
0000
0000
0000
0000
0001
0000
0000
0000
0000
,
0011
0000
0000
0000
1100
0000
0000
0000
0001
0100
0000
0010
1000
0000
0000
0000
,
0110
0000
1001
0000
1000
0001
0100
0000
,
0021
0000
0000
0000
1000
0000
0000
0000
0031
0000
0000
0010
1000
0000
0001
0000
,
1200
0000
0001
0000
1300
0010
0001
1000
,
0201
0000
0000
0000
1000
0000
0000
0000
0301
0000
0000
0010
1000
0000
0001
0000
,
1200
0000
0000
0000
0001
0000
0000
0000
1300
0000
0000
0000
0010
0100
0010
0100
,
0001
0000
1000
0100
0010
0000
0001
0000
1000
0000
0001
0100
0010
0000
1000
0000
,
0001
0000
1000
0100
0010
0000
0001
0000
0100
0010
0100
0010
0100
0010
0100
0010
,
1000
0000
0001
0010
0100
0000
1000
0000
0001
0000
1000
0010
0100
0000
0001
0000
,
1000
0000
0000
0000
0000
0000
0001
0000
0000
0010
0000
0000
0100
0000
0000
0000
0000
0000
1000
0000
0000
0000
0000
0000
0001
0000
0000
0000
0000
0000
0100
0000
0000
0000
0000
0000
0010
0000
0000
0000
1000
0000
0000
0000
0001
0000
0000
0000
,
2000
0100
3001
0000
2010
0100
3001
1000
,
0012
0100
1003
0000
0011
0100
0000
0000
,
0002
0100
1003
0000
0012
0100
1003
0001
,
2010
0000
0100
0000
3001
0000
0000
0000
0010
0000
0010
0000
0010
0001
1000
0000
,
1100
1001
0011
0101
,
1010
0000
0000
0000
0000
0000
0000
0000
0000
0000
0000
0000
0110
0000
0000
0000
0000
0000
0000
0000
0000
0000
0000
0000
0001
0000
0000
0010
0000
0000
0001
0000
0000
0010
0000
0000
0001
0000
0000
0000
0100
0000
0000
0000
0010
0000
0000
0000
,
1000
1100
0001
0101
,
1010
0011
1100
0101
,
2000
3000
0000
0000
0200
0300
0000
0000
0020
0030
0000
0000
0002
0003
0000
0000
,
2000
3000
0000
0000
0200
0300
0000
0000
0020
0030
0000
0000
0002
0003
1000
0000
,
0201
0000
0000
0000
0010
0000
0000
0000
1300
0000
0000
0100
0001
0000
1000
0000
,
1200
0000
0000
0000
0010
0000
0000
0000
0301
0000
0100
1000
0001
0000
0100
0000
,
0110
0000
0000
0000
0110
0000
0001
0000
2000
3000
0000
0000
2000
3000
0000
0000
,
0110
0000
0000
0000
0000
0000
0000
0000
0110
0000
0000
0000
1000
0000
0000
0000
0001
0000
0000
0000
0001
0000
0000
0000
0200
0300
0000
0000
0020
0030
0000
0000
,
0110
0000
0110
1000
0200
0301
0200
1300
,
0110
0000
0110
0001
0100
0010
1001
0000
,
1000
0000
0000
0001
0000
0000
0100
0000
0000
0010
1000
0010
,
0100
0000
0100
0001
0000
0000
1000
0000
0000
0100
0010
0001
,
0010
0000
0010
0100
0000
0000
1000
0000
0000
0010
0100
0001
,
1000
0000
0000
0000
0000
0000
0000
0000
0100
0000
0000
0000
0010
0000
0000
0000
0000
0000
0000
0000
0000
0000
0000
0000
0001
0000
0000
0000
0000
0000
0000
0000
0000
0000
0000
0000
1000
0000
0000
0001
0000
0000
1000
0000
0000
0001
0000
0000
,
1000
0000
0000
0010
0000
0000
1000
0000
0000
0001
1000
0001
,
0100
0000
0010
1000
0000
0000
1000
0000
0000
0001
0010
0100
,
0010
0000
0000
0000
0010
0000
0002
0000
0000
0003
0000
0000
1000
0000
0001
0000
0100
0000
0010
0000
1000
0000
0100
0000
,
1000
0000
0000
0000
1001
0000
0000
0000
1000
0000
0001
0000
0100
0010
0100
0000
,
0220
0000
0000
0330
,
2002
0000
0000
0000
,
3003
0000
0000
0000
,
0000
0000
0000
0000
,
2000
0000
3000
0000
,
0000
0020
0000
0030
,
2000
0000
3000
0000
,
0000
0002
0000
0003
,
0010
0100
1000
0000
0001
0000
1000
0000
,
0010
0100
0001
0000
1000
0000
0010
0000
,
0100
0001
0010
0000
0001
0000
1000
0000
,
0100
1000
0010
0000
0100
0000
0001
0000
,
2002
0000
0000
0000
,
3003
0220
0000
0330
,
2002
0000
0000
3003
,
0000
0220
0000
0330
,
1100
0000
0000
0000
0011
0000
0000
0000
1010
0000
1000
0100
0010
0000
0000
0000
,
0011
0000
0000
0000
1010
0000
0000
0000
0101
0000
0001
0100
0010
0000
1000
0000
,
1001
0000
0000
0000
1100
0000
0000
0000
0011
0000
0010
0001
0100
0000
0000
0000
,
0010
0000
2000
0000
0000
0000
3001
0000
1000
0100
0010
0001
1000
0100
0010
0001
,
2000
0000
3000
0000
1100
0000
1000
0100
0010
0000
0001
0000
0001
0000
0000
0000
,
1001
0000
0000
0000
0101
0000
0001
0100
0010
1000
0010
0100
0001
0010
0001
0010
,
0001
0000
0000
0000
0001
0010
1000
0010
0001
0000
1000
0000
1000
0000
0000
0000
,
1100
0000
0000
0000
0011
0000
1000
0001
0100
0000
0010
0000
0210
0000
0000
0000
,
1300
0000
0000
0000
0100
0010
1000
0010
0100
0000
0000
0000
0010
0100
0001
0100
,
0010
0000
0000
0000
0110
0000
0000
0000
1001
0000
0000
0011
0000
0000
1100
0000
,
1001
0000
1000
0001
0200
0000
0000
0000
,
0310
0000
0000
0000
0010
0001
0010
0100
0010
0000
1000
0000
0002
0000
0003
0000
,
1000
0100
0001
0100
1000
0100
0001
0100
,
1000
0100
0001
0100
1000
1000
0001
0000
,
0001
0100
1000
0100
0001
0100
1000
0100
,
0001
0010
0100
1000
0002
0003
2000
3000
0010
0000
0010
0000
1001
0000
0000
0000
,
0001
0000
1000
0000
0010
0000
1000
0000
0001
0000
0100
0001
0010
0000
0001
0000
,
1000
0000
0001
0000
0010
0000
0001
0000
1000
0000
0100
1000
0010
0000
1000
0000
,
0001
0000
0100
0000
0010
0000
0100
0000
0001
0000
1000
0100
0010
0000
0001
0000
,
1000
0000
0002
0003
0100
0100
0020
0030
,
1000
0000
0001
0000
0001
0000
0100
0000
0100
0000
0010
1000
0100
0000
0010
0000
,
0001
0000
0100
0000
0100
0000
0010
0000
0010
0000
1000
0100
0010
0000
0001
0000
,
0100
0000
0010
0000
0010
0000
1000
0000
1000
0000
0001
0010
0100
0000
1000
0000
,
0001
0000
1000
0000
1000
0000
0100
0000
0100
0000
0010
0001
1000
0000
0010
0000
,
0220
0000
0000
0000
,
0000
0000
0000
0000
0000
0000
0330
1000
,
0002
0000
0010
0000
1003
0000
0001
1000
0001
0000
0100
0000
0010
0000
0010
0000
,
2000
0000
0100
0000
3001
0000
1000
0001
1000
0000
0100
0000
1000
0000
0001
0000
,
0200
0000
0010
0000
0301
0000
0100
0010
0100
0000
0001
0000
1000
0000
1000
0000
,
0220
0000
0330
0000
0001
1000
0001
0000
0100
0000
0100
0000
0010
0000
0010
0000
,
1100
0001
0100
0001
1100
0001
0100
0001
,
1010
0001
0010
0001
1010
0001
0010
0001
,
1000
0000
1000
0000
0020
0000
0130
0000
0001
0000
0001
0000
1000
0100
0010
0001
,
0020
0000
0230
0000
1300
0000
0001
0000
0200
0000
0320
0000
1030
0001
1000
0001
,
0100
0000
1000
0000
0100
0000
0001
0000
0010
0000
0000
0010
0100
0000
1000
0000
,
0010
0000
0001
0000
0010
0000
1000
0000
0100
0000
0000
0100
0002
0000
0000
0000
,
1003
0000
0010
0000
0001
0000
0010
0000
0100
0000
0000
1000
0020
0000
0230
0000
,
0301
0000
0000
0000
1000
0000
0100
0000
0010
0000
0000
0010
0000
0000
0001
0000
1000
0000
0000
0010
0000
0000
0100
0000
0001
0000
0000
0000
1000
0000
0000
0000
,
0101
1000
0100
1000
0101
1000
0100
1000
,
0011
1000
0010
1000
0011
1000
0010
1000
,
0001
0000
2000
3000
0002
0003
0000
0000
,
2000
0000
0000
0000
3000
0000
0000
0000
0020
0000
0000
0000
0030
0000
0000
0000
0100
0000
0000
0100
0000
0000
0100
0000
0000
0000
0000
0000
0000
0000
0000
0000
,
0220
0000
0000
0000
,
0000
0000
0000
0000
,
0330
0000
0000
0000
;
